osu file format v12

[General]
AudioFilename: ED2.mp3
AudioLeadIn: 2000
PreviewTime: 43964
Countdown: 0
SampleSet: Soft
StackLeniency: 0.5
Mode: 0
LetterboxInBreaks: 0
WidescreenStoryboard: 0

[Editor]
Bookmarks: 2822,16536,30250,52528,59385,66242,73099
DistanceSpacing: 1
BeatDivisor: 4
GridSize: 4

[Metadata]
Title:Yuki ni Saku Hana (TV Size)
TitleUnicode:雪に咲く花 (TV Size)
Artist:Hanazawa Kana
ArtistUnicode:花澤香菜
Creator:Damnae
Version:Easy
Source:Shin Sekai Yori
Tags:akizuki maria watanabe saki ending 新世界より from the new world shinsekai nemis
BeatmapID:281761
BeatmapSetID:106001

[Difficulty]
HPDrainRate:2
CircleSize:2
OverallDifficulty:2
ApproachRate:2
SliderMultiplier:2
SliderTickRate:2

[Events]
//Background and Video events
Video,50,"Video.flv"
0,0,"bg.png",0,0
//Break Periods
//Storyboard Layer 0 (Background)
//Storyboard Layer 1 (Fail)
//Storyboard Layer 2 (Pass)
//Storyboard Layer 3 (Foreground)
//Storyboard Sound Samples
//Background Colour Transformations
3,100,0,0,0

[TimingPoints]
2822,857.142857142857,4,2,1,35,1,0
5393,-100,4,2,1,40,0,0
5822,-100,4,2,1,35,0,0
8822,-100,4,2,1,40,0,0
9250,-100,4,2,1,35,0,0
12250,-100,4,2,1,40,0,0
12679,-100,4,2,1,35,0,0
15893,-100,4,2,1,25,0,0
16536,-100,4,2,1,35,0,0
19107,-100,4,2,1,40,0,0
19536,-100,4,2,1,35,0,0
29393,-100,4,2,1,25,0,0
30250,-100,4,2,1,35,0,0
34107,-100,4,2,1,25,0,0
34536,-100,4,2,1,13,0,0
34964,-100,4,2,1,18,0,0
35393,-100,4,2,1,25,0,0
37964,-100,4,2,1,20,0,0
38393,-100,4,2,1,35,0,0
39679,-100,4,2,1,40,0,0
40107,-100,4,2,1,25,0,0
40536,-100,4,2,1,35,0,0
44822,-100,4,2,1,15,0,0
45250,-100,4,2,1,35,0,0
45679,857.142857142857,4,2,1,50,1,1
62821,-100,4,2,1,40,0,1
63250,-100,4,2,1,50,0,1
66250,-100,4,2,1,35,0,1
66679,-100,4,2,1,50,0,1
73107,-100,4,2,1,40,0,1
73964,-100,4,2,1,30,0,1
74821,-100,4,2,1,30,0,1
75250,-100,4,2,1,40,0,1
77821,-100,4,2,1,30,0,1
78250,-100,4,2,1,40,0,1
78679,-100,4,2,1,35,0,1
79107,-100,4,2,1,40,0,1
79964,-100,4,2,1,40,0,0
80821,-100,4,2,1,30,0,0
81679,-100,4,2,1,35,0,0
82536,-100,4,2,1,30,0,0
83393,-100,4,2,1,40,0,0
86071,-100,4,2,1,35,0,0
86393,-100,4,2,1,25,0,0
86822,-100,4,2,1,20,0,0
87250,-100,4,2,1,15,0,0
87679,-100,4,2,1,10,0,0
88107,-100,4,2,1,5,0,0

[Colours]
Combo1 : 255,94,55
Combo2 : 173,255,95
Combo3 : 17,254,176
Combo4 : 255,88,100

[HitObjects]
56,308,2822,6,0,L|156:328,1,100,0|0,1:0|1:0,0:0:0:0:
252,300,3679,2,0,L|352:320,1,100,2|0,0:0|0:0,0:0:0:0:
448,292,4536,1,0,1:0:0:0:
436,92,5393,6,0,P|412:148|416:188,1,100,8|0,0:0|0:0,0:0:0:0:
320,212,6250,2,0,P|264:188|224:192,1,100,0|0,1:0|1:0,0:0:0:0:
252,288,7107,2,0,P|308:312|348:308,1,100,0|2,0:0|0:0,0:0:0:0:
416,236,7964,1,0,1:0:0:0:
244,132,8822,6,0,P|140:96|72:152,1,200,8|0,0:0|1:0,0:0:0:0:
164,196,10107,2,0,L|184:296,2,100,0|2|0,1:0|0:0|0:0,0:0:0:0:
76,148,11393,1,0,1:0:0:0:
260,228,12250,6,0,P|364:264|432:208,1,200,8|0,0:0|1:0,0:0:0:0:
340,164,13536,1,0,1:0:0:0:
256,108,13964,2,0,L|276:8,1,100,0|2,0:0|0:0,0:0:0:0:
176,32,14822,2,0,L|136:228,1,200,0|4,1:0|1:3,0:0:0:0:
336,228,16536,6,0,P|360:172|356:132,1,100,0|0,1:0|1:0,0:0:0:0:
260,160,17393,2,0,P|236:216|240:256,1,100,2|0,0:0|0:0,0:0:0:0:
308,328,18250,1,0,1:0:0:0:
124,244,19107,6,0,L|84:48,1,200,8|0,0:0|1:0,0:0:0:0:
184,68,20393,2,0,L|204:168,1,100,0|2,1:0|0:0,0:0:0:0:
264,244,21250,2,0,P|320:268|360:264,1,100,0|0,0:0|1:0,0:0:0:0:
388,64,22536,5,8,0:0:0:0:
289,83,22964,1,2,0:0:0:0:
192,104,23393,2,0,L|93:84,2,100,0|0|0,1:0|0:0|0:0,0:0:0:0:
260,176,24679,2,0,P|284:232|280:269,1,100,2|0,0:0|1:0,0:0:0:0:
180,240,25536,2,0,P|156:296|160:336,2,100,2|8|0,0:0|0:0|2:0,0:0:0:0:
256,192,26822,12,0,28536,1:0:0:0:
120,36,29392,5,4,1:3:0:0:
216,60,29821,1,8,3:0:0:0:
312,84,30250,6,0,L|292:184,1,100,4|0,1:0|1:0,0:0:0:0:
336,272,31107,2,0,P|392:296|429:292,1,100,2|0,0:0|1:0,0:0:0:0:
404,196,31964,1,0,1:0:0:0:
204,244,32822,6,0,L|184:344,1,100,0|0,1:0|1:0,0:0:0:0:
96,292,33679,2,0,L|116:192,1,100,0|2,1:0|1:2,0:0:0:0:
196,136,34536,2,0,P|172:80|176:43,1,100,12|12,0:2|1:2,0:0:0:0:
272,72,35393,2,0,L|468:112,1,200,4|8,1:2|0:0,0:0:0:0:
444,208,36679,5,0,0:0:0:0:
408,300,37107,2,0,P|352:324|315:320,1,100,4|0,1:0|1:0,0:0:0:0:
340,224,37964,1,4,1:2:0:0:
244,248,38393,2,0,L|144:268,1,100,0|0,1:0|1:0,0:0:0:0:
256,100,39679,6,0,L|356:80,2,100,8|4|4,2:0|1:2|1:0,0:0:0:0:
256,192,41393,12,0,43964,1:0:0:0:
256,124,44822,5,4,0:0:0:0:
336,180,45250,1,2,0:0:0:0:
256,240,45679,6,0,L|236:340,1,100,0|0,1:0|1:0,0:0:0:0:
140,304,46536,2,0,P|152:200|112:108,1,200,8|0,0:0|1:0,0:0:0:0:
192,48,47821,1,0,1:0:0:0:
256,124,48250,6,0,P|360:112|436:58,1,200,8|4,0:0|1:0,0:0:0:0:
452,256,49964,2,0,P|348:244|256:284,1,200,8|0,0:0|1:0,0:0:0:0:
176,328,51250,2,0,L|156:228,2,100,8|8|0,0:0|0:0|1:0,0:0:0:0:
76,328,52536,6,0,L|36:128,1,200,4|8,1:2|0:0,0:0:0:0:
204,20,54250,2,0,P|228:76|224:116,1,100,0|0,1:0|1:0,0:0:0:0:
315,152,55107,2,0,P|293:196|295:245,1,100,8|0,2:0|1:0,0:0:0:0:
388,280,55964,6,0,P|295:342|213:298,2,200,0|8|0,1:0|0:0|1:0,0:0:0:0:
444,196,58107,2,0,L|464:96,2,100,8|8|0,0:0|0:0|1:2,0:0:0:0:
360,144,59393,6,0,P|364:256|448:296,1,200,4|8,1:0|0:0,0:0:0:0:
448,96,61107,2,0,P|349:43|272:96,1,200,0|8,1:0|0:0,0:0:0:0:
212,156,62393,1,8,0:0:0:0:
216,256,62821,6,0,P|121:196|128:103,1,200,4|8,1:0|0:0,0:0:0:0:
300,208,64536,2,0,P|312:256|292:320,2,100,0|8|8,1:0|0:0|0:0,0:0:0:0:
212,156,65821,1,0,1:0:0:0:
124,208,66250,6,0,P|112:256|132:320,1,100,4|0,1:2|0:0,0:0:0:0:
212,348,67107,2,0,L|412:308,1,200,8|0,2:0|1:0,0:0:0:0:
476,236,68393,1,0,1:0:0:0:
380,212,68821,2,0,P|324:188|284:192,1,100,8|0,2:0|2:0,0:0:0:0:
204,252,69679,6,0,L|104:232,1,100,0|0,1:0|2:0,0:0:0:0:
132,136,70536,2,0,P|236:148|328:108,1,200,8|0,0:0|1:0,0:0:0:0:
420,128,71821,2,0,L|440:28,2,100,8|8|0,0:0|0:0|1:0,0:0:0:0:
352,200,73107,6,0,P|269:265|233:358,1,200,4|12,1:0|2:0,0:0:0:0:
160,164,74821,2,0,L|60:144,2,100,4|8|12,1:0|0:0|2:0,0:0:0:0:
260,148,76107,1,0,0:0:0:0:
352,200,76536,6,0,P|461:190|500:111,1,200,4|12,1:0|2:0,0:0:0:0:
396,106,77821,2,0,P|286:115|247:194,1,200,4|8,1:2|2:0,0:0:0:0:
288,280,79107,1,8,0:0:0:0:
196,316,79536,1,0,1:0:0:0:
100,344,79964,6,0,L|0:324,1,100,2|0,2:0|1:0,0:0:0:0:
64,244,80821,2,0,P|88:188|84:148,1,100,8|0,2:0|1:0,0:0:0:0:
64,52,81679,2,0,L|164:72,1,100,4|0,1:0|1:0,0:0:0:0:
240,136,82536,2,0,L|340:116,1,100,10|0,2:0|1:0,0:0:0:0:
256,192,83393,12,0,88536,0:0:0:0:
