osu file format v7

[General]
AudioFilename: Renai Circulation ver Izaya.mp3
AudioLeadIn: 0
PreviewTime: -1
Countdown: 1
SampleSet: Soft
StackLeniency: 0.7
Mode: 0
LetterboxInBreaks: 1

[Editor]
DistanceSpacing: 0.800000011920929
BeatDivisor: 6
GridSize: 8

[Metadata]
Title:Renai Circulation(Ver.Izaya)
Artist:Hanazawa Kana
Creator:aumu1995
Version:Normal
Source:
Tags:Durarara Bakemonogatari

[Difficulty]
HPDrainRate:7
CircleSize:5
OverallDifficulty:7
SliderMultiplier:0.799999999999999
SliderTickRate:0.5

[Events]
//Background and Video events
0,0,"iza+nade.jpg"
//Break Periods
2,12202,25102
2,92202,105102
2,161702,169102
//Storyboard Layer 0 (Background)
//Storyboard Layer 1 (Fail)
//Storyboard Layer 2 (Pass)
//Storyboard Layer 3 (Foreground)
//Storyboard Sound Samples
//Background Colour Transformations
3,100,163,162,255

[TimingPoints]
17086.3008462211,500,4,2,0,100,1,0

[HitObjects]
80,88,2002,1,0
160,88,3002,1,0
160,88,3419,1,0
72,168,4086,1,0
168,160,5002,1,0
168,160,5419,1,0
72,248,6002,5,0
168,248,7002,1,0
168,248,7336,1,0
80,328,8002,5,0
152,336,9002,1,0
152,336,9502,1,8
256,192,9919,12,0,12002
48,80,26002,5,0
104,128,26502,1,0
160,176,27002,1,8
160,176,27252,1,8
200,184,27502,1,0
456,96,28086,5,0
432,128,28502,1,0
400,176,29002,1,8
400,176,29252,1,8
360,176,29502,1,0
240,48,30002,1,0
240,88,30502,1,0
240,128,31002,1,0
240,176,31502,1,0
16,320,32002,5,0
48,280,32502,1,0
72,312,33002,1,0
104,288,33502,1,0
152,328,34002,2,0,B|240:304|240:304,1,79.9999999999999,2|4
229,306,34752,2,0,B|280:288|264:296,1,40
312,280,35252,2,0,B|240:192|208:272,1,133.333333333333
440,192,36502,5,0
416,144,37002,1,0
392,192,37502,1,0
80,80,38002,5,0
144,80,38502,1,0
208,80,39002,1,0
272,72,39502,1,0
448,160,40002,5,0
384,160,40502,1,0
320,160,41002,1,0
264,160,41502,1,0
256,56,42002,5,2
256,112,42502,1,2
264,160,43002,1,2
272,208,43502,1,2
264,248,44002,1,0
256,296,44502,1,0
240,336,45002,1,0
168,312,45502,5,0
96,224,46502,1,0
112,64,47002,6,8,B|160:152,1,93.3333333333332
192,56,48002,2,8,B|232:136,1,79.9999999999999
256,40,49002,2,8,B|312:120,1,93.3333333333332
424,88,50002,2,4,B|432:128,4,40
472,288,51502,2,4,B|448:328,4,40
168,288,53002,1,8
280,280,53502,1,12
72,96,54002,2,0,B|112:176|160:128,1,106.666666666667
376,80,55002,2,12,B|320:136|256:112,1,120
256,192,56002,12,0,57586
64,96,58002,5,0
88,128,58502,1,0
112,144,59002,1,0
144,160,59502,1,0
176,160,59752,1,8
176,160,60002,1,0
208,160,60252,1,8
208,160,60502,1,8
256,160,60752,1,4
448,104,62002,5,0
432,136,62502,1,0
408,160,63002,1,0
376,168,63502,1,0
336,168,64002,1,8
336,168,64252,1,8
336,168,64586,1,8
296,176,64836,1,4
96,96,66002,6,4,B|128:208|80:288|160:344|272:272,1,333.333333333333
112,176,69002,1,0
176,176,69502,1,0
272,40,70002,5,8
208,144,70502,1,8
344,136,71002,1,8
272,232,71502,1,8
272,336,72002,1,12
144,208,73002,1,0
240,216,73586,1,0
96,112,74086,6,0,B|80:336,1,213.333333333333
296,136,76002,2,4,B|224:336,1,200
96,216,78002,5,0
144,168,78502,1,0
192,216,79002,1,0
152,256,79502,1,0
192,88,80002,2,0,B|176:240|336:232|344:80|336:80,1,280
64,320,82002,2,0,B|224:216,1,186.666666666666
280,320,83752,2,0,B|344:256,1,79.9999999999999
344,256,84502,2,0,B|384:200,1,66.6666666666666
360,224,85086,2,0,B|392:168,1,53.3333333333333
248,32,86002,2,0,B|232:96|272:96|336:200|-16:8|344:312|200:320|128:280|96:168|176:120|320:128|104:176|472:240|464:304|320:328|176:320|232:320,1,559.999999999999
256,192,90002,12,0,92002
72,88,106002,5,0
152,96,107002,1,0
72,160,108086,1,0
160,168,109002,1,0
72,344,110002,5,0
104,320,110586,1,0
136,296,111086,1,0
168,280,111586,1,0
200,256,112086,1,0
224,224,112586,1,0
240,176,113086,1,0
240,128,113502,1,0
456,328,114086,5,0
448,272,114586,1,0
384,288,115086,2,0,B|320:272,1,53.3333333333333
64,328,116002,5,0
112,352,116502,1,0
136,312,116919,2,0,B|176:272,1,53.3333333333333
96,224,118086,1,0
128,208,118586,1,0
160,232,119086,1,0
184,216,119586,1,0
432,232,120086,5,0
400,208,120586,1,0
360,232,121086,1,0
360,232,121169,1,0
360,232,121252,1,0
360,232,121419,1,0
320,232,121586,1,0
232,96,122086,5,0
192,136,122586,1,0
256,144,123086,1,0
432,312,123586,5,0
408,280,124086,1,0
368,320,124586,1,0
72,96,125086,5,0
104,144,125502,1,0
124,266,125919,2,0,B|72:320,1,66.6666666666666
128,232,127002,1,0
176,192,127502,1,0
216,232,128002,1,0
256,200,128502,1,0
432,216,129002,5,0
384,208,129252,1,8
384,208,129502,1,8
256,56,130002,5,0
256,104,130502,1,0
256,136,131002,1,0
256,176,131502,1,0
256,208,132002,1,0
256,256,132502,1,0
248,296,133002,1,0
184,168,133919,2,0,B|-80:336|216:144|264:200|176:168,1,293.333333333333
32,160,136002,1,0
96,112,137002,5,0
128,160,137586,1,0
296,56,138086,1,0
176,176,138586,1,0
424,184,139086,1,0
64,64,139586,5,0
176,176,140086,1,0
288,256,140586,1,0
408,336,141086,1,0
464,288,141586,1,0
480,16,142086,5,0
400,112,142586,1,0
320,176,143086,1,0
240,240,143586,1,0
184,288,144086,1,0
112,304,144586,1,0
40,256,145086,1,0
56,168,145586,1,0
128,240,146002,6,0,B|128:152,2,79.9999999999999
192,232,147586,1,0
232,208,148086,1,0
112,288,148586,1,0
160,232,149086,1,0
200,288,149586,1,0
280,48,150086,5,0
208,96,150586,1,0
344,112,151086,1,0
272,176,151586,1,0
104,272,152086,1,0
160,312,152586,1,0
240,304,153086,1,0
336,272,153502,1,0
144,168,154002,5,0
192,176,154502,1,0
240,168,155002,1,0
288,160,155502,1,0
312,240,156002,5,0
272,240,156502,1,0
224,240,157002,1,0
176,240,157502,1,0
256,112,158002,5,0
240,168,158502,1,0
256,208,159086,1,0
272,232,159502,1,0
144,184,160002,5,0
192,192,160502,1,0
256,184,161002,1,0
352,80,161252,1,0
128,272,161502,1,0
72,128,170002,6,0,B|128:208,1,93.3333333333332
240,144,171002,2,0,B|192:216,1,79.9999999999999
320,152,172002,2,0,B|344:256,1,93.3333333333332
296,304,173002,2,0,B|224:240,1,93.3333333333332
96,256,174002,2,0,B|200:240,1,93.3333333333332
400,248,175002,2,0,B|352:160,1,93.3333333333332
256,240,176002,2,0,B|312:176,1,79.9999999999999
328,312,177002,2,0,B|272:248,1,79.9999999999999
176,224,178002,2,0,B|248:152,1,93.3333333333332
360,248,179002,2,0,B|320:152,1,93.3333333333332
336,128,180002,6,0,B|280:200,1,79.9999999999999
96,168,181002,2,0,B|160:240,1,93.3333333333332
344,240,182002,2,0,B|248:264,1,93.3333333333332
424,304,183002,2,0,B|336:344,1,93.3333333333332
392,136,184002,2,0,B|384:240,1,93.3333333333332
168,144,185002,6,0,B|208:232,1,93.3333333333332
256,192,186002,1,0
256,192,186502,12,0,187836
88,144,189502,5,0
112,104,190002,1,0
136,144,190502,1,0
176,160,191002,1,0
232,144,191502,1,0
56,128,192002,2,0,B|96:184,1,66.6666666666666
144,136,193086,2,0,B|128:208,1,66.6666666666666
216,112,194002,2,0,B|240:168,1,53.3333333333333
312,112,195002,2,0,B|288:152,2,40
480,320,196002,2,0,B|448:296|440:296,4,40
336,336,197419,2,0,B|352:296,4,40
464,208,199002,2,0,B|344:136|400:168,1,106.666666666667
288,152,200002,2,0,B|344:272,1,120
384,208,201002,2,0,B|256:208,1,120
160,224,202002,5,0
336,224,202419,1,0
144,96,202919,2,0,B|224:176,1,106.666666666667
160,208,204002,1,0
64,128,204502,1,0
120,104,205002,5,0
176,136,205502,1,0
208,176,206086,1,0
248,200,206586,1,0
288,208,207002,1,0
336,192,207502,1,0
392,80,208002,5,0
352,96,208502,1,0
352,144,208919,1,0
392,152,209419,1,0
432,144,210002,1,0
432,112,210502,1,0
400,112,211002,1,0
368,120,211502,1,0
448,320,212002,5,0
432,280,212502,1,0
384,280,213002,1,0
360,312,213502,1,0
328,328,214002,1,0
280,328,214502,1,0
240,312,215002,1,0
224,288,215502,1,0
80,88,216002,2,0,B|96:240,1,146.666666666666
272,152,217919,6,0,B|184:208|272:296|376:296|360:248|312:216|336:192|384:152,1,293.333333333333
