osu file format v7

[General]
AudioFilename: Renai Circulation ver Izaya.mp3
AudioLeadIn: 0
PreviewTime: -1
Countdown: 1
SampleSet: Soft
StackLeniency: 0.7
Mode: 0
LetterboxInBreaks: 1

[Editor]
DistanceSpacing: 0.800000011920929
BeatDivisor: 2
GridSize: 8

[Metadata]
Title:Renai Circulation(Ver.Izaya)
Artist:Hanazawa Kana
Creator:aumu1995
Version:Easy
Source:
Tags:Renai Hanazawa Bakemonogatari

[Difficulty]
HPDrainRate:5
CircleSize:3
OverallDifficulty:0
SliderMultiplier:0.799999999999999
SliderTickRate:0.5

[Events]
//Background and Video events
0,0,"iza+nade.jpg"
//Break Periods
2,10286,24286
2,42286,48286
2,92286,104286
//Storyboard Layer 0 (Background)
//Storyboard Layer 1 (Fail)
//Storyboard Layer 2 (Pass)
//Storyboard Layer 3 (Foreground)
//Storyboard Sound Samples
//Background Colour Transformations
3,100,163,162,255

[TimingPoints]
17086.3008462211,500,4,2,0,100,1,0

[HitObjects]
480,320,2086,1,0
376,320,4086,1,0
216,328,6086,1,0
88,320,8086,1,0
240,192,10086,1,0
56,104,26086,5,0
168,96,27086,1,0
248,96,28086,1,0
344,96,29086,1,0
336,192,30086,5,0
240,192,31086,1,0
144,192,32086,1,0
32,192,33086,1,0
72,296,34086,5,0
192,296,35086,1,0
336,304,36086,1,0
464,312,37086,1,0
472,208,38086,5,0
352,200,39086,1,0
224,192,40086,1,0
96,192,41086,1,0
264,96,42086,5,0
88,32,50086,6,0,B|88:368,1,320
408,24,54086,2,0,B|424:352,1,320
64,104,58086,5,0
216,104,59086,1,0
376,112,60086,1,0
376,264,61086,1,0
224,264,62086,1,0
64,264,63086,1,0
64,88,64086,5,0
64,168,65086,1,0
64,256,66086,1,0
64,344,67086,1,0
184,56,68086,5,0
192,136,69086,1,0
192,224,70086,1,0
184,336,71086,1,0
304,56,72086,5,0
304,120,73086,1,0
304,224,74086,1,0
304,336,75086,1,0
440,64,76086,5,0
440,152,77086,1,0
448,240,78086,1,0
456,336,79086,1,0
72,152,80086,5,0
128,72,80586,1,0
192,144,81086,1,0
272,72,81586,1,0
440,296,83086,5,0
352,288,84086,1,0
256,288,85086,1,0
80,216,86086,5,0
112,192,87086,1,0
144,224,88086,1,0
192,224,89086,1,0
256,192,89836,12,0,92086
72,104,106086,5,0
192,104,107086,1,0
328,104,108086,1,0
448,88,109086,1,0
464,288,110086,5,0
368,288,111086,1,0
240,280,112086,1,0
136,272,113086,1,0
120,128,114086,5,0
120,128,115086,2,0,B|336:264,2,240
80,216,120086,1,0
112,168,120586,1,0
144,216,121086,1,0
176,168,121586,1,0
120,304,122086,5,0
208,304,123086,1,0
320,296,124086,1,0
456,296,125086,1,0
456,208,126086,5,0
336,208,127086,1,0
232,208,128086,1,0
112,216,129086,1,0
48,80,130086,5,0
152,80,131086,1,0
272,80,132086,1,0
424,72,133086,1,0
56,328,134086,2,0,B|464:56,1,479.999999999999
