osu file format v9

[General]
AudioFilename: Renai Circulation -irony MIX-.mp3
AudioLeadIn: 0
PreviewTime: 44325
Countdown: 0
SampleSet: Soft
StackLeniency: 0.7
Mode: 0
LetterboxInBreaks: 0
EpilepsyWarning: 1

[Editor]
Bookmarks: 29996,58429,72757,86862,100742,115742,130071,145295
DistanceSpacing: 0.9
BeatDivisor: 4
GridSize: 8

[Metadata]
Title:Renai Circulation -irony MIX-
Artist:Hanazawa Kana
Creator:S i R i R u
Version:Jumping
Source:Nico Nico Douga
Tags:Sengoku Nadeko Bakemonogatari Ore no Imouto ga konna ni Kawaii Wake ga Nai

[Difficulty]
HPDrainRate:5
CircleSize:4
OverallDifficulty:7
ApproachRate:8
SliderMultiplier:2
SliderTickRate:0.5

[Events]
//Background and Video events
0,0,"BG.jpg"
//Break Periods
2,94674,100664
//Storyboard Layer 0 (Background)
//Storyboard Layer 1 (Fail)
//Storyboard Layer 2 (Pass)
//Storyboard Layer 3 (Foreground)
//Storyboard Sound Samples
//Background Colour Transformations
3,100,255,255,255

[TimingPoints]
1340,447.761194029851,4,2,1,70,1,0
19474,-100,4,2,1,40,0,0
20034,-100,4,2,1,70,0,0
20257,-100,4,2,1,40,0,0
21041,-100,4,2,1,70,0,0
26638,-100,4,2,1,40,0,0
27198,-100,4,2,1,70,0,0
27422,-100,4,2,1,40,0,0
28205,-100,4,2,1,70,0,0
48466,-100,4,2,1,40,0,0
48802,-100,4,2,1,70,0,0
49362,-100,4,2,1,40,0,0
49698,-100,4,2,1,70,0,0
55631,-100,4,2,1,40,0,0
55966,-100,4,2,1,70,0,0
56526,-100,4,2,1,40,0,0
56862,-100,4,2,1,31,0,0
57981,-100,4,2,0,70,0,0
58653,-100,4,2,1,70,0,1
58877,-100,4,2,1,70,0,0
73877,-66.6666666666667,4,2,1,70,0,0
74325,-100,4,2,1,70,0,0
75668,-66.6666666666667,4,2,1,70,0,0
76116,-100,4,2,1,70,0,0
81041,-66.6666666666667,4,2,1,70,0,0
81489,-100,4,2,1,70,0,0
82832,-66.6666666666667,4,2,1,70,0,0
83280,-100,4,2,1,70,0,0
85519,-100,4,2,1,50,0,0
86526,-100,4,2,1,70,0,0
91116,-100,4,2,1,40,0,0
91675,-100,4,2,1,70,0,0
91899,-100,4,2,1,40,0,0
92683,-100,4,2,1,70,0,0
109698,-66.6666666666667,4,2,1,70,0,0
110145,-100,4,2,1,70,0,0
111489,-66.6666666666667,4,2,1,70,0,0
111937,-100,4,2,1,70,0,0
115519,-200,4,2,0,70,0,0
115966,-100,4,2,1,70,0,0
120108,-100,4,2,1,39,0,0
120444,-100,4,2,1,70,0,0
121004,-100,4,2,1,40,0,0
121340,-100,4,2,1,70,0,0
127272,-100,4,2,1,41,0,0
127608,-100,4,2,1,70,0,0
128168,-100,4,2,1,40,0,0
128504,-100,4,2,1,30,0,0
129623,-100,4,2,0,70,0,0
130295,-100,4,2,1,70,0,1
130519,-100,4,2,1,70,0,0
145519,-66.6666666666667,4,2,1,70,0,0
145966,-100,4,2,1,70,0,0
147310,-66.6666666666667,4,2,1,70,0,0
147757,-100,4,2,1,70,0,0
152683,-66.6666666666667,4,2,1,70,0,0
153131,-100,4,2,1,70,0,0
154474,-66.6666666666667,4,2,1,70,0,0
154922,-100,4,2,1,70,0,0
157160,-100,4,2,1,50,0,0
158280,-100,4,2,0,70,0,0

[Colours]
Combo1 : 255,0,128
Combo2 : 255,255,255
Combo3 : 128,0,0

[HitObjects]
432,192,15668,2,0,B|367:180|312:216|296:272,1,150,4|0
304,296,16116,2,0,B|304:360,2,50,8|0|0
216,296,16563,2,0,B|176:328|104:328|64:288,1,150
75,297,17011,1,8
128,224,17235,5,0
128,224,17347,1,0
128,224,17459,2,0,B|136:160|200:136,1,100
224,144,17795,2,0,B|288:144,1,50,0|8
320,144,18019,2,0,B|384:144,1,50
432,72,18354,2,0,B|464:104|464:184|424:216,1,150
430,210,18802,1,8
432,304,19026,1,0
120,232,19250,5,2
160,152,19474,1,2
160,152,19586,2,2,B|208:184|208:240,1,100
208,280,19922,1,2
392,152,20145,5,2
352,232,20369,1,2
352,232,20481,2,2,B|304:200|304:144,1,100
304,104,20817,1,2
176,40,21041,5,2
176,40,21153,1,2
88,40,21377,2,2,B|88:112|88:112|96:120|96:120|96:192,1,150
176,232,21937,1,2
80,304,22160,5,8
432,304,22384,1,8
168,192,22832,6,0,B|192:128|160:80|128:56,1,150,4|0
88,56,23280,2,0,B|40:56,2,50,8|0|0
88,144,23728,2,0,B|88:248,1,100
88,288,24063,2,0,B|88:336,1,50,0|8
176,312,24399,5,0
200,272,24511,1,0
240,248,24623,2,0,B|280:208|352:208|392:256,1,150
377,241,25071,2,0,B|447:241,2,50,8|0|0
376,152,25519,2,0,B|340:120|256:120|216:168,1,150
235,150,25966,1,8
144,152,26190,1,0
192,232,26414,5,2
104,240,26638,1,2
104,288,26750,2,2,B|112:328|184:352|208:328,1,100
232,336,27086,1,2
320,152,27310,5,2
408,144,27534,1,2
408,96,27646,2,2,B|400:56|328:32|304:56,1,100
280,48,27981,1,2
336,344,28205,5,2
336,344,28317,1,2
424,344,28541,2,2,B|424:272|424:272|416:264|416:264|416:192,1,150
336,152,29101,1,2
256,56,29324,5,8
256,328,29548,1,8
96,192,29772,5,0
144,192,29884,1,0
192,192,29996,2,0,B|248:192|280:240,1,100,4|0
344,296,30444,2,0,B|400:296|424:248,1,100,8|0
352,200,30892,1,0
392,120,31116,1,2
304,88,31340,1,8
224,136,31563,1,0
224,136,31675,1,0
104,320,32011,6,0,B|104:264,2,50,0|0|8
192,320,32459,2,0,B|224:360,2,50
256,256,32907,2,0,B|312:224|376:240,2,100,2|8|0
224,224,33466,5,0
224,176,33578,2,0,B|184:128|128:136,1,100,2|0
137,135,33914,2,0,B|80:136|32:184|48:256,1,150,2|0
44,232,34362,1,0
44,232,34474,2,0,B|8:296,2,50,0|0|2
104,304,34922,2,0,B|160:304|192:248,1,100,8|0
216,344,35369,5,2
216,344,35481,2,0,B|272:344|312:296,1,100,2|0
336,272,35817,1,8
256,232,36041,1,0
256,232,36153,1,2
256,232,36265,1,2
256,48,36489,5,2
256,232,36713,1,8
256,48,36937,1,0
136,56,37160,5,0
96,64,37272,1,0
64,96,37384,2,0,B|8:120,2,50,0|0|8
64,184,37832,1,0
144,144,38056,1,0
160,184,38168,1,0
144,224,38280,1,2
64,272,38504,1,8
64,272,38728,1,0
256,336,38951,6,0,B|304:344|304:264|240:288,1,100
256,48,39399,2,0,B|208:40|208:120|272:96,1,100,8|0
256,192,39847,5,0
344,160,40071,1,2
392,160,40183,1,0
440,160,40295,1,8
480,240,40519,1,0
400,272,40742,6,0,B|336:272|280:320,1,100
264,328,41078,1,0
216,328,41190,2,0,B|160:320|128:272,1,100,8|0
120,232,41526,1,0
128,184,41638,2,0,B|128:112|48:80,2,100,0|2|8
128,184,42310,1,0
216,184,42534,6,0,B|256:160|264:232|344:160,1,100
352,184,42869,1,0
392,184,42981,2,0,B|456:184,2,50,8|0|0
400,96,43429,1,0
360,80,43541,1,0
320,72,43653,2,0,B|264:72|216:104,1,100,2|8
72,336,44325,5,4
136,280,44548,1,0
224,248,44772,1,8
328,232,44996,1,0
472,192,45220,5,0
256,160,45444,1,0
440,336,45668,5,8
376,280,45892,1,0
288,248,46116,1,0
184,232,46340,1,0
40,192,46563,5,8
256,160,46787,1,0
112,72,47011,5,0
200,72,47235,2,0,B|264:72|296:120,1,100,0|8
296,200,47683,1,0
368,144,47907,1,0
368,144,48019,2,0,B|424:152|448:200,1,100,2|2
376,248,48466,1,2
376,248,48578,2,0,B|352:296|280:288,1,100,2|2
248,288,48914,2,0,B|112:288,1,100,2|2
56,288,49362,1,2
56,288,49474,1,2
64,200,49698,6,0,B|96:152|168:152,1,100,2|2
192,152,50034,2,0,B|232:152|264:144|288:104,1,100,2|2
304,80,50369,2,0,B|336:56|392:64|416:104,1,100,2|2
464,144,50817,5,8
256,240,51041,1,8
64,96,51489,5,4
168,32,51713,1,0
272,48,51937,1,8
328,120,52160,1,0
416,192,52384,5,0
184,192,52608,1,0
448,288,52832,5,8
344,352,53056,1,0
240,336,53280,1,0
184,264,53503,1,0
96,192,53728,5,8
328,192,53952,1,0
96,64,54175,6,0,B|136:104|208:96,1,100
272,56,54623,1,8
360,80,54847,1,0
344,176,55071,5,2
344,176,55183,2,0,B|408:176|448:216,1,100,2|2
256,208,55631,1,2
256,208,55742,2,2,B|200:208|152:160,1,100
164,171,56078,1,2
160,80,56302,2,2,B|104:88|80:144,1,100
80,184,56638,2,0,B|80:312,1,100,2|2
80,328,56974,5,2
80,328,57198,1,2
160,360,57422,1,2
160,312,57534,1,2
232,256,57757,1,2
256,344,57981,5,8
256,80,58205,1,8
400,112,58653,6,0,B|448:112|480:184|456:256|376:264,1,200,4|8
352,184,59325,1,0
264,184,59548,2,0,B|216:184|184:256|208:328|288:336,1,200,0|8
352,336,60220,1,0
400,264,60444,2,0,B|472:192,1,100
424,112,60892,2,0,B|344:192,1,100,8|0
272,120,61340,5,0
136,40,61563,1,0
24,160,61787,1,8
168,232,62011,1,0
56,312,62235,6,0,B|80:352|208:360|248:304,1,200,0|8
328,312,62907,1,0
328,224,63131,2,0,B|432:224,2,100,0|0|8
256,176,63802,2,0,B|184:176|144:224,1,100
104,272,64250,1,0
160,344,64474,1,8
240,304,64698,1,0
328,304,64922,5,0
472,200,65145,1,0
408,32,65369,1,8
40,192,65817,6,0,B|96:192|136:144,1,100,4|0
304,136,66265,2,0,B|256:88|176:120,1,100,8|0
208,200,66713,2,0,B|184:248|224:312,1,100
296,336,67160,1,8
368,280,67384,1,0
384,192,67608,1,0
296,224,67832,1,0
312,136,68056,2,0,B|336:88|416:96,1,100,8|0
464,152,68504,5,0
448,288,68728,1,0
320,344,68951,1,8
184,304,69175,1,0
104,336,69399,6,0,B|80:280|120:216|184:200|232:232,1,200,0|8
304,248,70071,1,0
272,168,70295,2,0,B|328:144|392:184|408:248|376:296,2,200,0|8|2
272,168,71302,1,2
184,168,71526,2,2,B|32:168,1,150
80,88,72086,1,2
168,88,72310,1,2
256,56,72534,1,8
368,88,72757,5,0
368,88,72869,1,0
368,88,72981,2,0,B|416:88|472:136|464:192,1,150
464,232,73429,2,0,B|464:312,2,50,8|0|0
376,232,73877,2,2,B|368:224|368:224|360:240|360:240|352:224|352:224|344:240|344:240|336:224|336:224|328:240|328:240|320:224|320:224|312:240|312:240|304:224|304:224|296:240|296:240|288:224|288:224|280:240|280:240|272:232|272:232|240:232,1,224.999993294478
216,232,74325,1,8
144,296,74548,5,0
144,296,74660,1,0
144,296,74772,2,0,B|96:296|40:248|48:192,1,150
48,152,75220,2,0,B|48:72,2,50,8|0|0
136,152,75668,2,2,B|144:160|144:160|152:144|152:144|160:160|160:160|168:144|168:144|176:160|176:160|184:144|184:144|192:160|192:160|200:144|200:144|208:160|208:160|216:144|216:144|224:160|224:160|232:144|232:144|240:152|240:152|272:152,1,224.999993294478
296,152,76116,1,8
456,136,76340,5,2
472,176,76451,1,2
456,216,76563,2,0,B|424:264|360:264,1,100,2|2
328,264,76899,2,0,B|232:264,1,50,2|8
224,192,77235,2,0,B|120:192,2,100,2|2|2
272,192,77795,2,0,B|376:192,1,100,0|2
372,192,78131,1,2
336,112,78354,6,0,B|296:64|232:56|168:64,1,150,2|2
152,64,78802,2,0,B|96:80|88:144,1,100,8|2
88,224,79250,1,2
88,312,79474,5,8
256,192,79698,1,8
168,352,79922,5,0
168,352,80034,1,0
168,352,80145,2,0,B|216:352|216:352|248:328|248:328|328:328,1,150,4|0
352,328,80593,1,8
424,280,80817,1,0
352,232,81041,2,2,B|360:224|360:224|344:216|344:216|360:208|360:208|344:200|344:200|360:192|360:192|344:184|344:184|360:176|360:176|344:168|344:168|360:160|360:160|344:152|344:152|360:144|360:144|344:136|344:136|352:128|352:128|352:96,1,224.999993294478
352,122,81489,1,0
424,72,81713,1,0
344,32,81937,6,0,B|296:32|296:32|264:56|264:56|184:56,1,150,0|0
160,56,82384,1,8
88,104,82609,1,0
160,152,82833,2,2,B|152:160|152:160|168:168|168:168|152:176|152:176|168:184|168:184|152:192|152:192|168:200|168:200|152:208|152:208|168:216|168:216|152:224|152:224|168:232|168:232|152:240|152:240|168:248|168:248|160:256|160:256|160:288,1,224.999993294478
160,261,83280,1,0
88,312,83504,5,0
120,344,83616,1,2
160,352,83728,2,0,B|224:352|240:304,1,100,2|0
248,264,84063,2,0,B|280:208|360:232,1,100,2|2
376,224,84399,1,2
432,296,84623,6,2,B|480:256|464:192,1,100
448,168,84959,2,2,B|408:120|336:136,1,100
320,152,85295,1,2
232,152,85519,6,0,B|184:152|136:200|144:264,1,150,2|0
144,296,85966,2,2,B|144:360,2,50
144,296,86414,1,2
256,328,86638,5,8
256,56,86862,1,8
256,56,87310,6,0,B|256:208,1,150,4|0
256,206,87757,2,0,B|256:264,2,50,8|0|0
344,208,88205,2,0,B|400:208|432:256,1,100
429,252,88541,2,0,B|429:329,1,50,0|8
344,344,88877,5,0
304,320,88989,1,0
264,344,89101,2,0,B|208:368|144:336,1,100
128,320,89437,1,0
88,344,89548,2,0,B|24:368,2,50,8|0|0
56,256,89996,2,0,B|56:192|120:160,1,100
144,160,90332,1,0
192,160,90444,1,8
240,240,90668,1,0
464,240,90892,5,2
384,200,91116,1,2
336,200,91228,2,2,B|280:176|280:112,1,100
280,80,91563,1,2
48,144,91787,5,2
128,184,92011,1,2
176,184,92123,2,2,B|232:208|232:272,1,100
232,304,92459,1,2
392,320,92683,5,2
392,320,92795,1,2
472,272,93019,2,2,B|472:224|432:168|368:168,1,150
336,248,93578,1,2
256,304,93802,5,8
256,48,94026,1,8
256,48,94474,1,4
256,296,101414,5,0
256,248,101526,1,0
256,200,101638,2,0,B|256:144,2,50,4|0|0
344,192,102086,2,0,B|392:192|424:256,1,100,8|0
420,248,102422,1,0
420,248,102534,2,0,B|420:365,2,100,0|0|8
472,176,103205,1,0
472,176,103317,1,0
352,104,103653,6,0,B|296:104,1,50
256,104,103877,2,0,B|200:104,1,50,8|0
160,104,104101,2,0,B|104:104,2,50
208,184,104548,1,2
208,184,104772,2,0,B|200:264|304:296|352:256,1,200,8|2
416,200,105444,5,0
416,152,105556,2,0,B|400:96|336:88,1,100,2|0
296,88,105892,2,0,B|224:88,2,50
288,176,106340,1,2
200,176,106563,2,0,B|120:176|80:232|88:296,1,150,8|0
88,304,107011,1,0
176,304,107235,5,0
256,264,107459,1,8
256,264,107571,2,0,B|392:264,1,100
400,264,107907,2,0,B|456:264,2,50,0|0|2
344,192,108354,1,8
296,112,108578,5,0
256,88,108690,1,0
208,88,108802,1,0
160,88,108914,1,0
112,88,109026,2,0,B|48:88,2,50,0|0|8
136,248,109698,6,2,B|144:312|256:344|368:328|392:216,1,299.999991059304
256,232,110369,5,0
256,232,110481,1,0
256,232,110593,2,0,B|256:144,1,50
256,136,110817,2,0,B|256:72,2,50,0|0|8
136,248,111489,6,2,B|144:312|256:344|368:328|392:216,1,299.999991059304
448,80,112384,6,0,B|448:128,1,50
448,130,112608,2,0,B|448:192,1,50
448,180,112832,2,0,B|448:232,1,50,8|0
448,230,113056,2,0,B|448:288,1,50
448,280,113280,2,0,B|443:339|384:352,1,100
168,352,113728,1,8
256,112,114175,6,0,B|184:112,1,50
160,112,114399,2,0,B|128:112|96:144,1,50
88,168,114623,2,0,B|64:200|80:256,1,50,8|0
72,264,114847,1,0
160,344,115071,6,0,B|200:336|208:288,1,50
232,280,115295,2,0,B|248:264|248:224,1,50,2|0
256,184,115519,2,0,B|256:72,1,100,8|4
120,192,116190,5,0
184,72,116414,1,8
328,72,116638,1,0
392,192,116862,1,0
256,168,117086,1,0
472,192,117310,5,8
392,320,117534,1,0
256,256,117757,1,0
120,320,117981,1,0
40,192,118205,1,8
40,192,118429,1,0
256,128,118653,5,0
344,96,118877,1,0
392,168,119101,1,8
480,184,119325,1,0
424,256,119548,5,2
400,296,119660,2,2,B|344:312|304:280,1,100
232,224,120108,1,2
192,200,120220,2,2,B|136:184|96:224,1,100
72,256,120556,1,2
104,336,120780,1,2
192,352,121004,1,2
240,352,121116,2,2,B|352:352,1,100
384,352,121451,2,2,B|432:352|464:296,1,100
464,256,121787,2,2,B|464:152,2,100
376,192,122459,5,8
136,192,122683,1,8
200,56,123131,5,4
176,104,123354,1,0
256,152,123578,5,8
256,328,123802,1,0
312,56,124026,5,0
336,104,124250,1,0
296,224,124474,6,0,B|328:224|328:224|360:256|360:256|384:256,1,100,8|0
216,224,124922,2,0,B|184:224|184:224|152:256|152:256|120:256,1,100
256,152,125369,1,8
256,152,125593,1,0
64,72,125817,6,0,B|64:128|120:152,1,100
152,72,126265,2,0,B|192:40|256:48,1,100,8|0
336,64,126713,5,2
368,96,126825,2,2,B|400:144|400:192,1,100
328,248,127272,1,2
328,248,127384,1,2
256,296,127608,1,2
256,296,127720,2,2,B|144:296,1,100
80,248,128168,1,2
80,248,128280,1,2
80,160,128504,5,2
80,160,128616,1,2
168,144,128840,1,2
168,144,128951,1,2
224,216,129175,1,2
224,216,129399,1,2
256,336,129623,5,8
256,48,129847,1,8
104,240,130295,6,0,B|85:253|81:320|107:335,1,100,4|0
192,240,130742,2,0,B|211:227|215:160|189:145,1,100,8|0
152,72,131190,1,0
72,112,131414,1,0
40,192,131638,5,8
256,192,131862,1,0
240,336,132086,5,0
320,288,132310,1,0
400,336,132534,2,0,B|424:288|400:240,1,100,8|0
392,152,132981,5,0
272,64,133205,1,0
184,184,133429,1,8
40,232,133653,1,0
208,272,133877,6,0,B|195:313|208:344|254:365|301:347|320:311|293:256,1,200,0|8
256,184,134548,1,0
256,184,134772,2,8,B|256:72,2,100,0|0|8
256,184,135444,1,0
352,184,135668,1,0
304,264,135892,1,0
208,264,136116,1,8
160,184,136340,1,0
72,184,136563,5,0
256,96,136787,1,0
440,184,137011,1,8
328,296,137459,6,0,B|328:344|256:376|184:352|176:272,1,200,4|8
112,232,138131,1,0
64,304,138354,2,0,B|16:304|-16:232|8:160|88:152,1,200,0|8
152,136,139026,1,0
224,192,139250,1,0
224,280,139474,1,0
152,328,139698,1,8
112,232,139922,5,0
256,96,140145,1,0
400,232,140369,1,0
256,96,140593,1,8
112,232,140817,1,0
256,176,141041,6,0,B|228:201|226:246|244:267|281:240|304:274|297:323|276:351|219:346,2,200,0|8|0
256,176,142160,1,0
184,128,142384,2,0,B|184:80|256:48|328:72|336:152,1,200,8|0
331,128,142944,1,0
331,128,143056,1,0
256,176,143280,1,8
256,264,143504,1,0
256,352,143728,1,0
256,352,143951,5,8
256,88,144175,1,8
416,264,144399,5,0
416,264,144511,1,0
416,264,144623,2,0,B|480:256|480:192,1,100,4|0
480,152,144959,2,0,B|480:80,1,50,0|8
408,48,145295,1,0
375,179,145519,6,2,B|348:130|275:106|188:129|181:208,1,224.999993294478
187,180,145966,1,0
96,120,146190,5,0
96,120,146302,1,0
96,120,146414,2,0,B|32:128|32:192,1,100
32,232,146750,2,0,B|32:304,1,50,0|8
104,336,147086,1,0
128,232,147310,6,2,B|155:281|221:305|312:281|325:206,1,224.999993294478
316,230,147757,1,0
256,56,147981,5,2
256,56,148093,1,2
256,56,148205,2,0,B|192:64|160:120,1,100,2|2
168,152,148541,2,2,B|168:200,1,50,0|8
168,248,148765,2,0,B|168:304,1,50
80,328,149101,6,0,B|56:272|88:216,1,100,2|0
80,230,149437,2,0,B|80:128,1,100,2|2
80,88,149772,1,2
152,32,149996,2,0,B|152:88|208:128|264:120,1,150,2|2
296,120,150444,2,2,B|360:120,2,50,8|0|0
296,120,150892,1,2
432,192,151116,5,8
80,192,151340,1,8
152,344,151563,6,0,B|152:296,1,50
152,248,151787,2,0,B|176:200|240:200,1,100,4|0
280,200,152123,2,0,B|368:200,1,50,0|8
384,272,152459,1,0
352,120,152683,6,2,B|325:71|252:47|165:70|158:149,1,224.999993294478
164,121,153131,1,0
256,152,153354,6,0,B|256:200,1,50
256,248,153578,2,0,B|232:296|168:296,1,100
128,296,153914,2,0,B|40:296,1,50,0|8
24,224,154250,1,0
112,224,154474,6,2,B|161:197|185:124|162:37|83:30,1,224.999993294478
110,37,154922,1,0
256,48,155145,5,2
296,56,155257,1,2
328,88,155369,2,0,B|360:128|352:184,1,100,2|2
352,224,155705,1,0
352,264,155817,2,0,B|352:320,2,50,8|2|2
264,248,156265,2,0,B|232:288|168:288,1,100,2|2
144,256,156601,2,0,B|96:224|104:160,1,100,0|2
104,128,156937,1,2
272,152,157160,5,2
272,152,157496,2,2,B|376:152,1,100
416,152,157832,2,2,B|488:152,2,50
384,256,158280,5,8
128,256,158504,1,8
256,40,158951,5,4
