osu file format v9

[General]
AudioFilename: Hanazawa Kana- Punctuation! (TV Size).mp3
AudioLeadIn: 2000
PreviewTime: 37860
Countdown: 0
SampleSet: Normal
StackLeniency: 0.7
Mode: 0
LetterboxInBreaks: 0

[Editor]
Bookmarks: 6360,18172,24360,33360,37860
DistanceSpacing: 0.8
BeatDivisor: 4
GridSize: 4

[Metadata]
Title:Punctuation! (TV Size)
Artist:Hanazawa Kana
Creator:Damnae
Version:Abnormal
Source:Hen Zemi
Tags:abnormal physiology seminar hensemi hen semi hentai seiri tagro ending megastore

[Difficulty]
HPDrainRate:5
CircleSize:4
OverallDifficulty:5
ApproachRate:5
SliderMultiplier:1
SliderTickRate:2

[Events]
//Background and Video events
Video,0,"hen zemi ed.avi"
0,0,"bg.png"
//Break Periods
//Storyboard Layer 0 (Background)
//Storyboard Layer 1 (Fail)
//Storyboard Layer 2 (Pass)
//Storyboard Layer 3 (Foreground)
//Storyboard Sound Samples
//Background Colour Transformations
3,100,163,162,255

[TimingPoints]
360,375,4,1,0,45,1,0
24360,375,3,2,0,30,1,0
28016,-100,3,2,0,55,0,0
28203,-100,3,2,0,30,0,0
34485,-100,3,1,0,45,0,0
37860,375,4,1,0,50,1,1
37860,-66.6666666666667,4,1,0,50,0,1
49860,-100,4,1,0,50,0,0

[Colours]
Combo1 : 244,81,150
Combo2 : 175,227,17
Combo3 : 255,106,85
Combo4 : 19,153,225
SliderBorder : 255,255,255

[HitObjects]
352,144,360,38,0,B|372:192|352:240,1,100,0|8
296,296,1110,1,0
216,296,1485,1,8
160,240,1860,6,0,B|140:192|160:144,1,100,0|8
216,88,2610,1,0
296,88,2985,1,8
256,192,3360,12,4,5422
160,320,6360,22,0,B|256:368|352:320,1,200,4|0
336,240,7485,1,8
256,240,7860,1,0
176,240,8235,1,8
352,152,9172,6,0,B|280:112|208:152,1,150,4|8
144,200,10110,1,0
60,207,10485,1,8
60,207,10672,1,0
96,136,11047,1,0
96,136,11235,1,8
336,148,12360,6,0,B|296:108,2,50,4|0|8
416,148,13110,2,0,B|436:196|416:244,1,100,0|8
392,276,13672,2,0,B|344:296|296:276,1,100
264,252,14235,1,8
192,64,15172,6,0,B|144:44|96:64,1,100,4|0
64,96,15735,2,0,B|44:144|64:192,1,100,8|0
136,224,16485,1,8
216,136,17047,2,0,B|180:100,2,50,0|8|0
328,252,18172,6,0,B|256:292|184:252,1,150,4|8
112,220,19110,1,0
152,148,19485,5,8
184,124,19672,2,0,B|256:84|328:124,1,150,4|8
400,156,20610,1,0
360,228,20985,5,8
328,252,21172,2,0,B|256:292|184:252,1,150,4|8
112,220,22110,1,0
268,252,22860,6,0,B|239:300,2,50,4|0|0
290,212,23422,2,0,B|296:160|265:119,1,100,0|8
226,97,23985,1,8
148,96,24360,22,0,B|100:192|148:288,1,200,4|2
204,344,25485,2,0,B|305:311|339:209,1,200,0|2
284,152,26610,2,0,B|379:104|475:152,1,200,0|2
416,208,27735,1,0
336,208,28110,1,2
176,208,28860,5,4
200,128,29235,2,0,B|152:108|104:128,2,100,2|0|4
256,184,30360,1,2
256,344,31110,5,4
320,200,31860,2,0,B|340:152|320:104,1,100,0|4
256,152,32610,1,2
192,200,32985,2,0,B|172:152|192:104,1,100,0|4
416,192,34485,6,2,B|316:144|220:240|123:192,1,300
260,272,36360,5,6
340,272,36735,1,6
44,256,37860,6,0,B|100:312,2,74.9999977648259,4|0|8
20,200,38422,2,0,B|115:152|211:200,1,149.999995529652
168,304,39172,6,0,B|236:398|340:122|408:216,1,299.999991059304
376,268,40110,2,0,B|396:288|436:280|448:264,2,74.9999977648259,0|0|8
256,276,40860,6,0,B|200:220,1,74.9999977648259,8|0
161,265,41235,2,0,B|105:209,1,74.9999977648259,8|0
108,151,41610,2,0,B|164:95,1,74.9999977648259,8|0
204,140,41985,2,0,B|260:84,1,74.9999977648259,8|0
300,44,42360,6,0,B|397:83|425:168,1,149.999995529652,0|8
452,92,42922,1,0
356,164,43297,1,0
212,44,43860,6,0,B|115:83|87:168,1,149.999995529652,4|8
60,92,44422,1,0
156,164,44797,1,0
256,96,45172,6,0,B|368:128|144:320|256:352,1,299.999991059304,0|0
296,304,46110,1,0
322,250,46297,1,0
346,195,46485,1,0
320,76,46860,6,8,B|256:7|192:76,3,149.999995529652
256,180,48360,5,0
320,284,48735,1,8
320,284,48922,2,0,B|256:353|192:284,1,149.999995529652
72,268,49860,6,0,B|38:234,1,50,8|0
20,196,50235,2,0,B|20:148,1,50,8|0
36,108,50610,2,0,B|72:72,1,50,8|0
112,64,50985,2,0,B|160:64,1,50,8|0
200,76,51360,6,0,B|240:108|256:156,1,100,8|0
216,224,52110,1,8
296,224,52485,1,8
296,224,52672,1,8
400,100,53422,5,4
256,168,54172,1,4
112,100,54922,1,4
256,192,55672,12,4,56985
