osu file format v12

[General]
AudioFilename: Mousou Express.mp3
AudioLeadIn: 2000
PreviewTime: 39893
Countdown: 0
SampleSet: Soft
StackLeniency: 0.5
Mode: 0
LetterboxInBreaks: 0
WidescreenStoryboard: 0

[Editor]
DistanceSpacing: 0.5
BeatDivisor: 4
GridSize: 4

[Metadata]
Title:Mousou Express (TV Size)
TitleUnicode:もうそう♥えくすぷれす (TV Size)
Artist:Hanazawa Kana
ArtistUnicode:花澤香菜
Creator:jonathanlfj
Version:Zero
Source:Monogatari Series Second Season
Tags:囮物語 物語セカンドシーズン Otori Otorimonogatari opening 千石撫子 sengoku nadeko medusa meg rock monaca UnderminE LunarSakuya UnitedWeSin Nyquill Zero__wind zenbu
BeatmapID:306255
BeatmapSetID:118869

[Difficulty]
HPDrainRate:7
CircleSize:4
OverallDifficulty:7
ApproachRate:9
SliderMultiplier:2.8
SliderTickRate:4

[Events]
//Background and Video events
0,0,"BG.jpg",0,0
Video,-410,"video.avi"
//Break Periods
//Storyboard Layer 0 (Background)
//Storyboard Layer 1 (Fail)
//Storyboard Layer 2 (Pass)
//Storyboard Layer 3 (Foreground)
//Storyboard Sound Samples
//Background Colour Transformations
3,100,163,162,255

[TimingPoints]
92,594.059405940594,4,2,1,50,1,0
92,-125,4,2,1,40,0,0
9596,-100,4,2,1,60,0,0
19101,-100,4,2,1,50,0,0
38111,-125,4,2,1,60,0,0
39151,-66.6666666666667,4,2,1,50,0,0
39299,-100,4,2,1,60,0,0
39893,-100,4,2,1,65,0,0
40488,-90.9090909090909,4,2,1,70,0,1
40636,-90.9090909090909,4,2,1,70,0,0
41527,-90.9090909090909,4,2,1,50,0,0
41676,-90.9090909090909,4,2,1,70,0,0
41824,-90.9090909090909,4,2,1,50,0,0
41973,-90.9090909090909,4,2,1,70,0,0
42715,-90.9090909090909,4,2,1,60,0,0
43161,-90.9090909090909,4,2,1,70,0,0
43903,-90.9090909090909,4,2,1,50,0,0
44052,-90.9090909090909,4,2,1,70,0,0
44200,-90.9090909090909,4,2,1,50,0,0
44349,-90.9090909090909,4,2,1,70,0,0
45092,-90.9090909090909,4,2,1,60,0,0
45537,-90.9090909090909,4,2,1,70,0,0
46280,-90.9090909090909,4,2,1,60,0,0
46725,-90.9090909090909,4,2,1,70,0,0
47468,-90.9090909090909,4,2,1,60,0,0
47765,-90.9090909090909,4,2,1,70,0,0
48656,-90.9090909090909,4,2,1,60,0,0
49101,-90.9090909090909,4,2,1,70,0,0
51032,-90.9090909090909,4,2,1,50,0,0
51181,-90.9090909090909,4,2,1,70,0,0
51329,-90.9090909090909,4,2,1,50,0,0
51478,-90.9090909090909,4,2,1,70,0,0
52220,-90.9090909090909,4,2,1,60,0,0
52666,-90.9090909090909,4,2,1,70,0,0
53408,-90.9090909090909,4,2,1,50,0,0
53557,-90.9090909090909,4,2,1,70,0,0
53705,-90.9090909090909,4,2,1,50,0,0
53854,-90.9090909090909,4,2,1,70,0,0
54448,-90.9090909090909,4,2,1,60,0,0
55042,-90.9090909090909,4,2,1,70,0,0
55785,-90.9090909090909,4,2,1,60,0,0
56230,-90.9090909090909,4,2,1,70,0,0
57121,-90.9090909090909,4,2,1,60,0,0
57270,-90.9090909090909,4,2,1,70,0,0
58606,-90.9090909090909,4,1,1,40,0,0
58903,-90.9090909090909,4,2,1,80,0,0
59052,-90.9090909090909,4,2,1,70,0,0
59423,-90.9090909090909,4,2,1,30,0,0
59497,-83.3333333333333,4,2,1,80,0,1
61725,-83.3333333333333,4,2,1,60,0,1
62171,-83.3333333333333,4,2,1,80,0,1
63804,-83.3333333333333,4,2,1,60,0,1
64250,-83.3333333333333,4,2,1,80,0,1
66329,-83.3333333333333,4,2,1,60,0,1
66478,-83.3333333333333,4,2,1,50,0,1
66626,-83.3333333333333,4,2,1,70,0,1
66775,-83.3333333333333,4,2,1,80,0,1
67072,-83.3333333333333,4,2,1,70,0,1
67220,-83.3333333333333,4,2,1,80,0,1
67517,-83.3333333333333,4,2,1,70,0,1
67666,-83.3333333333333,4,2,1,80,0,1
67963,-83.3333333333333,4,2,1,70,0,1
68111,-83.3333333333333,4,2,1,80,0,1
68854,-83.3333333333333,4,2,1,80,0,0
69002,-83.3333333333333,4,2,1,80,0,1
71230,-83.3333333333333,4,2,1,60,0,1
71676,-83.3333333333333,4,2,1,80,0,1
73309,-83.3333333333333,4,2,1,60,0,1
73755,-83.3333333333333,4,2,1,80,0,1
75834,-83.3333333333333,4,2,1,60,0,1
75983,-83.3333333333333,4,2,1,50,0,1
76131,-83.3333333333333,4,2,1,70,0,1
76280,-83.3333333333333,4,2,1,80,0,1
76577,-83.3333333333333,4,2,1,70,0,1
76725,-83.3333333333333,4,2,1,80,0,1
77022,-83.3333333333333,4,2,1,70,0,1
77171,-83.3333333333333,4,2,1,80,0,1
77468,-83.3333333333333,4,2,1,70,0,1
77616,-83.3333333333333,4,2,1,80,0,1
77913,-83.3333333333333,4,2,1,80,0,1
78210,-83.3333333333333,4,2,1,70,0,1
78507,-100,4,2,1,80,0,0
78804,-100,4,2,1,70,0,0
80735,-100,4,2,1,40,0,0
80884,-100,4,2,1,80,0,0
81181,-100,4,2,1,70,0,0
82220,-100,4,2,1,50,0,0
82369,-100,4,2,1,70,0,0
83111,-100,4,2,1,40,0,0
83260,-100,4,2,1,70,0,0
85488,-100,4,2,1,40,0,0
85636,-100,4,2,1,60,0,0
85933,-100,4,2,1,70,0,0
86230,-100,4,2,1,60,0,0
86379,-100,4,2,1,70,0,0
86527,-100,4,2,1,60,0,0
86676,-100,4,2,1,70,0,0
86973,-100,4,2,1,60,0,0
87121,-100,4,2,1,70,0,0
87418,-100,4,2,1,40,0,0

[Colours]
Combo1 : 129,129,129
Combo2 : 251,129,254
Combo3 : 81,159,255
Combo4 : 132,41,254
Combo5 : 255,199,28
Combo6 : 191,191,191

[HitObjects]
300,68,92,70,0,P|361:68|408:88,1,112
172,236,686,2,0,L|120:256,1,56,10|0,0:0|0:0,0:0:0:0:
88,104,983,1,0,0:0:0:0:
235,147,1131,6,0,P|269:190|269:245,1,112,2|2,0:0|0:0,0:0:0:0:
277,261,1577,1,2,0:0:0:0:
288,272,1725,2,0,P|319:286|348:288,1,56,2|8,0:0|0:0,0:0:0:0:
456,232,2022,1,2,0:0:0:0:
323,73,2171,2,0,P|314:100|312:128,1,56,0|2,0:0|0:0,0:0:0:0:
140,184,2468,70,0,P|77:173|40:144,1,112
296,40,3062,2,0,L|352:24,1,56,10|0,0:0|0:0,0:0:0:0:
456,120,3359,1,0,0:0:0:0:
308,168,3507,6,0,P|251:152|220:108,1,112,2|2,0:0|0:0,0:0:0:0:
209,99,3953,1,2,0:0:0:0:
197,87,4101,2,0,L|148:56,1,56,2|8,0:0|0:0,0:0:0:0:
4,108,4398,1,2,0:0:0:0:
132,140,4547,1,0,0:0:0:0:
40,36,4695,1,2,0:0:0:0:
221,111,4844,70,0,P|268:141|292:192,1,112
72,360,5438,2,0,L|20:340,1,56,10|0,0:0|0:0,0:0:0:0:
156,280,5735,1,0,0:0:0:0:
235,357,5884,6,0,P|287:372|335:345,1,112,2|2,0:0|0:0,0:0:0:0:
349,336,6329,1,2,0:0:0:0:
360,324,6478,2,0,P|378:296|380:264,1,56,2|8,0:0|0:0,0:0:0:0:
276,152,6775,1,2,0:0:0:0:
319,80,6923,1,0,0:0:0:0:
400,60,7072,1,2,0:0:0:0:
252,248,7220,70,0,P|188:248|152:220,1,112,0|2,0:0|0:0,0:0:0:0:
128,140,7666,1,0,0:0:0:0:
276,152,7814,1,8,0:0:0:0:
148,328,7963,1,2,0:0:0:0:
132,344,8260,6,0,P|71:329|44:288,1,112,2|2,0:0|0:0,0:0:0:0:
56,278,8705,1,2,0:0:0:0:
67,266,8854,1,2,0:0:0:0:
82,258,9002,1,8,0:0:0:0:
82,258,9596,6,0,L|0:372,1,140,4|0,0:0|0:0,0:0:0:0:
348,328,10191,2,0,P|389:321|416:304,1,70,10|0,0:0|0:0,0:0:0:0:
388,168,10488,1,0,0:0:0:0:
380,368,10636,2,0,P|312:336|248:348,1,140,2|2,0:0|0:0,0:0:0:0:
208,192,11082,1,2,0:0:0:0:
388,168,11230,2,0,P|446:108|452:52,1,140,0|0,0:0|0:0,0:0:0:0:
260,80,11676,2,0,L|196:108,1,70,2|0,0:0|0:0,0:0:0:0:
68,236,11973,6,0,P|16:184|16:120,1,140
208,192,12567,2,0,L|276:216,1,70,10|0,0:0|0:0,0:0:0:0:
152,304,12864,1,0,0:0:0:0:
120,120,13012,2,0,P|140:50|196:12,1,140,2|2,0:0|0:0,0:0:0:0:
296,108,13458,1,2,0:0:0:0:
132,220,13606,2,0,P|62:189|4:204,1,140,0|0,0:0|0:0,0:0:0:0:
152,304,14052,2,0,L|224:332,1,70,2|0,0:0|0:0,0:0:0:0:
355,184,14349,6,0,P|389:124|372:57,1,140
152,304,14943,2,0,L|224:332,1,70,10|0,0:0|0:0,0:0:0:0:
436,272,15240,1,0,0:0:0:0:
284,260,15389,2,0,P|252:192|268:128,1,140,2|2,0:0|0:0,0:0:0:0:
372,57,15834,1,2,0:0:0:0:
258,220,15983,2,0,P|209:265|139:271,1,140,0|0,0:0|0:0,0:0:0:0:
104,56,16428,2,0,L|168:20,1,70,2|0,0:0|0:0,0:0:0:0:
372,57,16725,5,0,0:0:0:0:
104,56,17022,1,2,0:0:0:0:
258,220,17319,1,8,0:0:0:0:
144,172,17468,1,2,0:0:0:0:
120,187,17765,38,0,L|258:220,1,140,2|2,0:0|0:0,0:0:0:0:
120,288,18210,2,0,L|48:304,1,70,2|2,0:0|0:0,0:0:0:0:
192,364,18507,2,0,P|262:370|324:336,1,140,8|2,0:0|0:0,0:0:0:0:
476,24,19101,6,0,L|340:64,1,140,4|0,0:0|0:0,0:0:0:0:
232,152,19547,2,0,P|206:121|200:92,1,70,2|8,0:0|0:0,0:0:0:0:
64,268,19992,2,0,L|108:324,1,70
276,336,20290,2,0,L|324:204,1,140,2|0,0:0|0:0,0:0:0:0:
202,136,20735,2,0,P|167:150|145:176,1,70,2|8,0:0|0:0,0:0:0:0:
400,296,21181,2,0,P|440:300|468:316,1,70,2|0,0:0|0:0,0:0:0:0:
276,336,21478,6,0,P|224:284|228:220,1,140,0|0,0:0|0:0,0:0:0:0:
316,72,21923,2,0,P|354:58|388:56,1,70,2|8,0:0|0:0,0:0:0:0:
496,192,22220,2,0,P|456:178|440:156,1,70,2|0,0:0|0:0,0:0:0:0:
271,188,22517,2,0,P|319:139|316:72,1,140,2|2,0:0|0:0,0:0:0:0:
271,188,22963,1,0,0:0:0:0:
440,156,23111,1,2,0:0:0:0:
236,112,23260,2,0,P|160:118|115:159,1,140,8|2,0:0|0:0,0:0:0:0:
84,372,23854,6,0,P|21:349|2:282,1,140
48,80,24299,2,0,L|112:53,1,70,2|8,0:0|0:0,0:0:0:0:
271,188,24596,2,0,L|206:214,1,70,2|0,0:0|0:0,0:0:0:0:
328,48,24893,2,0,P|401:42|460:72,2,140,2|0|2,0:0|0:0|0:0,0:0:0:0:
368,204,25636,1,8,0:0:0:0:
388,308,25785,2,0,P|421:339|456:348,2,70,2|0|0,0:0|0:0|0:0,0:0:0:0:
508,132,26230,38,0,P|507:208|468:256,1,140
280,108,26676,2,0,P|246:108|212:120,1,70,2|8,0:0|0:0,0:0:0:0:
331,260,26973,2,0,P|356:236|368:204,1,70,2|0,0:0|0:0,0:0:0:0:
163,163,27270,2,0,P|231:156|280:108,1,140,2|0,0:0|0:0,0:0:0:0:
112,220,27715,6,0,L|172:256,1,70,0|2,0:0|0:0,0:0:0:0:
60,276,28012,2,0,L|120:312,1,70,8|2,0:0|0:0,0:0:0:0:
8,332,28309,2,0,L|68:368,1,70,2|0,0:0|0:0,0:0:0:0:
256,280,28606,6,0,L|324:260,2,70,4|0|0,0:0|0:0|0:0,0:0:0:0:
32,188,29052,2,0,P|12:120|44:60,1,140,2|0,0:0|0:0,0:0:0:0:
184,144,29497,1,0,0:0:0:0:
348,124,29646,2,0,P|388:118|414:104,2,70,2|0|0,0:0|0:0|0:0,0:0:0:0:
379,278,30091,1,0,0:0:0:0:
199,211,30240,2,0,P|187:178|184:144,1,70,2|8,0:0|0:0,0:0:0:0:
27,319,30686,1,2,0:0:0:0:
276,356,30983,6,0,P|348:330|380:276,1,140,0|0,0:0|0:0,0:0:0:0:
488,212,31428,2,0,P|469:180|440:160,1,70,2|8,0:0|0:0,0:0:0:0:
396,44,31725,2,0,P|360:54|333:77,1,70,2|0,0:0|0:0,0:0:0:0:
224,136,32022,2,0,B|220:180|243:202|243:202|219:234|184:232,1,140,2|2,0:0|0:0,0:0:0:0:
335,75,32468,1,0,0:0:0:0:
136,160,32616,1,2,0:0:0:0:
304,148,32765,2,0,B|336:193|318:235|318:235|356:268,1,140,8|0,0:0|0:0,0:0:0:0:
136,364,33359,38,0,P|83:326|80:256,1,140
268,304,33804,2,0,L|322:351,1,70,2|8,0:0|0:0,0:0:0:0:
467,244,34101,2,0,L|414:198,1,70,2|0,0:0|0:0,0:0:0:0:
252,64,34398,2,0,P|221:129|244:188,2,140,2|0|2,0:0|0:0|0:0,0:0:0:0:
356,108,35141,1,8,0:0:0:0:
132,88,35290,2,0,P|94:78|72:56,2,70,0|2|0,0:0|0:0|0:0,0:0:0:0:
301,206,35735,6,0,P|234:188|172:216,1,140
12,340,36181,2,0,P|28:302|48:280,1,70,2|8,0:0|0:0,0:0:0:0:
300,316,36478,2,0,P|259:297|240:276,1,70,2|0,0:0|0:0,0:0:0:0:
60,176,36775,2,0,P|128:212|152:268,1,140,2|2,0:0|0:0,0:0:0:0:
232,344,37220,1,0,0:0:0:0:
60,176,37369,1,2,0:0:0:0:
224,180,37517,2,0,P|292:191|352:156,1,140,8|2,0:0|0:0,0:0:0:0:
484,108,37963,1,0,0:0:0:0:
472,236,38111,38,2,B|412:244|412:244|412:248|412:248|364:264,1,112,4|0,0:0|0:0,0:0:0:0:
224,180,38557,1,0,0:0:0:0:
104,122,38705,1,8,0:0:0:0:
211,162,38854,1,2,0:0:0:0:
115,245,39002,1,2,0:0:0:0:
132,32,39151,6,0,B|151:35|151:35|167:45|167:45|189:50,1,52.5000020027161,2|0,3:0|0:0,0:0:0:0:
288,58,39299,1,12,0:0:0:0:
288,58,39448,2,0,B|292:80|282:103|282:103|264:120|264:120|232:132|211:163,1,140,8|0,0:0|0:0,0:0:0:0:
96,280,39893,6,0,P|140:288|172:284,1,70,10|0,0:0|0:0,0:0:0:0:
292,212,40191,1,10,0:0:0:0:
280,360,40339,1,0,1:0:0:0:
136,196,40488,6,0,P|128:118|170:55,1,154.000004699707,4|0,0:0|0:0,0:0:0:0:
412,303,41082,2,0,P|355:353|280:360,1,154.000004699707,8|0,0:0|0:0,0:0:0:0:
380,136,41527,2,0,L|460:136,1,77.0000023498536,2|0,1:2|0:0,0:0:0:0:
296,212,41824,2,0,L|244:156,1,77.0000023498536,2|0,1:2|0:0,0:0:0:0:
64,248,42121,2,0,P|61:285|76:320,1,77.0000023498536,2|8,0:0|0:0,0:0:0:0:
243,155,42567,1,2,0:0:0:0:
243,155,42715,1,0,1:0:0:0:
243,155,42864,6,0,P|282:78|260:16,1,154.000004699707,4|0,0:0|0:0,0:0:0:0:
16,148,43458,2,0,P|77:105|157:115,1,154.000004699707,8|0,0:0|0:0,0:0:0:0:
148,272,43903,2,0,L|104:208,1,77.0000023498536,2|0,1:2|0:0,0:0:0:0:
282,86,44200,2,0,L|358:106,1,77.0000023498536,2|0,1:2|0:0,0:0:0:0:
488,276,44497,2,0,P|480:324|464:348,1,77.0000023498536,2|8,0:0|0:0,0:0:0:0:
248,204,44943,1,2,0:0:0:0:
248,204,45092,1,0,1:0:0:0:
248,204,45240,6,0,L|400:240,1,154.000004699707,4|0,0:0|0:0,0:0:0:0:
220,304,45686,2,0,P|188:325|174:360,1,77.0000023498536,2|8,0:0|0:0,0:0:0:0:
351,296,45983,2,0,P|383:274|397:239,1,77.0000023498536,2|0,0:0|0:0,0:0:0:0:
160,312,46280,2,0,P|144:240|192:180,1,154.000004699707,2|2,1:2|1:2,0:0:0:0:
396,239,46725,1,0,0:0:0:0:
160,312,47022,1,8,0:0:0:0:
16,112,47319,2,0,L|0:32,1,77.0000023498536,2|0,0:0|1:0,0:0:0:0:
200,64,47616,37,4,0:0:0:0:
240,152,47765,1,0,0:0:0:0:
190,234,47913,1,0,0:0:0:0:
292,68,48062,2,0,P|336:64|368:72,1,77.0000023498536,2|8,0:0|0:0,0:0:0:0:
152,144,48359,2,0,P|122:167|84:176,1,77.0000023498536,2|0,0:0|0:0,0:0:0:0:
288,240,48656,2,0,P|361:270|432:244,1,154.000004699707,2|2,1:2|1:2,0:0:0:0:
329,304,49101,2,0,L|256:328,1,77.0000023498536,0|0,0:0|0:0,0:0:0:0:
424,156,49398,6,0,P|463:162|497:185,1,77.0000023498536,6|0,0:0|0:0,0:0:0:0:
431,375,49695,1,10,0:0:0:0:
255,328,49844,1,0,1:0:0:0:
188,108,49992,6,0,P|266:101|324:144,1,154.000004699707,4|0,0:0|0:0,0:0:0:0:
56,368,50587,2,0,P|31:293|60:228,1,154.000004699707,8|0,0:0|0:0,0:0:0:0:
255,328,51032,2,0,L|176:336,1,77.0000023498536,2|0,1:2|0:0,0:0:0:0:
423,298,51329,2,0,L|431:375,1,77.0000023498536,2|0,1:2|0:0,0:0:0:0:
276,200,51626,2,0,L|352:192,1,77.0000023498536,2|8,0:0|0:0,0:0:0:0:
508,20,52072,1,2,0:0:0:0:
508,20,52220,1,0,1:0:0:0:
508,20,52369,6,0,P|433:0|368:32,1,154.000004699707,4|0,0:0|0:0,0:0:0:0:
96,148,52963,2,0,P|38:96|32:24,1,154.000004699707,8|0,0:0|0:0,0:0:0:0:
228,88,53408,2,0,L|304:108,1,77.0000023498536,2|0,1:2|0:0,0:0:0:0:
164,236,53705,2,0,L|88:256,1,77.0000023498536,2|0,1:2|0:0,0:0:0:0:
324,276,54002,2,0,P|344:243|350:205,1,77.0000023498536,2|8,0:0|0:0,0:0:0:0:
40,344,54448,1,2,1:2:0:0:
40,344,54596,1,0,1:0:0:0:
40,344,54745,38,0,L|192:368,1,154.000004699707,4|0,0:0|0:0,0:0:0:0:
384,352,55191,2,0,P|412:326|427:291,1,77.0000023498536,2|8,0:0|0:0,0:0:0:0:
264,220,55488,2,0,P|243:252|237:290,1,77.0000023498536,2|0,0:0|0:0,0:0:0:0:
56,176,55785,2,0,P|124:128|192:132,1,154.000004699707,2|2,1:2|1:2,0:0:0:0:
237,290,56230,1,0,0:0:0:0:
476,236,56527,1,8,0:0:0:0:
396,4,56824,2,0,L|320:16,1,77.0000023498536,2|0,0:0|0:0,0:0:0:0:
160,188,57121,5,4,0:0:0:0:
84,128,57270,1,0,0:0:0:0:
80,32,57418,1,0,0:0:0:0:
223,154,57567,2,0,P|197:181|160:188,1,77.0000023498536,2|8,0:0|0:0,0:0:0:0:
4,35,57864,2,0,P|42:26|80:32,1,77.0000023498536,2|8,0:0|0:0,0:0:0:0:
104,265,58161,6,0,P|66:201|84:128,1,154.000004699707,4|0,0:0|1:0,0:0:0:0:
223,154,58606,1,4,3:0:0:0:
229,158,58681,1,0,0:0:0:0:
234,163,58755,1,0,0:0:0:0:
237,169,58829,1,0,0:0:0:0:
242,174,58903,5,8,1:2:0:0:
332,248,59052,1,8,3:0:0:0:
400,156,59200,2,0,P|459:156|508:184,1,115.50000352478,4|0,3:0|0:0,0:0:0:0:
400,316,59497,38,0,P|318:340|252:300,1,167.999994873047,4|0,0:0|0:0,0:0:0:0:
134,135,59943,1,0,0:0:0:0:
247,35,60092,2,0,P|308:90|320:172,1,167.999994873047,10|0,0:0|0:0,0:0:0:0:
134,135,60537,1,0,0:0:0:0:
309,91,60686,2,0,P|351:71|372:36,1,83.9999974365235,2|0,0:0|0:0,0:0:0:0:
260,272,60983,2,0,P|224:244|212:208,1,83.9999974365235,2|0,0:0|0:0,0:0:0:0:
36,132,61280,2,0,P|80:58|155:40,1,167.999994873047,8|2,0:0|0:0,0:0:0:0:
304,188,61725,1,0,1:0:0:0:
452,160,61874,6,0,P|509:94|508:16,1,167.999994873047,4|0,0:0|0:0,0:0:0:0:
368,108,62319,1,0,0:0:0:0:
424,284,62468,2,0,P|381:214|304:188,1,167.999994873047,8|0,0:0|0:0,0:0:0:0:
344,344,62913,1,0,0:0:0:0:
452,160,63062,2,0,L|512:220,1,83.9999974365235,2|0,0:0|0:0,0:0:0:0:
344,344,63359,2,0,L|260:344,1,83.9999974365235,2|0,0:0|0:0,0:0:0:0:
72,248,63656,1,8,0:0:0:0:
72,248,63804,2,0,L|240:248,1,167.999994873047,4|0,0:0|0:0,0:0:0:0:
16,164,64250,6,0,P|2:83|46:13,1,167.999994873047,4|0,0:0|0:0,0:0:0:0:
176,120,64695,1,0,0:0:0:0:
276,336,64844,2,0,P|332:261|316:191,1,167.999994873047,8|0,0:0|0:0,0:0:0:0:
164,264,65290,1,0,0:0:0:0:
176,120,65438,2,0,P|214:93|232:60,1,83.9999974365235,2|0,0:0|0:0,0:0:0:0:
72,248,65735,2,0,P|74:293|95:327,1,83.9999974365235,2|0,0:0|0:0,0:0:0:0:
92,100,66032,5,8,0:0:0:0:
420,284,66329,1,4,0:0:0:0:
336,336,66478,1,0,1:0:0:0:
336,336,66626,38,0,L|252:336,1,83.9999974365235,4|0,0:0|0:0,0:0:0:0:
342,193,66923,1,0,0:0:0:0:
481,214,67072,6,0,P|506:247|512:292,1,83.9999974365235,4|8,0:0|0:0,0:0:0:0:
185,240,67369,1,0,0:0:0:0:
272,131,67517,6,0,P|305:102|344:99,1,83.9999974365235,4|0,0:0|0:0,0:0:0:0:
336,260,67814,1,0,0:0:0:0:
161,329,67963,6,0,P|124:309|100:276,1,83.9999974365235,4|0,0:0|0:0,0:0:0:0:
105,135,68260,1,0,0:0:0:0:
272,131,68408,38,2,L|432:179,1,167.999994873047,12|0,0:0|0:0,0:0:0:0:
248,296,68854,1,0,1:0:0:0:
28,204,69002,6,0,P|6:113|42:53,1,167.999994873047,4|0,0:0|0:0,0:0:0:0:
180,80,69448,1,0,0:0:0:0:
312,216,69596,2,0,P|361:123|336:68,1,167.999994873047,8|0,0:0|0:0,0:0:0:0:
160,184,70042,1,0,0:0:0:0:
248,296,70191,2,0,L|332:324,1,83.9999974365235,2|0,0:0|0:0,0:0:0:0:
508,188,70488,2,0,P|508:232|492:268,1,83.9999974365235,2|0,0:0|0:0,0:0:0:0:
368,340,70785,2,0,L|204:372,1,167.999994873047,8|2,0:0|0:0,0:0:0:0:
78,261,71230,1,0,1:0:0:0:
208,95,71379,6,0,P|254:162|240:242,1,167.999994873047,4|0,0:0|0:0,0:0:0:0:
108,108,71824,1,0,0:0:0:0:
284,165,71973,2,0,P|367:138|396:69,1,167.999994873047,8|0,0:0|0:0,0:0:0:0:
236,20,72418,1,0,0:0:0:0:
108,108,72567,2,0,P|61:86|48:56,1,83.9999974365235,2|0,0:0|0:0,0:0:0:0:
78,261,72864,2,0,P|122:251|148:224,1,83.9999974365235,2|0,0:0|0:0,0:0:0:0:
304,72,73161,1,8,0:0:0:0:
304,72,73309,2,0,L|304:240,1,167.999994873047,4|0,0:0|0:0,0:0:0:0:
444,372,73755,6,0,P|504:309|506:230,1,167.999994873047,4|0,0:0|0:0,0:0:0:0:
420,88,74200,1,0,0:0:0:0:
222,114,74349,2,0,P|236:194|304:240,1,167.999994873047,8|0,0:0|0:0,0:0:0:0:
196,328,74794,1,0,0:0:0:0:
36,280,74943,2,0,P|55:235|84:212,1,83.9999974365235,2|0,0:0|0:0,0:0:0:0:
72,32,75240,2,0,P|112:60|128:92,1,83.9999974365235,2|0,0:0|0:0,0:0:0:0:
120,296,75537,37,8,0:0:0:0:
392,88,75834,1,4,0:0:0:0:
452,8,75983,1,0,1:0:0:0:
452,8,76131,6,0,L|368:8,1,83.9999974365235,4|0,0:0|0:0,0:0:0:0:
280,60,76428,1,0,0:0:0:0:
108,112,76577,6,0,L|192:112,1,83.9999974365235,4|8,0:0|0:0,0:0:0:0:
280,60,76874,1,0,0:0:0:0:
440,167,77022,6,0,P|401:179|359:175,1,83.9999974365235,4|0,0:0|0:0,0:0:0:0:
252,200,77319,1,0,0:0:0:0:
99,312,77468,38,0,P|140:303|171:276,1,83.9999974365235,4|0,0:0|0:0,0:0:0:0:
252,200,77765,1,0,0:0:0:0:
360,372,77913,6,0,P|327:341|317:303,1,83.9999974365235,12|0,0:0|0:0,0:0:0:0:
252,200,78210,1,8,3:0:0:0:
420,268,78359,1,4,3:0:0:0:
136,368,78507,6,0,P|94:309|100:243,1,140,4|0,0:0|0:0,0:0:0:0:
139,134,78953,1,0,0:0:0:0:
252,200,79101,2,0,L|320:176,1,70,4|0,0:0|0:0,0:0:0:0:
456,144,79398,1,2,0:0:0:0:
500,48,79547,1,0,0:0:0:0:
400,16,79695,2,0,P|365:15|336:32,1,70,2|0,0:0|0:0,0:0:0:0:
139,134,79992,2,0,P|99:118|84:96,1,70,2|0,0:0|0:0,0:0:0:0:
249,69,80290,2,0,P|273:134|252:200,1,140,8|2,0:0|0:0,0:0:0:0:
84,324,80735,1,0,1:0:0:0:
76,316,80809,1,0,1:0:0:0:
68,308,80884,6,0,L|208:288,1,140,4|0,0:0|0:0,0:0:0:0:
320,256,81329,1,0,0:0:0:0:
400,372,81478,2,0,P|444:363|472:344,1,70,8|0,0:0|0:0,0:0:0:0:
320,256,81775,1,2,0:0:0:0:
272,348,81923,1,0,0:0:0:0:
188,284,82072,2,0,P|152:279|120:288,1,70,2|0,0:0|1:0,0:0:0:0:
192,120,82369,2,0,P|224:132|260:132,1,70,2|0,0:0|0:0,0:0:0:0:
68,172,82666,2,0,P|36:100|56:40,1,140,4|2,0:0|0:0,0:0:0:0:
240,44,83111,1,0,1:0:0:0:
240,44,83186,1,0,1:0:0:0:
240,44,83260,38,0,L|372:92,1,140,4|0,0:0|0:0,0:0:0:0:
444,184,83705,1,0,0:0:0:0:
328,264,83854,2,0,P|289:257|264:240,1,70,8|0,0:0|0:0,0:0:0:0:
444,184,84151,1,2,0:0:0:0:
480,284,84299,1,0,0:0:0:0:
396,348,84448,2,0,L|328:372,1,70,2|0,0:0|0:0,0:0:0:0:
168,344,84745,2,0,L|234:320,1,70,2|0,0:0|0:0,0:0:0:0:
356,136,85042,2,0,P|306:183|300:251,1,140,8|2,0:0|0:0,0:0:0:0:
344,132,85488,1,0,1:0:0:0:
332,128,85562,1,0,1:0:0:0:
320,124,85636,6,0,L|181:144,1,140,4|0,0:0|0:0,0:0:0:0:
96,224,86082,1,0,0:0:0:0:
12,112,86230,2,0,P|4:73|12:40,1,70,4|0,0:0|0:0,0:0:0:0:
181,143,86527,1,0,1:0:0:0:
224,240,86676,1,0,0:0:0:0:
172,332,86824,2,0,P|145:356|112:364,1,70,2|0,0:0|1:0,0:0:0:0:
224,240,87121,2,0,P|252:214|283:200,1,70,0|0,0:0|0:0,0:0:0:0:
412,320,87418,5,0,0:0:0:0:
426,334,87567,1,2,0:0:0:0:
440,348,87715,1,0,0:0:0:0:
454,362,87864,1,0,0:0:0:0:
