osu file format v12

[General]
AudioFilename: Mousou Express.mp3
AudioLeadIn: 2000
PreviewTime: 39893
Countdown: 0
SampleSet: Soft
StackLeniency: 0.5
Mode: 0
LetterboxInBreaks: 0
WidescreenStoryboard: 0

[Editor]
DistanceSpacing: 0.5
BeatDivisor: 4
GridSize: 4

[Metadata]
Title:Mousou Express (TV Size)
TitleUnicode:もうそう♥えくすぷれす (TV Size)
Artist:Hanazawa Kana
ArtistUnicode:花澤香菜
Creator:jonathanlfj
Version:Yami
Source:Monogatari Series Second Season
Tags:囮物語 物語セカンドシーズン Otori Otorimonogatari opening 千石撫子 sengoku nadeko medusa meg rock monaca UnderminE LunarSakuya UnitedWeSin Nyquill Zero__wind zenbu
BeatmapID:305454
BeatmapSetID:118869

[Difficulty]
HPDrainRate:7
CircleSize:4
OverallDifficulty:7
ApproachRate:9
SliderMultiplier:2.5
SliderTickRate:4

[Events]
//Background and Video events
0,0,"BG.jpg",0,0
Video,-410,"video.avi"
//Break Periods
//Storyboard Layer 0 (Background)
//Storyboard Layer 1 (Fail)
//Storyboard Layer 2 (Pass)
//Storyboard Layer 3 (Foreground)
//Storyboard Sound Samples
//Background Colour Transformations
3,100,163,162,255

[TimingPoints]
92,594.059405940594,4,2,1,40,1,0
92,-125,4,2,1,40,0,0
9596,-100,4,2,1,70,0,0
19101,-100,4,2,1,60,0,0
38111,-125,4,2,1,60,0,0
39299,-111.111111111111,4,2,1,60,0,0
39893,-100,4,2,1,65,0,0
40488,-90.9090909090909,4,2,1,70,0,1
40636,-90.9090909090909,4,2,1,70,0,0
59497,-83.3333333333333,4,2,1,80,0,1
67072,-71.4285714285714,4,2,1,80,0,1
67517,-62.5,4,2,1,80,0,1
67963,-55.5555555555556,4,2,1,80,0,1
68408,-83.3333333333333,4,2,1,80,0,1
68854,-83.3333333333333,4,2,1,80,0,0
69002,-83.3333333333333,4,2,1,80,0,1
76577,-71.4285714285714,4,2,1,80,0,1
77022,-62.5,4,2,1,80,0,1
77468,-55.5555555555556,4,2,1,80,0,1
77913,-83.3333333333333,4,2,1,80,0,1
78507,-100,4,2,1,80,0,0
87418,-100,4,2,1,40,0,0

[Colours]
Combo1 : 129,129,129
Combo2 : 251,129,254
Combo3 : 81,159,255
Combo4 : 132,41,254
Combo5 : 255,199,28
Combo6 : 191,191,191

[HitObjects]
88,164,92,70,0,P|132:136|180:132,1,100,0|2,3:0|0:0,0:0:0:0:
340,332,686,2,0,P|348:312|344:260,1,50,8|0,0:0|0:0,0:0:0:0:
304,200,983,1,0,0:0:0:0:
216,284,1131,2,0,L|100:292,1,100,2|0,0:0|0:0,0:0:0:0:
40,152,1577,2,0,L|88:164,1,50,0|2,0:0|0:0,0:0:0:0:
232,76,1874,2,0,L|168:84,1,50,8|0,0:0|0:0,0:0:0:0:
304,200,2171,1,0,0:0:0:0:
320,68,2319,1,2,0:0:0:0:
184,164,2468,6,0,P|128:148|100:104,1,100,0|2,3:0|0:0,0:0:0:0:
396,160,3062,2,0,L|440:132,2,50,8|0|0,0:0|0:0|0:0,0:0:0:0:
380,248,3507,2,0,B|380:260|380:260|368:276|368:276|368:296|368:296|340:336|284:344,1,150,2|0,0:0|0:0,0:0:0:0:
164,328,4101,1,2,0:0:0:0:
164,328,4249,2,0,L|136:272,1,50,8|0,0:0|0:0,0:0:0:0:
252,164,4547,2,0,L|256:232,1,50,0|2,0:0|0:0,0:0:0:0:
64,184,4844,70,0,P|56:108|72:72,2,100,0|2|8,3:0|0:0|0:0,0:0:0:0:
148,136,5587,1,0,0:0:0:0:
204,228,5735,1,0,0:0:0:0:
296,120,5884,2,0,P|360:116|404:128,1,100,2|0,0:0|0:0,0:0:0:0:
424,228,6329,2,0,P|400:232|360:224,1,50,0|2,0:0|0:0,0:0:0:0:
224,152,6626,1,8,0:0:0:0:
304,40,6775,1,0,0:0:0:0:
288,200,6923,2,0,L|284:260,1,50,0|2,0:0|0:0,0:0:0:0:
152,356,7220,6,0,L|160:236,1,100,0|2,3:0|0:0,0:0:0:0:
356,100,7814,1,8,0:0:0:0:
416,168,7963,2,0,L|412:228,1,50,0|0,0:0|0:0,0:0:0:0:
328,316,8260,2,0,P|292:276|280:216,1,100,2|0,0:0|0:0,0:0:0:0:
292,128,8705,1,0,0:0:0:0:
172,176,8854,1,0,0:0:0:0:
256,40,9002,1,8,0:0:0:0:
256,40,9596,6,0,P|320:40|372:76,1,125,4|0,0:0|0:0,0:0:0:0:
172,176,10191,1,8,0:0:0:0:
240,256,10339,2,0,P|244:292|236:328,1,62.5
96,240,10636,2,0,P|76:192|88:120,1,125,2|0,0:0|0:0,0:0:0:0:
256,124,11082,2,0,L|340:132,1,62.5,0|2,0:0|0:0,0:0:0:0:
240,256,11379,2,0,L|172:268,1,62.5,8|0,0:0|0:0,0:0:0:0:
87,121,11676,1,0,0:0:0:0:
396,56,11973,6,0,L|388:184,1,125,2|0,0:0|0:0,0:0:0:0:
172,280,12567,2,0,L|168:356,2,62.5,8|0|0,0:0|0:0|0:0,0:0:0:0:
252,216,13012,2,0,B|300:224|300:224|320:256|360:268,1,125,2|0,0:0|0:0,0:0:0:0:
468,204,13458,1,0,0:0:0:0:
320,128,13606,1,2,0:0:0:0:
468,204,13755,2,0,L|476:140,1,62.5,8|0,0:0|0:0,0:0:0:0:
388,24,14052,2,0,L|404:96,1,62.5,0|2,0:0|0:0,0:0:0:0:
296,40,14349,6,0,P|228:32|168:64,1,125,2|0,0:0|0:0,0:0:0:0:
184,320,14943,2,0,P|216:292|228:260,1,62.5,8|0,0:0|0:0,0:0:0:0:
188,152,15240,1,0,0:0:0:0:
56,132,15389,2,0,B|52:152|52:152|68:160|68:160|60:184|60:184|68:208|68:208|56:264|88:300,1,187.5,2|0,0:0|0:0,0:0:0:0:
168,236,15983,1,2,0:0:0:0:
260,196,16131,2,0,L|328:224,1,62.5,8|0,0:0|0:0,0:0:0:0:
373,351,16428,2,0,L|316:328,1,62.5,0|2,0:0|0:0,0:0:0:0:
388,136,16725,6,0,P|424:188|420:256,1,125,2|2,0:0|0:0,0:0:0:0:
320,276,17171,1,0,0:0:0:0:
260,196,17319,2,0,L|268:120,1,62.5,8|0,0:0|0:0,0:0:0:0:
248,112,17765,38,0,L|232:248,1,125,2|0,0:0|0:0,0:0:0:0:
104,284,18210,1,2,0:0:0:0:
152,164,18359,1,0,0:0:0:0:
236,328,18507,1,8,0:0:0:0:
236,328,18804,2,0,P|264:336|312:332,1,62.5
348,248,19101,6,0,P|400:240|448:184,1,125,4|0,0:0|0:0,0:0:0:0:
304,152,19547,2,0,P|276:168|252:200,1,62.5,0|8,0:0|0:0,0:0:0:0:
32,332,19992,2,0,P|60:316|84:284,1,62.5,0|2,0:0|0:0,0:0:0:0:
80,196,20290,2,0,P|68:132|84:64,1,125
168,40,20735,1,0,0:0:0:0:
220,140,20884,2,0,L|296:144,1,62.5,8|0,0:0|0:0,0:0:0:0:
336,276,21181,2,0,L|276:296,1,62.5
128,272,21478,5,2,0:0:0:0:
288,72,21775,1,0,0:0:0:0:
400,80,21923,2,0,P|422:110|432:152,1,62.5,0|8,0:0|0:0,0:0:0:0:
336,276,22220,2,0,P|324:196|348:136,2,125,0|2|0,0:0|0:0|0:0,0:0:0:0:
428,328,22963,2,0,L|500:324,1,62.5
412,216,23260,2,0,B|352:192|352:192|276:196,1,125,8|0,0:0|0:0,0:0:0:0:
176,260,23705,1,0,0:0:0:0:
176,260,23854,6,0,P|200:200|192:128,1,125,2|0,0:0|0:0,0:0:0:0:
76,164,24299,2,0,L|84:240,1,62.5,0|8,0:0|0:0,0:0:0:0:
128,96,24596,2,0,P|84:40|28:32,1,125,0|2,0:0|0:0,0:0:0:0:
224,192,25191,2,0,P|256:188|324:116,1,125
408,68,25636,1,8,0:0:0:0:
396,200,25785,2,0,L|456:240,2,62.5
232,100,26230,38,0,B|172:112|172:112|104:100,1,125,2|0,0:0|0:0,0:0:0:0:
72,224,26676,2,0,L|12:240,1,62.5,0|8,0:0|0:0,0:0:0:0:
172,296,26973,2,0,B|232:284|232:284|296:292,1,125,0|2,0:0|0:0,0:0:0:0:
296,292,27567,5,0,0:0:0:0:
400,212,27715,2,0,L|416:140,1,62.5
272,164,28012,2,0,L|262:102,1,62.5,8|0,0:0|0:0,0:0:0:0:
396,60,28309,1,0,0:0:0:0:
324,220,28458,1,0,0:0:0:0:
160,148,28606,6,0,P|128:144|80:152,1,62.5,4|0,0:0|0:0,0:0:0:0:
64,268,28903,2,0,P|96:272|144:264,1,62.5,0|0,0:0|0:0,0:0:0:0:
236,120,29200,2,0,P|192:76|128:72,1,125,8|0,0:0|0:0,0:0:0:0:
96,196,29646,1,2,0:0:0:0:
244,208,29794,2,0,L|304:188,1,62.5
188,288,30091,1,0,0:0:0:0:
160,148,30240,1,0,0:0:0:0:
300,280,30389,2,0,L|436:296,1,125,8|0,0:0|0:0,0:0:0:0:
496,140,30834,1,0,0:0:0:0:
496,140,30983,6,0,L|372:156,1,125,2|0,0:0|0:0,0:0:0:0:
268,92,31428,2,0,P|252:124|248:160,1,62.5,0|8,0:0|0:0,0:0:0:0:
144,172,31725,2,0,P|158:204|183:231,1,62.5,0|0,0:0|0:0,0:0:0:0:
356,228,32022,2,0,P|280:240|248:296,1,125,2|0,0:0|0:0,0:0:0:0:
332,312,32468,1,0,0:0:0:0:
72,256,32765,2,0,L|56:172,1,62.5,8|0,0:0|0:0,0:0:0:0:
184,100,33062,2,0,L|204:28,1,62.5
376,44,33359,38,0,B|440:56|440:56|492:104,1,125,2|0,0:0|0:0,0:0:0:0:
340,136,33804,2,0,P|304:112|280:80,1,62.5,0|8,0:0|0:0,0:0:0:0:
372,232,34101,2,0,P|328:236|296:228,1,62.5
464,168,34398,2,0,P|484:224|456:308,2,125,2|0|0,0:0|0:0|0:0,0:0:0:0:
340,136,35141,2,0,L|272:144,1,62.5,8|0,0:0|0:0,0:0:0:0:
180,228,35438,1,0,0:0:0:0:
192,96,35587,1,0,0:0:0:0:
324,224,35735,6,0,P|335:283|320:356,1,125,2|0,0:0|0:0,0:0:0:0:
188,328,36181,2,0,L|124:352,1,62.5,0|8,0:0|0:0,0:0:0:0:
180,228,36478,2,0,B|116:220|116:220|64:184,1,125,0|2,0:0|0:0,0:0:0:0:
172,36,36923,6,0,L|192:100,1,62.5,0|2,0:0|0:0,0:0:0:0:
328,36,37220,2,0,L|348:100,1,62.5,0|2,0:0|0:0,0:0:0:0:
288,200,37517,1,8,0:0:0:0:
288,200,37814,1,2,0:0:0:0:
160,96,38111,22,0,B|152:100|152:100|136:96|136:96|124:104|124:104|56:108,1,100,6|0,0:0|0:0,0:0:0:0:
112,312,38705,1,12,0:0:0:0:
188,248,38854,1,0,0:0:0:0:
256,320,39002,2,0,L|332:332,1,50,2|0,0:0|0:0,0:0:0:0:
420,288,39299,5,8,0:0:0:0:
288,200,39448,2,0,P|276:144|292:80,1,112.499996566773,8|0,0:0|0:0,0:0:0:0:
420,104,39893,6,0,P|395:136|364:152,1,62.5,8|0,0:0|0:0,0:0:0:0:
192,116,40191,1,8,0:0:0:0:
360,24,40339,1,8,0:0:0:0:
192,116,40488,6,0,L|176:264,1,137.500004196167,6|0,0:0|0:0,0:0:0:0:
428,336,41082,2,0,L|412:196,1,137.500004196167,8|0,0:0|0:0,0:0:0:0:
320,116,41527,2,0,P|300:148|292:180,1,68.7500020980836,8|0,0:0|0:0,0:0:0:0:
316,328,41824,2,0,P|298:294|274:271,1,68.7500020980836,8|0,0:0|0:0,0:0:0:0:
112,296,42121,1,0,0:0:0:0:
232,352,42270,2,0,P|240:280|220:216,1,137.500004196167,8|0,0:0|0:0,0:0:0:0:
120,192,42715,1,8,0:0:0:0:
248,124,42864,6,0,P|316:124|388:160,1,137.500004196167,2|0,0:0|0:0,0:0:0:0:
120,192,43458,2,0,P|104:116|120:48,1,137.500004196167,8|0,0:0|0:0,0:0:0:0:
232,24,43903,2,0,L|312:40,1,68.7500020980836,8|0,0:0|0:0,0:0:0:0:
412,176,44200,2,0,L|332:188,1,68.7500020980836,8|0,0:0|0:0,0:0:0:0:
248,124,44497,1,0,0:0:0:0:
432,92,44646,2,0,P|484:132|488:212,1,137.500004196167,8|0,0:0|0:0,0:0:0:0:
420,308,45092,1,8,0:0:0:0:
420,308,45240,6,0,L|276:300,1,137.500004196167,2|0,0:0|0:0,0:0:0:0:
144,240,45686,2,0,L|76:256,1,68.7500020980836,0|8,0:0|0:0,0:0:0:0:
200,304,45983,2,0,L|172:372,1,68.7500020980836
284,220,46280,2,0,B|284:148|284:148|252:84,1,137.500004196167,8|8,0:0|0:0,0:0:0:0:
136,124,46725,2,0,B|116:152|84:160|84:160|48:144|12:156,2,137.500004196167,0|8|0,0:0|0:0|0:0,0:0:0:0:
168,32,47468,1,8,0:0:0:0:
256,180,47616,38,0,L|324:188,1,68.7500020980836,2|0,0:0|0:0,0:0:0:0:
240,92,47913,1,0,0:0:0:0:
172,204,48062,2,0,P|192:240|216:256,1,68.7500020980836,0|8,0:0|0:0,0:0:0:0:
380,264,48359,2,0,P|416:260|464:280,1,68.7500020980836
324,188,48656,2,0,P|348:116|416:72,1,137.500004196167,8|8,0:0|0:0,0:0:0:0:
240,92,49101,2,0,L|160:112,1,68.7500020980836
84,156,49398,5,12,0:0:0:0:
68,32,49547,1,0,0:0:0:0:
172,204,49695,1,8,0:0:0:0:
188,24,49844,1,8,0:0:0:0:
28,100,49992,6,0,P|8:160|48:228,1,137.500004196167,4|0,0:0|0:0,0:0:0:0:
312,160,50587,2,0,P|372:152|444:196,1,137.500004196167,8|0,0:0|0:0,0:0:0:0:
272,256,51032,2,0,L|184:272,1,68.7500020980836,8|0,0:0|0:0,0:0:0:0:
172,104,51329,2,0,L|260:120,1,68.7500020980836,8|0,0:0|0:0,0:0:0:0:
360,240,51626,1,0,0:0:0:0:
360,240,51775,2,0,P|344:308|288:344,1,137.500004196167,8|0,0:0|0:0,0:0:0:0:
180,320,52220,1,8,0:0:0:0:
104,236,52368,6,0,B|96:180|96:180|80:156|80:156|72:100,1,137.500004196167,2|0,0:0|0:0,0:0:0:0:
324,24,52963,2,0,B|332:80|332:80|348:104|348:104|356:160,1,137.500004196167,8|0,0:0|0:0,0:0:0:0:
260,144,53408,2,0,L|224:84,1,68.7500020980836,8|0,0:0|0:0,0:0:0:0:
420,40,53705,2,0,L|456:100,2,68.7500020980836,8|0|0,0:0|0:0|0:0,0:0:0:0:
356,156,54151,1,8,0:0:0:0:
356,156,54448,1,8,0:0:0:0:
412,304,54596,1,8,0:0:0:0:
296,224,54745,38,0,P|224:228|172:180,1,137.500004196167,4|0,0:0|0:0,0:0:0:0:
72,232,55191,2,0,L|48:308,1,68.7500020980836,0|8,0:0|0:0,0:0:0:0:
120,112,55488,2,0,L|104:32,1,68.7500020980836
256,144,55785,2,0,P|252:232|204:276,1,137.500004196167,8|8,0:0|0:0,0:0:0:0:
176,188,56230,1,0,0:0:0:0:
420,32,56527,1,8,0:0:0:0:
424,319,56824,2,0,L|360:296,1,68.7500020980836,0|0,0:0|0:0,0:0:0:0:
152,296,57121,6,0,L|76:324,1,68.7500020980836,4|0,0:0|0:0,0:0:0:0:
256,352,57418,1,0,0:0:0:0:
304,248,57567,2,0,P|308:216|296:172,1,68.7500020980836,0|8,0:0|0:0,0:0:0:0:
208,124,57864,2,0,P|204:92|216:48,1,68.7500020980836,0|8,0:0|0:0,0:0:0:0:
220,224,58161,6,0,P|152:212|104:148,1,137.500004196167,4|0,0:0|0:0,0:0:0:0:
136,32,58606,1,8,0:3:0:0:
296,100,58755,1,0,0:0:0:0:
296,100,58829,1,0,0:0:0:0:
296,100,58903,1,8,0:3:0:0:
108,162,59052,1,8,0:3:0:0:
304,192,59200,1,8,0:3:0:0:
312,208,59275,1,0,0:0:0:0:
320,224,59349,1,0,0:0:0:0:
328,240,59423,1,0,0:0:0:0:
336,256,59497,6,0,P|268:240|200:276,1,149.999995422363,6|0,0:0|0:0,0:0:0:0:
280,344,59943,1,0,0:0:0:0:
424,332,60092,2,0,B|440:256|440:256|424:180,1,149.999995422363,8|0,0:0|0:0,0:0:0:0:
352,84,60537,1,0,0:0:0:0:
256,164,60686,38,0,L|172:176,1,74.9999977111817,2|0,0:0|0:0,0:0:0:0:
336,256,60983,1,0,0:0:0:0:
368,96,61131,1,0,0:0:0:0:
204,76,61280,2,0,P|104:108|80:156,1,149.999995422363,8|0,0:0|0:0,0:0:0:0:
72,296,61725,1,8,0:0:0:0:
224,260,61874,6,0,P|302:273|360:324,1,149.999995422363,2|0,0:0|0:0,0:0:0:0:
444,244,62319,1,0,0:0:0:0:
444,244,62468,2,0,P|416:169|431:94,1,149.999995422363,8|0,0:0|0:0,0:0:0:0:
316,16,62913,1,0,0:0:0:0:
200,100,63062,6,0,L|216:192,1,74.9999977111817,2|0,0:0|0:0,0:0:0:0:
292,312,63359,2,0,L|320:216,1,74.9999977111817
296,120,63656,1,12,0:0:0:0:
180,272,63804,2,0,P|120:224|112:144,1,149.999995422363,0|0,0:0|0:0,0:0:0:0:
116,136,64176,1,0,0:0:0:0:
124,120,64250,6,0,L|36:144,1,74.9999977111817,4|0,0:0|0:0,0:0:0:0:
192,24,64547,2,0,L|276:44,1,74.9999977111817
336,152,64844,2,0,P|320:220|256:280,1,149.999995422363,8|0,0:0|0:0,0:0:0:0:
200,156,65290,1,0,0:0:0:0:
360,64,65439,38,0,B|408:72|440:52|440:52|464:76,1,112.499996566773,2|0,0:0|0:0,0:0:0:0:
480,144,65735,2,0,L|468:228,1,74.9999977111817
340,316,66032,1,8,0:0:0:0:
116,136,66329,1,0,0:0:0:0:
176,72,66478,1,8,0:0:0:0:
260,96,66626,6,0,L|304:168,1,74.9999977111817,2|0,0:0|0:0,0:0:0:0:
300,264,66923,1,0,0:0:0:0:
312,92,67072,6,0,L|344:184,1,87.499997329712,2|8,0:0|0:0,0:0:0:0:
316,268,67369,1,0,0:0:0:0:
364,88,67517,6,0,L|380:192,1,100,8|0,0:0|0:0,0:0:0:0:
332,272,67814,1,0,0:0:0:0:
416,84,67963,38,0,L|416:196,1,112.499996566773,8|0,0:0|0:0,0:0:0:0:
348,276,68260,1,0,0:0:0:0:
196,208,68408,5,12,0:0:0:0:
196,208,68557,2,0,P|164:152|176:64,1,149.999995422363,0|8,0:0|0:0,0:0:0:0:
284,128,69002,6,0,P|360:128|416:84,1,149.999995422363,4|0,0:0|0:0,0:0:0:0:
492,176,69448,1,0,0:0:0:0:
416,256,69596,2,0,B|340:256|340:256|276:300,1,149.999995422363,8|0,0:0|0:0,0:0:0:0:
464,340,70042,1,0,0:0:0:0:
280,200,70191,6,0,L|208:252,1,74.9999977111817,2|0,0:0|0:0,0:0:0:0:
368,340,70488,1,0,0:0:0:0:
360,176,70636,1,0,0:0:0:0:
176,164,70785,2,0,P|132:216|148:300,1,149.999995422363,8|0,0:0|0:0,0:0:0:0:
256,316,71230,1,8,0:0:0:0:
280,200,71379,38,0,P|284:152|272:112,2,74.9999977111817,2|0|0,0:0|0:0|0:0,0:0:0:0:
196,76,71824,1,0,0:0:0:0:
328,24,71973,2,0,P|380:80|384:160,1,149.999995422363,8|0,0:0|0:0,0:0:0:0:
280,200,72418,1,0,0:0:0:0:
176,164,72567,6,0,L|104:192,1,74.9999977111817,2|0,0:0|0:0,0:0:0:0:
184,312,72864,2,0,L|112:340,1,74.9999977111817,0|0,0:0|0:0,0:0:0:0:
40,272,73161,1,8,0:0:0:0:
232,236,73309,2,0,P|316:248|376:304,1,149.999995422363,4|8,0:0|0:0,0:0:0:0:
372,304,73681,1,0,0:0:0:0:
376,324,73755,6,0,P|424:272|440:180,1,149.999995422363,4|0,0:0|0:0,0:0:0:0:
372,88,74200,1,0,0:0:0:0:
260,152,74349,2,0,B|228:168|188:160|188:160|144:148|104:164,1,149.999995422363,8|0,0:0|0:0,0:0:0:0:
152,248,74794,1,0,0:0:0:0:
216,68,74943,6,0,P|272:60|332:88,1,112.499996566773,2|0,0:0|0:0,0:0:0:0:
360,144,75240,2,0,P|402:154|456:140,1,74.9999977111817
292,248,75537,2,0,P|248:268|152:248,1,149.999995422363,8|0,0:0|0:0,0:0:0:0:
224,168,75983,1,8,0:0:0:0:
128,84,76131,38,0,P|124:124|136:160,1,74.9999977111817,4|0,0:0|0:0,0:0:0:0:
216,68,76428,1,0,0:0:0:0:
88,104,76577,6,0,P|88:148|120:196,1,87.499997329712,2|8,0:0|0:0,0:0:0:0:
232,80,76874,1,0,0:0:0:0:
60,136,77022,6,0,P|72:184|104:224,1,100,8|0,0:0|0:0,0:0:0:0:
244,96,77319,1,0,0:0:0:0:
44,176,77468,6,0,P|58:214|120:256,1,112.499996566773,8|0,0:0|0:0,0:0:0:0:
248,112,77765,1,0,0:0:0:0:
396,216,77913,38,0,L|388:292,1,74.9999977111817,8|0,0:0|0:0,0:0:0:0:
324,164,78210,1,8,0:3:0:0:
244,300,78359,1,0,0:0:0:0:
160,144,78507,6,0,P|168:64|204:28,1,125,4|0,0:0|0:0,0:0:0:0:
328,56,78953,2,0,L|388:80,1,62.5,0|12,0:0|0:0,0:0:0:0:
324,164,79250,2,0,L|376:212,1,62.5
276,256,79547,1,0,0:0:0:0:
180,236,79695,2,0,P|128:256|88:320,1,125,2|0,0:0|0:0,0:0:0:0:
236,336,80141,1,0,0:0:0:0:
236,336,80290,2,0,P|300:340|352:296,1,125,8|0,0:0|0:0,0:0:0:0:
324,164,80735,1,8,0:0:0:0:
196,136,80884,6,0,B|164:132|136:144|136:144|100:144|72:120,2,125,2|0|8,0:0|0:0|0:0,0:0:0:0:
256,240,81626,1,0,0:0:0:0:
380,220,81775,2,0,L|404:152,1,62.5,8|0,0:0|0:0,0:0:0:0:
328,44,82072,1,2,0:0:0:0:
328,44,82220,1,8,0:0:0:0:
204,104,82369,2,0,P|196:136|200:180,1,62.5
320,304,82666,2,0,P|340:260|328:184,1,125,12|0,0:0|0:0,0:0:0:0:
256,240,83111,1,8,0:0:0:0:
120,208,83260,6,0,P|108:128|128:64,1,125,4|0,0:0|0:0,0:0:0:0:
224,20,83705,2,0,P|260:40|284:68,1,62.5,0|8,0:0|0:0,0:0:0:0:
196,165,84002,2,0,P|196:134|204:104,1,62.5
332,192,84299,1,0,0:0:0:0:
208,268,84448,1,2,0:0:0:0:
208,268,84596,2,0,B|156:304|156:304|80:316,1,125
284,320,85042,2,0,L|352:344,1,62.5,8|0,0:0|0:0,0:0:0:0:
472,244,85339,2,0,L|388:268,1,62.5,0|8,0:0|0:0,0:0:0:0:
276,124,85636,38,0,P|324:104|360:108,1,62.5,2|8,0:0|0:0,0:0:0:0:
284,216,85933,2,0,P|316:220|356:240,1,62.5
208,268,86230,2,0,P|152:248|112:192,1,125,12|8,0:0|0:0,0:0:0:0:
148,96,86676,1,0,0:0:0:0:
148,96,86824,2,0,L|196:36,1,62.5,2|8,0:0|0:0,0:0:0:0:
324,47,87121,2,0,L|364:96,1,62.5,8|0,0:3|0:0,0:0:0:0:
304,176,87418,5,0,0:0:0:0:
208,176,87567,1,0,0:0:0:0:
308,180,87715,1,0,0:0:0:0:
204,180,87864,1,0,0:0:0:0:
