osu file format v12

[General]
AudioFilename: Mousou Express.mp3
AudioLeadIn: 2000
PreviewTime: 39893
Countdown: 0
SampleSet: Soft
StackLeniency: 0.5
Mode: 0
LetterboxInBreaks: 0
WidescreenStoryboard: 0

[Editor]
DistanceSpacing: 0.5
BeatDivisor: 4
GridSize: 4

[Metadata]
Title:Mousou Express (TV Size)
TitleUnicode:もうそう♥えくすぷれす (TV Size)
Artist:Hanazawa Kana
ArtistUnicode:花澤香菜
Creator:jonathanlfj
Version:UWS
Source:Monogatari Series Second Season
Tags:囮物語 物語セカンドシーズン Otori Otorimonogatari opening 千石撫子 sengoku nadeko medusa meg rock monaca UnderminE LunarSakuya UnitedWeSin Nyquill Zero__wind zenbu
BeatmapID:306002
BeatmapSetID:118869

[Difficulty]
HPDrainRate:7
CircleSize:4
OverallDifficulty:7
ApproachRate:8
SliderMultiplier:2.3
SliderTickRate:4

[Events]
//Background and Video events
0,0,"BG.jpg",0,0
Video,-410,"video.avi"
//Break Periods
//Storyboard Layer 0 (Background)
//Storyboard Layer 1 (Fail)
//Storyboard Layer 2 (Pass)
//Storyboard Layer 3 (Foreground)
//Storyboard Sound Samples
//Background Colour Transformations
3,100,163,162,255

[TimingPoints]
92,594.059405940594,4,2,1,40,1,0
92,-125,4,2,1,40,0,0
9002,-125,4,2,1,30,0,0
9596,-100,4,2,1,70,0,0
19101,-100,4,2,1,60,0,0
38111,-83.3333333333333,4,2,1,60,0,0
39893,-83.3333333333333,4,2,1,65,0,0
40488,-90.9090909090909,4,2,1,70,0,0
59497,-83.3333333333333,4,2,1,80,0,1
68854,-83.3333333333333,4,2,1,80,0,0
69002,-83.3333333333333,4,2,1,80,0,1
78507,-100,4,2,1,70,0,0
87418,-166.666666666667,4,2,1,10,0,0
87864,-166.666666666667,4,2,1,5,0,0

[Colours]
Combo1 : 129,129,129
Combo2 : 251,129,254
Combo3 : 81,159,255
Combo4 : 132,41,254
Combo5 : 255,199,28
Combo6 : 191,191,191

[HitObjects]
256,192,92,69,0,0:0:0:0:
272,208,389,1,0,0:0:0:0:
416,176,686,2,0,L|432:220,2,46,2|0|0,0:0|0:0|0:0,0:0:0:0:
452,88,1131,2,0,P|388:84|332:132,1,138,2|0,0:0|0:0,0:0:0:0:
332,224,1725,5,2,0:0:0:0:
332,224,1874,2,0,L|348:268,1,46,0|0,0:0|0:0,0:0:0:0:
232,184,2171,2,0,L|216:140,1,46,2|0,0:0|0:0,0:0:0:0:
256,280,2468,69,0,0:0:0:0:
246,301,2765,1,0,0:0:0:0:
84,268,3062,2,0,P|71:245|67:220,1,46,2|0,0:0|0:0,0:0:0:0:
155,226,3359,1,0,0:0:0:0:
160,312,3507,2,0,P|129:345|37:342,1,138,2|0,0:0|0:0,0:0:0:0:
84,268,4101,5,2,0:0:0:0:
4,228,4250,2,0,P|-18:206|-28:184,1,46
68,116,4547,2,0,P|68:146|59:169,1,46,2|0,0:0|0:0,0:0:0:0:
0,32,4844,69,0,0:0:0:0:
5,51,5141,1,0,0:0:0:0:
176,128,5438,2,0,L|156:80,2,46,2|0|0,0:0|0:0|0:0,0:0:0:0:
234,45,5884,2,0,P|183:2|116:8,1,138,2|0,0:0|0:0,0:0:0:0:
188,140,6478,5,2,0:0:0:0:
188,140,6626,2,0,P|209:149|231:151,1,46
360,88,6923,2,0,P|338:97|316:99,1,46,2|0,0:0|0:0,0:0:0:0:
280,236,7220,69,0,0:0:0:0:
296,252,7517,2,0,P|317:261|339:263,1,46,2|0,0:0|0:0,0:0:0:0:
444,200,7814,2,0,P|428:217|419:238,1,46,2|0,0:0|0:0,0:0:0:0:
160,320,8260,6,0,B|148:303|148:303|145:287|145:287|120:232,1,92,2|0,0:0|0:0,0:0:0:0:
36,144,8705,2,0,P|24:176|24:196,1,46
136,108,9002,69,8,0:0:0:0:
168,88,9596,22,0,B|196:80|196:80|228:88|228:88|288:84,1,115,4|0,0:0|0:0,0:0:0:0:
464,132,10191,2,0,P|474:160|477:188,1,57.5,8|0,0:0|0:0,0:0:0:0:
396,220,10488,1,0,0:0:0:0:
376,136,10636,2,0,P|389:85|440:44,1,115,2|0,0:0|0:0,0:0:0:0:
376,136,11082,6,0,P|372:168|364:192,1,57.5,0|0,0:0|0:0,0:0:0:0:
264,324,11379,2,0,L|244:260,1,57.5,8|0,0:0|0:0,0:0:0:0:
152,172,11676,2,0,L|134:226,1,57.5
16,140,11973,5,2,0:0:0:0:
8,108,12270,1,0,0:0:0:0:
152,172,12567,2,0,P|180:182|208:185,1,57.5,8|0,0:0|0:0,0:0:0:0:
92,120,12864,1,0,0:0:0:0:
152,260,13012,2,0,P|94:238|64:192,1,115,2|0,0:0|0:0,0:0:0:0:
152,260,13458,6,0,P|173:279|189:303,1,57.5
156,384,13755,1,8,0:0:0:0:
256,188,14052,1,0,0:0:0:0:
356,384,14349,38,0,B|392:357|371:313|400:281,1,115,2|0,0:0|0:0,0:0:0:0:
460,48,14943,2,0,P|470:76|473:104,1,57.5,8|0,0:0|0:0,0:0:0:0:
400,160,15240,1,0,0:0:0:0:
380,16,15389,2,0,P|332:52|268:52,1,115,2|0,0:0|0:0,0:0:0:0:
380,16,15834,6,0,P|392:40|396:72,1,57.5
242,218,16131,2,0,L|198:270,1,57.5,8|0,0:0|0:0,0:0:0:0:
236,52,16428,2,0,L|192:104,1,57.5
80,264,16725,6,0,L|160:176,1,115,2|0,0:0|0:0,0:0:0:0:
40,268,17171,1,0,0:0:0:0:
180,324,17319,2,0,L|216:279,1,57.5,8|0,0:0|0:0,0:0:0:0:
196,168,17616,1,0,0:0:0:0:
288,340,17765,6,0,P|312:292|304:232,1,115,2|0,0:0|0:0,0:0:0:0:
225,119,18210,2,0,P|207:141|196:168,1,57.5
344,88,18507,1,8,0:0:0:0:
376,80,18804,1,0,0:0:0:0:
412,72,19101,38,0,L|432:192,1,115,4|0,0:0|0:0,0:0:0:0:
376,336,19547,2,0,L|357:222,1,115,0|0,0:0|0:0,0:0:0:0:
296,164,19992,1,0,0:0:0:0:
276,144,20290,6,0,P|256:164|220:180,1,57.5,2|0,0:0|0:0,0:0:0:0:
208,88,20587,1,0,0:0:0:0:
179,247,20735,2,0,P|146:202|144:146,1,115,0|0,0:0|0:0,0:0:0:0:
292,256,21181,1,0,0:0:0:0:
296,292,21478,6,0,P|268:349|214:374,1,115,2|0,0:0|0:0,0:0:0:0:
120,336,21923,2,0,L|92:280,1,57.5,0|8,0:0|0:0,0:0:0:0:
144,144,22220,2,0,L|152:84,1,57.5
76,208,22517,6,0,P|128:232|184:224,1,115,2|0,0:0|0:0,0:0:0:0:
264,176,22963,2,0,L|272:116,1,57.5
264,264,23260,1,8,0:0:0:0:
284,288,23557,1,0,0:0:0:0:
392,268,23854,38,0,P|436:232|452:164,1,115,2|0,0:0|0:0,0:0:0:0:
264,176,24299,2,0,P|220:140|204:72,1,115
320,40,24745,2,0,P|311:66|286:97,1,57.5,0|2,0:0|0:0,0:0:0:0:
104,232,25191,6,0,L|112:172,1,57.5
64,304,25488,2,0,L|176:264,1,115,0|0,0:0|0:0,0:0:0:0:
240,304,25933,2,0,P|221:325|185:342,1,57.5
240,224,26230,6,0,P|296:244|324:296,1,115,2|0,0:0|0:0,0:0:0:0:
400,316,26676,2,0,P|401:285|394:257,1,57.5,0|8,0:0|0:0,0:0:0:0:
272,148,26973,1,0,0:0:0:0:
256,120,27270,6,0,B|244:72|280:52|264:8,1,115,2|0,0:0|0:0,0:0:0:0:
184,32,27715,2,0,L|144:76,1,57.5,0|0,0:0|0:0,0:0:0:0:
336,108,28012,2,0,L|376:152,1,57.5,8|0,0:0|0:0,0:0:0:0:
256,276,28309,2,0,L|256:219,1,57.5
156,28,28606,38,0,L|116:72,1,57.5,4|0,0:0|0:0,0:0:0:0:
48,140,28903,1,0,0:0:0:0:
92,268,29052,2,0,P|144:228|162:175,1,115,2|0,0:0|0:0,0:0:0:0:
8,216,29497,5,0,0:0:0:0:
8,216,29646,2,0,P|-3:271|14:325,1,115
120,368,30091,1,0,0:0:0:0:
196,288,30240,2,0,P|194:231|163:183,1,115,2|0,0:0|0:0,0:0:0:0:
8,216,30686,1,0,0:0:0:0:
196,288,30983,6,0,L|320:296,1,115,2|0,0:0|0:0,0:0:0:0:
428,360,31428,2,0,L|368:356,1,57.5,0|8,0:0|0:0,0:0:0:0:
360,228,31725,2,0,P|386:255|394:275,1,57.5
240,380,32022,6,0,B|205:385|205:385|121:364,1,115,2|0,0:0|0:0,0:0:0:0:
46,270,32468,2,0,P|19:291|-1:322,1,57.5
148,248,32765,1,8,0:0:0:0:
164,216,33062,1,0,0:0:0:0:
256,116,33359,38,0,B|280:168|280:168|276:200|296:232,1,115,2|0,0:0|0:0,0:0:0:0:
468,216,33804,2,0,P|412:191|351:187,1,115
336,320,34250,2,0,P|348:292|356:264,1,57.5,0|2,0:0|0:0,0:0:0:0:
188,64,34695,6,0,P|176:92|168:120,1,57.5
224,0,34992,2,0,P|176:28|116:36,1,115
68,112,35438,1,0,0:0:0:0:
32,28,35587,1,0,0:0:0:0:
112,188,35735,6,0,P|48:172|-4:180,1,115,2|0,0:0|0:0,0:0:0:0:
136,284,36181,2,0,P|188:252|208:192,1,115
168,116,36626,1,0,0:0:0:0:
136,284,36775,6,0,P|191:306|252:287,1,115,2|0,0:0|0:0,0:0:0:0:
340,248,37220,2,0,P|348:276|348:312,1,57.5
268,192,37517,1,8,0:0:0:0:
276,156,37814,2,0,L|292:100,1,57.5
484,80,38111,6,0,B|496:112|496:112|496:144|496:144|516:203|516:203|504:240|512:284,1,206.999993682861,4|0,0:0|0:0,0:0:0:0:
456,352,38705,1,4,0:0:0:0:
336,312,38854,1,0,0:0:0:0:
252,356,39002,2,0,B|208:368|208:368|180:360,1,68.9999978942872,0|0,0:0|3:0,0:0:0:0:
96,256,39299,6,0,L|80:176,1,68.9999978942872,8|8,0:0|0:0,0:0:0:0:
48,336,39596,1,0,0:0:0:0:
48,336,39745,1,0,0:0:0:0:
208,244,39893,6,0,P|220:200|216:168,1,68.9999978942872,8|0,0:0|0:0,0:0:0:0:
304,72,40191,2,0,P|292:116|296:148,1,68.9999978942872,8|8,0:0|0:0,0:0:0:0:
448,272,40488,6,0,P|400:224|340:208,1,126.500003860474,4|0,0:0|0:0,0:0:0:0:
180,336,41082,2,0,P|196:308|204:272,1,63.2500019302369,8|0,0:0|0:0,0:0:0:0:
112,288,41379,1,0,0:0:0:0:
260,380,41527,6,0,P|316:352|352:300,1,126.500003860474,8|8,0:0|0:0,0:0:0:0:
280,144,41973,2,0,P|264:171|256:201,1,63.2500019302369
428,132,42270,1,8,0:0:0:0:
432,164,42567,2,0,L|496:168,1,63.2500019302369,0|8,0:0|0:0,0:0:0:0:
280,144,42864,6,0,P|232:160|148:148,1,126.500003860474,2|0,0:0|0:0,0:0:0:0:
16,348,43458,2,0,P|22:310|20:276,1,63.2500019302369,8|0,0:0|0:0,0:0:0:0:
0,200,43755,1,0,0:0:0:0:
108,352,43903,38,0,P|116:288|99:229,1,126.500003860474,8|8,0:0|0:0,0:0:0:0:
44,84,44349,2,0,P|56:120|76:148,1,63.2500019302369
184,56,44646,1,8,0:0:0:0:
204,88,44943,2,0,P|192:124|172:152,1,63.2500019302369,0|8,0:0|0:0,0:0:0:0:
332,120,45240,6,0,L|452:80,1,126.500003860474,2|0,0:0|0:0,0:0:0:0:
496,176,45686,1,0,0:0:0:0:
496,176,45834,2,0,P|488:216|488:244,1,63.2500019302369,8|0,0:0|0:0,0:0:0:0:
452,79,46131,1,0,0:0:0:0:
372,208,46280,6,0,P|304:208|252:168,1,126.500003860474,8|8,0:0|0:0,0:0:0:0:
136,96,46725,2,0,P|156:116|180:156,1,63.2500019302369
204,288,47022,2,0,L|196:216,1,63.2500019302369,8|0,0:0|0:0,0:0:0:0:
312,60,47319,2,0,P|323:85|331:131,1,63.2500019302369,0|8,0:0|0:0,0:0:0:0:
320,324,47616,6,0,P|300:304|276:264,2,63.2500019302369,2|0|0,0:0|0:0|0:0,0:0:0:0:
408,344,48062,2,0,L|472:348,1,63.2500019302369,0|8,0:0|0:0,0:0:0:0:
236,360,48359,2,0,P|200:360|164:348,1,63.2500019302369
60,224,48656,38,0,P|64:284|104:348,1,126.500003860474,8|8,0:0|0:0,0:0:0:0:
212,268,49101,2,0,L|224:200,1,63.2500019302369
348,128,49398,2,0,L|360:60,1,63.2500019302369,8|0,0:0|0:0,0:0:0:0:
256,88,49695,1,8,0:0:0:0:
344,172,49844,1,8,0:0:0:0:
456,112,49992,6,0,B|464:148|464:148|436:244,1,126.500003860474,4|0,0:0|0:0,0:0:0:0:
212,268,50587,2,0,P|195:241|186:211,1,63.2500019302369,8|0,0:0|0:0,0:0:0:0:
304,280,50884,1,0,0:0:0:0:
136,312,51032,6,0,P|96:264|72:204,1,126.500003860474,8|8,0:0|0:0,0:0:0:0:
0,252,51478,2,0,P|9:282|25:308,1,63.2500019302369
186,211,51775,1,8,0:0:0:0:
204,184,52072,2,0,B|208:148|204:120,1,63.2500019302369,0|8,0:0|0:0,0:0:0:0:
280,260,52369,6,0,P|305:322|364:360,1,126.500003860474,2|0,0:0|0:0,0:0:0:0:
204,120,52963,2,0,L|272:144,1,63.2500019302369,8|0,0:0|0:0,0:0:0:0:
184,32,53260,1,0,0:0:0:0:
156,196,53408,38,0,P|116:144|116:76,1,126.500003860474,8|8,0:0|0:0,0:0:0:0:
156,196,53854,2,0,P|148:228|132:256,1,63.2500019302369
0,124,54151,1,8,0:0:0:0:
0,168,54448,2,0,L|48:192,1,63.2500019302369,8|8,0:0|0:0,0:0:0:0:
212,320,54745,6,0,P|272:300|320:240,1,126.500003860474,4|0,0:0|0:0,0:0:0:0:
388,176,55191,1,0,0:0:0:0:
388,176,55339,2,0,P|408:208|412:248,1,63.2500019302369,8|0,0:0|0:0,0:0:0:0:
388,324,55636,1,0,0:0:0:0:
300,164,55785,6,0,P|300:104|332:40,1,126.500003860474,8|8,0:0|0:0,0:0:0:0:
464,48,56230,2,0,P|436:68|404:80,1,63.2500019302369
212,144,56527,2,0,P|237:162|267:175,1,63.2500019302369,8|0,0:0|0:0,0:0:0:0:
388,324,56824,2,0,P|377:291|358:262,1,63.2500019302369
148,268,57121,6,0,P|130:294|122:324,2,63.2500019302369,2|0|0,0:0|0:0|0:0,0:0:0:0:
256,244,57567,2,0,L|237:304,1,63.2500019302369,0|8,0:0|0:0,0:0:0:0:
44,256,57864,2,0,L|62:195,1,63.2500019302369,0|8,0:0|0:0,0:0:0:0:
196,72,58161,2,0,B|219:102|219:102|229:125,1,63.2500019302369,4|0,0:0|0:0,0:0:0:0:
148,268,58458,37,8,0:3:0:0:
48,115,58606,2,0,P|77:125|108:130,1,63.2500019302369,8|0,0:3|0:0,0:0:0:0:
336,168,58903,2,0,P|300:180|272:184,1,63.2500019302369,8|4,0:3|0:3,0:0:0:0:
104,248,59200,2,0,P|124:216|144:196,1,63.2500019302369,0|0,0:0|0:0,0:0:0:0:
200,264,59423,5,0,0:0:0:0:
200,264,59497,2,0,B|236:269|236:269|262:257|262:257|293:265|342:250,1,137.999995788574,4|0,0:0|0:0,0:0:0:0:
416,328,59943,1,0,0:0:0:0:
416,328,60092,2,0,P|446:257|431:185,1,137.999995788574,8|0,0:0|0:0,0:0:0:0:
240,188,60537,5,0,0:0:0:0:
240,188,60685,2,0,L|180:248,1,68.9999978942872,2|0,0:0|0:0,0:0:0:0:
224,67,60982,2,0,L|257:6,1,68.9999978942872
144,132,61280,2,0,P|110:122|81:105,1,68.9999978942872,8|0,0:0|0:0,0:0:0:0:
320,120,61577,2,0,P|353:129|382:146,1,68.9999978942872
336,328,61874,1,2,0:0:0:0:
296,328,62171,6,0,L|224:312,1,68.9999978942872
408,296,62468,2,0,P|464:252|492:190,1,137.999995788574,8|0,0:0|0:0,0:0:0:0:
432,72,62913,1,0,0:0:0:0:
376,184,63062,37,2,0:0:0:0:
376,184,63210,2,0,P|308:176|256:128,1,137.999995788574
164,64,63656,1,8,0:0:0:0:
104,224,63804,2,0,B|56:176|92:144|40:96,1,137.999995788574,4|0,0:0|0:0,0:0:0:0:
104,224,64250,6,0,P|154:269|222:276,1,137.999995788574,4|0,0:0|0:0,0:0:0:0:
244,376,64695,1,0,0:0:0:0:
244,376,64844,2,0,P|300:338|324:275,1,137.999995788574,8|0,0:0|0:0,0:0:0:0:
428,264,65290,5,0,0:0:0:0:
428,264,65438,2,0,P|428:224|436:192,1,68.9999978942872,2|0,0:0|0:0,0:0:0:0:
440,76,65735,2,0,P|473:83|505:98,1,68.9999978942872
340,144,66032,2,0,P|317:115|303:84,1,68.9999978942872,8|0,0:0|0:0,0:0:0:0:
428,264,66329,2,0,P|417:296|400:327,1,68.9999978942872,0|8,0:0|0:0,0:0:0:0:
200,96,66626,6,0,P|202:61|212:27,2,68.9999978942872,4|0|0,0:0|0:0|0:0,0:0:0:0:
348,284,67072,38,0,P|376:302|401:326,2,68.9999978942872,2|8|0,0:0|0:0|0:0,0:0:0:0:
112,304,67517,6,0,P|80:319|47:328,2,68.9999978942872,10|0|0,0:0|0:0|0:0,0:0:0:0:
297,118,67963,6,0,P|311:86|319:52,2,68.9999978942872,10|0|0,0:0|0:0|0:0,0:0:0:0:
116,236,68408,6,0,L|112:304,1,68.9999978942872,4|0,0:0|0:0,0:0:0:0:
294,186,68705,2,0,L|296:117,1,68.9999978942872,0|0,0:0|0:0,0:0:0:0:
275,323,69002,38,0,P|344:313|392:259,1,137.999995788574,4|0,0:0|0:0,0:0:0:0:
376,152,69448,1,0,0:0:0:0:
296,220,69596,2,0,P|236:220|168:184,1,137.999995788574,8|0,0:0|0:0,0:0:0:0:
52,104,70042,5,0,0:0:0:0:
52,104,70191,2,0,P|35:137|28:176,1,68.9999978942872,2|0,0:0|0:0,0:0:0:0:
264,128,70488,2,0,P|280:94|288:56,1,68.9999978942872
128,40,70785,2,0,L|200:68,1,68.9999978942872,8|0,0:0|0:0,0:0:0:0:
136,272,71082,2,0,P|98:264|71:246,1,68.9999978942872,0|8,0:0|0:0,0:0:0:0:
224,232,71379,6,0,B|240:280|220:320|220:320|280:340,1,137.999995788574,2|0,0:0|0:0,0:0:0:0:
328,272,71824,1,0,0:0:0:0:
192,156,71973,2,0,P|260:188|328:176,1,137.999995788574,8|0,0:0|0:0,0:0:0:0:
412,120,72418,1,0,0:0:0:0:
448,220,72567,6,0,P|448:252|436:292,1,68.9999978942872,2|0,0:0|0:0,0:0:0:0:
268,100,72864,2,0,P|268:68|280:28,1,68.9999978942872
360,236,73161,1,8,0:0:0:0:
212,204,73309,2,0,B|148:179|168:135|101:113,1,137.999995788574,4|0,0:0|0:0,0:0:0:0:
44,164,73681,37,0,0:0:0:0:
44,164,73755,2,0,P|70:225|138:258,1,137.999995788574,4|0,0:0|0:0,0:0:0:0:
216,328,74200,1,0,0:0:0:0:
216,328,74349,2,0,P|283:332|333:378,1,137.999995788574,8|0,0:0|0:0,0:0:0:0:
436,324,74794,5,0,0:0:0:0:
436,324,74943,2,0,L|448:252,1,68.9999978942872,2|0,0:0|0:0,0:0:0:0:
332,168,75240,2,0,L|349:234,1,68.9999978942872
232,240,75537,2,0,P|212:211|185:189,1,68.9999978942872,8|0,0:0|0:0,0:0:0:0:
288,56,75834,2,0,P|285:90|273:122,1,68.9999978942872,0|8,0:0|0:0,0:0:0:0:
32,304,76131,6,0,P|34:269|46:237,2,68.9999978942872,4|0|0,0:0|0:0|0:0,0:0:0:0:
152,244,76577,6,0,P|148:212|132:180,1,68.9999978942872,2|8,0:0|0:0,0:0:0:0:
36,140,76874,1,0,0:0:0:0:
128,328,77022,38,0,P|160:329|194:318,2,68.9999978942872,10|0|0,0:0|0:0|0:0,0:0:0:0:
36,140,77468,6,0,P|54:111|81:90,1,68.9999978942872,10|0,0:0|0:0,0:0:0:0:
184,96,77765,1,0,0:0:0:0:
288,204,77913,6,0,L|312:280,1,68.9999978942872,4|0,0:0|0:0,0:0:0:0:
184,96,78210,2,0,L|160:20,1,68.9999978942872,8|0,0:0|0:0,0:0:0:0:
388,72,78507,6,0,L|424:192,1,115,4|0,0:0|0:0,0:0:0:0:
348,229,78953,1,0,0:0:0:0:
348,228,79101,2,0,P|325:246|309:269,1,57.5,4|0,0:0|0:0,0:0:0:0:
312,384,79398,2,0,P|332:368|352:340,1,57.5
232,380,79695,38,0,P|180:376|124:344,1,115,2|0,0:0|0:0,0:0:0:0:
16,308,80141,2,0,P|68:304|124:272,1,115
164,196,80587,1,0,0:0:0:0:
164,112,80735,1,8,0:0:0:0:
212,204,80884,6,0,L|244:324,1,115,2|0,0:0|0:0,0:0:0:0:
380,216,81329,2,0,P|440:220|488:256,1,115
456,368,81775,2,0,P|433:340|424:316,1,57.5
380,216,82072,6,0,P|348:232|328:252,1,57.5,2|8,0:0|0:0,0:0:0:0:
258,319,82369,2,0,P|239:298|228:272,1,57.5
148,372,82666,2,0,P|116:320|100:252,1,115,4|0,0:0|0:0,0:0:0:0:
144,188,83111,5,8,0:0:0:0:
144,188,83260,2,0,P|92:220|32:212,1,115,4|0,0:0|0:0,0:0:0:0:
20,132,83705,2,0,P|72:100|132:108,1,115
208,120,84151,2,0,P|208:88|200:60,1,57.5
228,200,84448,38,0,B|268:236|268:236|304:228|336:244,1,115,2|0,0:0|0:0,0:0:0:0:
372,316,84893,2,0,P|408:272|412:216,1,115
356,148,85339,1,0,0:0:0:0:
348,60,85488,1,8,0:0:0:0:
408,124,85636,6,0,P|472:116|512:80,1,115,2|0,0:0|0:0,0:0:0:0:
348,60,86082,1,0,0:0:0:0:
276,104,86230,2,0,P|247:90|225:71,1,57.5,4|0,0:0|0:0,0:0:0:0:
272,192,86527,2,0,P|303:188|330:177,1,57.5,8|0,0:0|0:0,0:0:0:0:
252,280,86824,6,0,B|178:252|188:188|108:165,1,172.5,2|0,0:0|0:0,0:0:0:0:
48,232,87418,22,0,P|48:192|84:136,1,103.499996841431,0|0,0:0|0:0,0:0:0:0:
