osu file format v12

[General]
AudioFilename: Mousou Express.mp3
AudioLeadIn: 2000
PreviewTime: 39893
Countdown: 0
SampleSet: Soft
StackLeniency: 0.5
Mode: 0
LetterboxInBreaks: 0
WidescreenStoryboard: 0

[Editor]
DistanceSpacing: 0.5
BeatDivisor: 4
GridSize: 4

[Metadata]
Title:Mousou Express (TV Size)
TitleUnicode:もうそう♥えくすぷれす (TV Size)
Artist:Hanazawa Kana
ArtistUnicode:花澤香菜
Creator:jonathanlfj
Version:Nyquill
Source:Monogatari Series Second Season
Tags:囮物語 物語セカンドシーズン Otori Otorimonogatari opening 千石撫子 sengoku nadeko medusa meg rock monaca UnderminE LunarSakuya UnitedWeSin Nyquill Zero__wind zenbu
BeatmapID:310262
BeatmapSetID:118869

[Difficulty]
HPDrainRate:7
CircleSize:4
OverallDifficulty:7
ApproachRate:9
SliderMultiplier:2.8
SliderTickRate:4

[Events]
//Background and Video events
0,0,"BG.jpg",0,0
Video,-410,"video.avi"
//Break Periods
//Storyboard Layer 0 (Background)
//Storyboard Layer 1 (Fail)
//Storyboard Layer 2 (Pass)
//Storyboard Layer 3 (Foreground)
//Storyboard Sound Samples
//Background Colour Transformations
3,100,163,162,255

[TimingPoints]
92,594.059405940594,4,2,1,50,1,0
92,-125,4,2,1,50,0,0
1131,-142.857142857143,4,2,1,50,0,0
1725,-125,4,2,1,50,0,0
3507,-142.857142857143,4,2,1,50,0,0
4250,-125,4,2,1,50,0,0
5884,-142.857142857143,4,2,1,50,0,0
6478,-125,4,2,1,50,0,0
9002,-125,4,2,1,30,0,0
9596,-100,4,2,1,70,0,0
19101,-100,4,2,1,60,0,0
38111,-83.3333333333333,4,2,1,60,0,0
39893,-83.3333333333333,4,2,1,65,0,0
40488,-90.9090909090909,4,2,1,70,0,0
59497,-83.3333333333333,4,2,1,80,0,1
68854,-83.3333333333333,4,2,1,80,0,0
69002,-83.3333333333333,4,2,1,80,0,1
76577,-76.9230769230769,4,2,1,80,0,1
77022,-71.4285714285714,4,2,1,80,0,1
77468,-66.6666666666667,4,2,1,80,0,1
78507,-76.9230769230769,4,2,1,70,0,0
87418,-111.111111111111,4,2,1,10,0,0
87864,-166.666666666667,4,2,1,5,0,0

[Colours]
Combo1 : 129,129,129
Combo2 : 251,129,254
Combo3 : 81,159,255
Combo4 : 132,41,254
Combo5 : 255,199,28
Combo6 : 191,191,191

[HitObjects]
145,88,92,70,0,P|197:72|257:52,1,112
252,54,686,1,10,0:0:0:0:
332,98,834,1,0,0:0:0:0:
332,10,983,1,0,0:0:0:0:
253,148,1131,2,0,P|250:249|257:322,1,146.999995513916,2|0,0:0|0:0,0:0:0:0:
268,382,1725,1,0,0:0:0:0:
171,298,1874,2,0,P|171:256|172:226,1,56,8|0,0:0|0:0,0:0:0:0:
59,372,2171,2,0,L|131:372,1,56
87,212,2468,6,0,P|82:146|84:77,1,112
82,100,3062,1,10,0:0:0:0:
176,84,3210,1,0,0:0:0:0:
112,12,3359,1,0,0:0:0:0:
160,180,3507,2,0,P|242:196|339:186,1,146.999995513916,2|0,0:0|0:0,0:0:0:0:
384,176,4101,1,0,0:0:0:0:
468,164,4250,2,0,L|463:220,1,56,8|0,0:0|0:0,0:0:0:0:
432,360,4547,1,0,0:0:0:0:
512,308,4695,1,0,0:0:0:0:
388,276,4844,70,0,P|298:243|255:239,1,112
284,240,5439,1,10,0:0:0:0:
192,280,5587,1,0,0:0:0:0:
268,331,5736,1,0,0:0:0:0:
184,195,5884,2,0,P|170:118|185:45,1,146.999995513916,2|0,0:0|0:0,0:0:0:0:
182,51,6478,2,0,L|120:100,1,56,0|8,0:0|0:0,0:0:0:0:
368,84,6775,2,0,L|311:43,1,56
256,120,7072,1,0,0:0:0:0:
256,204,7220,6,0,B|266:256|248:255|260:336,1,112,0|2,0:0|0:0,0:0:0:0:
332,352,7666,1,0,0:0:0:0:
176,348,7814,1,8,0:0:0:0:
256,204,7963,1,2,0:0:0:0:
256,204,8260,2,0,L|256:84,1,112
256,0,8705,1,0,0:0:0:0:
180,116,8854,1,0,0:0:0:0:
332,116,9002,1,8,0:0:0:0:
332,116,9596,6,0,P|348:192|344:264,1,140,2|0,0:0|0:0,0:0:0:0:
184,72,10191,2,0,L|168:152,2,70,8|0|0,0:0|0:0|0:0,0:0:0:0:
232,344,10636,2,0,P|248:248|240:196,1,140,2|0,0:0|0:0,0:0:0:0:
328,168,11082,2,0,P|360:184|408:196,1,70
368,40,11379,2,0,P|324:60|304:76,1,70,8|0,0:0|0:0,0:0:0:0:
456,52,11676,1,0,0:0:0:0:
256,208,11973,5,2,0:0:0:0:
76,48,12270,1,0,0:0:0:0:
256,208,12567,2,0,P|272:264|276:296,2,70,8|0|0,0:0|0:0|0:0,0:0:0:0:
40,280,13012,2,0,L|192:268,1,140,2|0,0:0|0:0,0:0:0:0:
278,337,13458,2,0,L|348:344,1,70
437,219,13755,2,0,L|368:212,1,70,8|0,0:0|0:0,0:0:0:0:
280,40,14052,2,0,P|288:84|288:116,1,70
208,236,14349,6,0,P|204:136|208:88,1,140
364,340,14943,2,0,L|352:268,2,70,10|0|0,0:0|0:0|0:0,0:0:0:0:
308,44,15389,2,0,P|300:132|304:188,1,140,2|0,0:0|0:0,0:0:0:0:
352,272,15834,1,0,0:0:0:0:
512,212,16131,1,8,0:0:0:0:
180,176,16428,1,0,0:0:0:0:
512,352,16725,5,0,0:0:0:0:
210,300,17022,2,0,L|280:304,2,70,2|0|8,0:0|0:0|0:0,0:0:0:0:
132,352,17468,1,2,0:0:0:0:
132,352,17765,2,0,P|152:252|148:208,1,140
128,64,18210,1,0,0:0:0:0:
60,220,18359,1,0,0:0:0:0:
244,200,18507,2,0,L|328:188|356:184,1,70,8|0,0:0|0:0,0:0:0:0:
488,100,18804,2,0,L|384:108,1,70
380,352,19101,38,0,P|413:292|405:223,1,140,6|0,0:2|0:0,0:0:0:0:
136,356,19547,2,0,P|102:296|110:227,1,140,2|0,0:0|0:0,0:0:0:0:
256,328,19992,1,2,0:0:0:0:
256,328,20141,1,0,0:0:0:0:
316,236,20290,2,0,B|324:164|368:172|368:92,1,140,2|0,0:0|0:0,0:0:0:0:
196,236,20735,2,0,B|188:164|144:172|144:92,1,140,2|0,0:0|0:0,0:0:0:0:
256,124,21181,1,2,0:0:0:0:
256,124,21478,6,0,P|336:96|408:112,1,140,2|0,0:0|0:0,0:0:0:0:
412,224,21923,2,0,P|332:252|260:236,1,140,2|2,0:0|0:0,0:0:0:0:
200,200,22369,1,0,0:0:0:0:
136,136,22517,2,0,B|88:128|56:144|56:144|32:200,1,140,2|0,0:0|0:0,0:0:0:0:
112,296,22963,2,0,P|116:248|116:216,1,70
44,360,23260,1,8,0:0:0:0:
256,228,23557,1,0,0:0:0:0:
436,356,23854,6,0,L|448:208,1,140,2|0,0:0|0:0,0:0:0:0:
453,121,24299,2,0,P|359:146|287:106,1,140,2|2,0:0|0:0,0:0:0:0:
28,240,24893,2,0,P|128:212|172:236,1,140,2|0,0:0|0:0,0:0:0:0:
256,284,25339,1,0,0:0:0:0:
360,248,25488,2,0,B|392:224|392:224|512:212,1,140,2|2,0:0|0:0,0:0:0:0:
356,328,25933,1,0,0:0:0:0:
432,360,26082,1,0,0:0:0:0:
460,288,26230,6,0,L|444:144,1,140,2|0,0:0|0:0,0:0:0:0:
335,88,26676,2,0,L|347:256,1,140,2|2,0:0|0:0,0:0:0:0:
256,328,27121,1,0,0:0:0:0:
256,168,27270,2,0,L|256:20,1,140,2|0,0:0|0:0,0:0:0:0:
92,64,27715,2,0,L|56:128,1,70,0|2,0:0|0:0,0:0:0:0:
332,156,28012,2,0,L|324:232,1,70,2|0,0:0|0:0,0:0:0:0:
180,156,28309,2,0,L|192:252,1,70,2|0,0:0|0:0,0:0:0:0:
420,64,28606,38,0,L|456:128,2,70,4|0|0,0:2|0:0|0:0,0:0:0:0:
372,192,29052,2,0,B|440:220|440:180|528:204,1,140,2|0,0:0|0:0,0:0:0:0:
204,232,29497,2,0,L|273:241,1,70,2|0,0:0|0:0,0:0:0:0:
112,216,29794,2,0,L|92:304,2,70,2|0|0,0:0|0:0|0:0,0:0:0:0:
140,356,30240,2,0,B|72:384|72:344|-16:368,1,140,2|0,0:0|0:0,0:0:0:0:
200,240,30686,1,2,0:0:0:0:
200,240,30983,6,0,P|164:160|172:100,1,140,2|0,0:0|0:0,0:0:0:0:
220,32,31428,1,2,0:0:0:0:
88,284,31725,1,2,0:0:0:0:
364,244,32022,2,0,L|520:228,1,140,2|0,0:0|0:0,0:0:0:0:
504,380,32468,2,0,P|500:348|500:308,1,70
496,92,32765,2,0,P|504:168|504:232,1,140,8|0,0:0|0:0,0:0:0:0:
232,12,33359,6,0,P|216:108|216:168,1,140,2|0,0:0|0:0,0:0:0:0:
404,248,33804,2,0,P|336:204|256:244,1,140,2|2,0:0|0:0,0:0:0:0:
200,236,34250,1,0,0:0:0:0:
116,252,34398,2,0,L|36:236,1,70,2|0,0:0|0:0,0:0:0:0:
148,92,34695,2,0,L|168:180,1,70,2|0,0:0|0:0,0:0:0:0:
76,312,34992,2,0,L|84:156,1,140,2|0,0:0|0:0,0:0:0:0:
100,76,35438,1,2,0:0:0:0:
164,176,35587,1,0,0:0:0:0:
280,108,35735,6,0,P|348:92|420:112,1,140,2|0,0:0|0:0,0:0:0:0:
216,20,36181,2,0,P|128:4|72:28,1,140,2|0,0:0|0:0,0:0:0:0:
256,368,36775,2,0,B|280:288|240:292|256:224,1,140,2|0,0:0|0:0,0:0:0:0:
256,88,37220,2,0,L|256:172,1,70
195,40,37517,2,0,P|255:11|327:55,1,140,8|0,0:0|0:0,0:0:0:0:
316,40,38111,5,4,0:2:0:0:
120,180,38408,1,0,0:0:0:0:
384,176,38705,1,0,1:0:0:0:
144,104,39002,2,0,L|72:60,1,83.9999974365235,0|0,0:0|1:0,0:0:0:0:
164,300,39299,2,0,L|132:380,1,83.9999974365235
384,276,39596,2,0,L|480:348,1,83.9999974365235
348,80,39893,2,0,L|380:0,1,83.9999974365235,0|0,1:0|0:0,0:0:0:0:
256,200,40191,1,0,1:0:0:0:
256,200,40339,1,0,1:0:0:0:
256,200,40488,22,0,P|176:164|104:192,1,154.000004699707,4|0,1:2|0:0,0:0:0:0:
260,288,40933,1,0,0:0:0:0:
348,240,41082,2,0,B|352:192|384:176|384:176|420:248,1,154.000004699707,8|0,0:0|0:0,0:0:0:0:
320,124,41527,2,0,P|336:72|340:36,1,77.0000023498536,8|0,0:0|0:0,0:0:0:0:
184,231,41824,2,0,P|176:183|172:143,1,77.0000023498536,8|0,0:0|0:0,0:0:0:0:
260,360,42121,1,0,0:0:0:0:
328,280,42270,2,0,P|396:228|472:232,1,154.000004699707,8|0,0:0|0:0,0:0:0:0:
424,324,42715,1,8,0:0:0:0:
268,220,42864,6,0,B|204:176|184:220|112:160,1,154.000004699707,2|0,0:0|0:0,0:0:0:0:
192,100,43309,1,0,0:0:0:0:
200,280,43458,2,0,B|200:335|178:373|178:373|149:311,1,154.000004699707,8|0,0:0|0:0,0:0:0:0:
296,312,43903,2,0,L|384:320,1,77.0000023498536,8|0,0:0|0:0,0:0:0:0:
508,248,44200,2,0,L|428:256,1,77.0000023498536,8|0,0:0|0:0,0:0:0:0:
352,204,44497,1,0,0:0:0:0:
432,152,44646,2,0,P|452:76|424:0,1,154.000004699707,8|0,0:0|0:0,0:0:0:0:
296,124,45092,1,8,0:0:0:0:
212,188,45240,6,0,P|130:186|52:184,1,154.000004699707,2|0,0:0|0:0,0:0:0:0:
64,24,45686,2,0,P|72:72|68:108,1,77.0000023498536,0|8,0:0|0:0,0:0:0:0:
28,344,45983,2,0,P|24:292|32:252,1,77.0000023498536
268,320,46280,2,0,L|112:308,1,154.000004699707,8|8,0:0|0:0,0:0:0:0:
180,232,46725,2,0,P|252:168|268:104,1,154.000004699707,0|8,0:0|0:0,0:0:0:0:
344,200,47171,2,0,P|352:240|368:292,2,77.0000023498536,0|0|8,0:0|0:0|0:0,0:0:0:0:
364,40,47616,5,2,0:0:0:0:
408,144,47765,1,0,0:0:0:0:
296,120,47913,1,0,0:0:0:0:
436,68,48062,2,0,P|489:61|516:60,1,77.0000023498536,0|8,0:0|0:0,0:0:0:0:
236,64,48359,2,0,P|209:34|182:-1,1,77.0000023498536
175,243,48656,2,0,P|78:249|16:213,1,154.000004699707,8|8,0:0|0:0,0:0:0:0:
256,176,49101,2,0,P|340:170|408:205,1,154.000004699707,0|8,0:0|0:0,0:0:0:0:
304,365,49547,2,0,L|313:260,2,77.0000023498536,0|8|8,0:0|0:0|0:0,0:0:0:0:
200,111,49992,38,0,P|108:77|50:109,1,154.000004699707,4|0,0:0|0:0,0:0:0:0:
256,176,50438,1,0,0:0:0:0:
344,144,50587,2,0,B|392:112|440:148|440:148|412:212,1,154.000004699707,8|0,0:0|0:0,0:0:0:0:
283,90,51032,2,0,P|279:47|282:10,1,77.0000023498536,8|0,0:0|0:0,0:0:0:0:
318,242,51329,2,0,P|321:290|316:333,2,77.0000023498536,8|0|0,0:0|0:0|0:0,0:0:0:0:
80,252,51775,2,0,L|250:274,1,154.000004699707,8|0,0:0|0:0,0:0:0:0:
304,364,52220,1,8,0:0:0:0:
364,144,52369,6,0,P|288:132|208:208,1,154.000004699707,2|0,0:0|0:0,0:0:0:0:
320,228,52814,1,0,0:0:0:0:
416,208,52963,2,0,B|464:188|504:212|504:212|436:260,1,154.000004699707,8|0,0:0|0:0,0:0:0:0:
125,177,53408,2,0,L|98:100,1,77.0000023498536,8|0,0:0|0:0,0:0:0:0:
256,29,53705,2,0,L|256:114,2,77.0000023498536,8|0|0,0:0|0:0|0:0,0:0:0:0:
387,177,54151,2,0,L|414:100,1,77.0000023498536,8|0,0:0|0:0,0:0:0:0:
308,254,54448,1,8,0:0:0:0:
202,253,54596,1,0,0:0:0:0:
362,184,54745,6,0,P|396:276|357:345,1,154.000004699707,4|0,0:0|0:0,0:0:0:0:
202,351,55191,1,0,0:0:0:0:
202,255,55339,1,8,0:0:0:0:
308,253,55488,1,0,0:0:0:0:
307,352,55636,1,0,0:0:0:0:
134,323,55785,2,0,P|115:251|150:184,1,154.000004699707,8|0,0:0|0:0,0:0:0:0:
103,76,56230,2,0,B|97:65|115:97|115:97|187:78|235:127,1,154.000004699707,0|8,0:0|0:0,0:0:0:0:
276,280,56676,2,0,P|268:224|272:200,1,77.0000023498536
316,124,56973,1,0,0:0:0:0:
368,328,57121,6,0,P|336:360|288:380,2,77.0000023498536,4|0|0,0:0|0:0|0:0,0:0:0:0:
203,374,57567,2,0,P|170:355|143:327,1,77.0000023498536,0|8,0:0|0:0,0:0:0:0:
320,164,57864,2,0,P|348:196|368:240,1,77.0000023498536,0|8,0:0|0:0,0:0:0:0:
180,180,58161,2,0,L|60:48,1,154.000004699707,4|0,0:0|0:0,0:0:0:0:
252,248,58606,2,0,L|284:280,3,38.5000011749268,0|0|0|0,1:0|1:0|1:0|1:0,1:0:0:0:
388,320,58903,2,0,L|476:312,1,77.0000023498536,8|0,1:3|0:0,0:0:0:0:
280,72,59200,2,0,L|244:156,1,77.0000023498536,4|0,0:3|0:0,0:0:0:0:
420,160,59497,38,0,P|500:92|520:24,1,167.999994873047,4|0,0:0|0:0,0:0:0:0:
256,308,59943,1,0,0:0:0:0:
408,232,60092,2,0,P|416:144|388:68,1,167.999994873047,6|0,0:0|0:0,0:0:0:0:
324,356,60537,1,0,0:0:0:0:
184,352,60686,2,0,P|179:310|184:268,1,83.9999974365235,6|0,0:0|0:0,0:0:0:0:
324,272,60983,2,0,P|328:314|324:356,1,83.9999974365235,2|2,0:0|0:0,0:0:0:0:
256,216,61280,2,0,B|256:196|256:196|248:176|248:176|264:176|264:176|256:156|256:156|256:67,1,167.999994873047,6|2,0:0|0:0,0:0:0:0:
352,108,61725,1,8,0:0:0:0:
144,164,61874,6,0,P|36:132|0:64,1,167.999994873047,4|0,0:0|0:0,0:0:0:0:
332,224,62319,1,0,0:0:0:0:
176,224,62468,2,0,P|140:128|156:56,1,167.999994873047,4|0,0:0|0:0,0:0:0:0:
340,240,62913,2,0,P|348:300|340:352,1,83.9999974365235,0|4,0:0|0:0,0:0:0:0:
165,323,63210,2,0,P|164:281|172:240,2,83.9999974365235,2|2|0,0:0|0:0|0:0,0:0:0:0:
256,380,63656,1,8,0:0:0:0:
256,136,63804,2,0,B|257:163|257:163|248:176|248:176|264:192|264:192|244:236|260:292,1,167.999994873047,4|0,0:0|0:0,0:0:0:0:
168,108,64250,6,0,P|248:52|332:68,1,167.999994873047,4|0,0:0|0:0,0:0:0:0:
436,200,64695,1,0,0:0:0:0:
436,200,64844,2,0,P|328:160|280:188,1,167.999994873047,12|0,0:0|0:0,0:0:0:0:
76,280,65290,1,0,0:0:0:0:
76,280,65438,2,0,P|128:268|160:264,1,83.9999974365235,4|2,0:0|0:0,0:0:0:0:
364,344,65735,2,0,P|308:332|252:308,1,83.9999974365235,2|2,0:0|0:0,0:0:0:0:
348,80,66032,2,0,P|364:176|352:260,1,167.999994873047,12|0,0:0|0:0,0:0:0:0:
256,356,66478,1,0,0:0:0:0:
196,248,66626,6,0,B|264:208|240:168|320:116,1,167.999994873047,12|2,0:0|0:0,0:0:0:0:
200,124,67072,38,0,B|268:168|244:208|312:248,1,167.999994873047,12|2,0:0|0:0,0:0:0:0:
196,248,67517,6,0,B|224:176|296:188|308:112,1,167.999994873047,12|2,0:0|0:0,0:0:0:0:
200,124,67963,6,0,B|209:186|281:174|309:246,1,167.999994873047,12|2,0:0|0:0,0:0:0:0:
256,8,68408,2,0,L|256:112,1,83.9999974365235,12|0,0:0|0:0,0:0:0:0:
256,364,68705,2,0,L|256:248,1,83.9999974365235
375,185,69002,6,0,P|411:273|411:353,1,167.999994873047,4|0,0:0|0:0,0:0:0:0:
364,0,69448,1,0,0:0:0:0:
412,113,69596,2,0,P|360:209|304:261,1,167.999994873047,12|0,0:0|0:0,0:0:0:0:
228,288,70042,1,0,0:0:0:0:
176,72,70191,2,0,P|208:120|228:164,1,83.9999974365235,4|2,0:0|0:0,0:0:0:0:
100,344,70488,2,0,P|68:296|48:252,1,83.9999974365235,2|2,0:0|0:0,0:0:0:0:
232,368,70785,2,0,L|136:208,1,167.999994873047,12|8,0:0|0:0,0:0:0:0:
293,108,71230,1,0,0:0:0:0:
371,183,71379,38,0,L|334:356,1,167.999994873047,4|0,0:0|0:0,0:0:0:0:
456,20,71824,1,0,0:0:0:0:
436,144,71973,2,0,P|322:188|245:146,1,167.999994873047,12|0,0:0|0:0,0:0:0:0:
184,108,72418,1,0,0:0:0:0:
96,252,72567,2,0,P|92:200|96:156,1,83.9999974365235,4|2,0:0|0:0,0:0:0:0:
284,108,72864,2,0,P|288:160|284:204,1,83.9999974365235,2|0,0:0|0:0,0:0:0:0:
180,24,73161,1,8,0:0:0:0:
187,200,73309,2,0,L|191:388,1,167.999994873047,4|0,0:0|0:0,0:0:0:0:
360,324,73755,6,0,P|460:340|528:284,1,167.999994873047,4|0,0:0|0:0,0:0:0:0:
256,224,74200,1,0,0:0:0:0:
148,272,74349,2,0,P|48:272|-8:216,1,167.999994873047,4|0,0:0|0:0,0:0:0:0:
256,168,74794,1,0,0:0:0:0:
352,248,74943,2,0,P|360:296|360:356,1,83.9999974365235,4|2,0:0|0:0,0:0:0:0:
144,332,75240,2,0,P|146:290|154:249,1,83.9999974365235,2|2,0:0|0:0,0:0:0:0:
256,64,75537,2,0,B|252:124|252:124|264:160|264:160|260:264,1,167.999994873047,4|0,0:0|0:0,0:0:0:0:
256,336,75983,1,8,0:0:0:0:
172,192,76131,6,0,L|376:192,1,167.999994873047,4|0,0:0|0:0,0:0:0:0:
172,192,76577,6,0,B|216:204|216:204|224:184|224:184|256:188|364:192,1,181.999991668702,4|0,0:0|0:0,0:0:0:0:
172,192,77022,38,0,B|204:172|204:172|232:212|232:212|284:184|384:192,1,195.999994018555,4|0,0:0|0:0,0:0:0:0:
172,192,77468,6,0,B|208:228|208:228|244:180|244:180|304:212|348:184,1,210.000008010865,4|0,0:0|0:0,0:0:0:0:
496,184,77913,2,0,P|508:228|508:292,1,105.000004005432,4|0,0:0|0:0,0:0:0:0:
400,84,78210,2,0,L|408:8,2,52.5000020027161
300,148,78507,6,0,P|196:148|136:76,1,181.999991668702,4|0,0:0|0:0,0:0:0:0:
96,192,78953,1,0,0:0:0:0:
72,276,79101,2,0,P|56:348|56:380,2,90.9999958343508,12|8|0,0:0|0:0|0:0,0:0:0:0:
188,304,79547,2,0,P|288:324|348:248,1,181.999991668702,8|0,0:0|0:0,0:0:0:0:
176,176,79992,2,0,P|128:212|100:252,1,90.9999958343508
324,176,80290,2,0,L|484:52,1,181.999991668702,8|0,1:2|0:0,0:0:0:0:
248,212,80735,1,8,0:0:0:0:
172,248,80884,6,0,P|60:180|36:108,1,181.999991668702
248,212,81329,2,0,P|256:264|256:328,1,90.9999958343508,0|8,0:0|0:0,0:0:0:0:
332,116,81626,2,0,P|328:60|336:8,2,90.9999958343508,8|0|8,0:0|0:0|0:0,0:0:0:0:
364,224,82072,2,0,P|292:160|184:168,1,181.999991668702
132,224,82517,1,0,0:0:0:0:
60,124,82666,2,0,P|140:72|232:80,1,181.999991668702,12|0,0:0|0:0,0:0:0:0:
288,184,83111,1,0,0:0:0:0:
384,288,83260,38,0,P|472:248|512:152,1,181.999991668702,4|0,1:0|0:0,0:0:0:0:
304,272,83705,1,0,0:0:0:0:
232,312,83854,2,0,L|124:300,1,90.9999958343508,8|8,0:0|0:0,0:0:0:0:
244,112,84151,2,0,P|248:168|240:224,1,90.9999958343508,0|8,0:0|0:0,0:0:0:0:
112,92,84448,2,0,P|180:12|268:12,1,181.999991668702
208,152,84893,1,0,0:0:0:0:
124,208,85042,2,0,P|20:168|-2:158,1,90.9999958343508,8|0,0:0|0:0,0:0:0:0:
146,305,85339,1,0,0:0:0:0:
208,152,85488,1,8,0:0:0:0:
224,256,85636,6,0,P|228:300|228:368,1,90.9999958343508,0|8,0:0|0:0,0:0:0:0:
396,196,85933,2,0,P|340:196|300:192,1,90.9999958343508
248,20,86230,2,0,P|256:108|256:132,1,90.9999958343508,12|0,0:0|0:0,0:0:0:0:
112,368,86527,2,0,P|108:308|112:256,1,90.9999958343508,8|0,0:0|0:0,0:0:0:0:
416,352,86824,2,0,L|272:336,1,90.9999958343508,0|8,0:0|0:0,0:0:0:0:
208,152,87121,1,0,3:0:0:0:
298,264,87270,1,0,3:0:0:0:
308,44,87418,6,0,L|300:124,1,62.9999980773926
192,344,87715,2,0,L|200:272,1,62.9999980773926
