osu file format v12

[General]
AudioFilename: Mousou Express.mp3
AudioLeadIn: 2000
PreviewTime: 39893
Countdown: 0
SampleSet: Soft
StackLeniency: 0.5
Mode: 0
LetterboxInBreaks: 0
WidescreenStoryboard: 0

[Editor]
DistanceSpacing: 1
BeatDivisor: 4
GridSize: 4

[Metadata]
Title:Mousou Express (TV Size)
TitleUnicode:もうそう♥えくすぷれす (TV Size)
Artist:Hanazawa Kana
ArtistUnicode:花澤香菜
Creator:jonathanlfj
Version:Normal
Source:Monogatari Series Second Season
Tags:囮物語 物語セカンドシーズン Otori Otorimonogatari opening 千石撫子 sengoku nadeko medusa meg rock monaca UnderminE LunarSakuya UnitedWeSin Nyquill Zero__wind zenbu
BeatmapID:305745
BeatmapSetID:118869

[Difficulty]
HPDrainRate:3
CircleSize:4
OverallDifficulty:4
ApproachRate:5
SliderMultiplier:1.5
SliderTickRate:2

[Events]
//Background and Video events
0,0,"BG.jpg",0,0
Video,-410,"video.avi"
//Break Periods
//Storyboard Layer 0 (Background)
//Storyboard Layer 1 (Fail)
//Storyboard Layer 2 (Pass)
//Storyboard Layer 3 (Foreground)
//Storyboard Sound Samples
//Background Colour Transformations
3,100,163,162,255

[TimingPoints]
92,594.059405940594,4,2,1,40,1,0
92,-125,4,2,1,40,0,0
9596,-100,4,2,1,70,0,0
19101,-100,4,2,1,60,0,0
38111,-125,4,2,1,30,0,0
39893,-100,4,2,1,65,0,0
40488,-100,4,2,1,70,0,1
40636,-100,4,2,1,70,0,0
59497,-90.9090909090909,4,2,1,80,0,1
68854,-90.9090909090909,4,2,1,80,0,0
69002,-90.9090909090909,4,2,1,80,0,1
78507,-100,4,2,1,80,0,0
87418,-100,4,2,1,40,0,0

[Colours]
Combo1 : 129,129,129
Combo2 : 251,129,254
Combo3 : 81,159,255
Combo4 : 132,41,254
Combo5 : 255,199,28
Combo6 : 191,191,191

[HitObjects]
432,220,92,70,0,L|464:284,2,60,0|2|8,0:0|0:0|0:0,0:0:0:0:
344,156,1131,2,0,P|268:188|220:180,1,120,2|2,0:0|0:0,0:0:0:0:
200,164,1874,2,0,L|180:232,1,60,8|0,0:0|0:0,0:0:0:0:
204,292,2468,5,0,0:0:0:0:
144,332,2765,1,2,0:0:0:0:
76,308,3062,1,8,0:0:0:0:
60,200,3507,2,0,P|116:188|164:140,1,120,2|2,0:0|0:0,0:0:0:0:
164,112,4250,2,0,L|240:104,1,60,8|0,0:0|0:0,0:0:0:0:
296,100,4844,69,0,0:0:0:0:
308,172,5141,1,2,0:0:0:0:
364,220,5438,2,0,P|431:195|447:168,1,90,8|2,0:0|0:0,0:0:0:0:
452,111,6181,2,0,P|384:135|368:162,1,90,0|8,0:0|0:0,0:0:0:0:
308,172,6923,1,0,0:0:0:0:
296,244,7220,6,0,L|240:280,2,60,0|2|8,0:0|0:0|0:0,0:0:0:0:
216,172,8260,2,0,P|200:124|212:72,1,90,2|0,0:0|0:0,0:0:0:0:
256,32,9002,1,8,0:0:0:0:
432,72,9596,6,0,L|428:160,1,75,4|0,0:0|0:0,0:0:0:0:
380,204,10191,2,0,P|312:200|252:260,1,150,8|2,0:0|0:0,0:0:0:0:
260,328,11082,1,0,0:0:0:0:
192,296,11379,2,0,L|108:304,1,75,8|0,0:0|0:0,0:0:0:0:
52,268,11973,6,0,P|80:240|120:228,1,75,2|0,0:0|0:0,0:0:0:0:
96,156,12567,2,0,P|140:160|176:184,1,75,8|0,0:0|0:0,0:0:0:0:
228,132,13161,2,0,B|246:166|234:205|234:205|249:238|292:248,1,150,2|8,0:0|0:0,0:0:0:0:
364,232,14052,1,0,0:0:0:0:
392,164,14349,6,0,L|480:168,2,75,2|0|8,0:0|0:0|0:0,0:0:0:0:
348,104,15240,1,0,0:0:0:0:
304,44,15537,2,0,L|152:36,1,150,2|8,0:0|0:0,0:0:0:0:
104,92,16428,1,0,0:0:0:0:
148,156,16725,6,0,P|144:228|84:284,1,150,2|8,0:0|0:0,0:0:0:0:
192,328,17765,2,0,B|240:300|240:300|304:300,1,112.5,2|0,0:0|0:0,0:0:0:0:
372,300,18507,1,8,0:0:0:0:
456,176,19101,38,0,P|456:128|432:92,1,75,4|0,0:0|0:0,0:0:0:0:
388,152,19695,2,0,P|340:156|300:144,1,75,8|0,0:0|0:0,0:0:0:0:
264,96,20290,2,0,P|276:148|264:204,2,112.5,0|0|0,0:0|0:0|0:0,0:0:0:0:
204,52,21478,6,0,L|120:40,1,75,2|0,0:0|0:0,0:0:0:0:
96,56,21923,2,0,P|80:104|84:132,1,75,0|0,0:0|0:0,0:0:0:0:
140,176,22517,2,0,P|148:244|124:292,1,112.5,2|0,0:0|0:0,0:0:0:0:
60,312,23260,1,8,0:0:0:0:
120,356,23557,1,0,0:0:0:0:
192,328,23854,6,0,L|272:320,1,75,2|0,0:0|0:0,0:0:0:0:
288,248,24448,2,0,L|404:236,2,112.5,8|2|0,0:0|0:0|0:0,0:0:0:0:
220,220,25636,2,0,P|200:168|204:136,1,75,8|0,0:0|0:0,0:0:0:0:
252,96,26230,6,0,B|292:108|324:92|324:92|344:60|388:52,1,150,2|8,0:0|0:0,0:0:0:0:
412,160,27270,2,0,P|404:228|368:276,1,112.5,2|0,0:0|0:0,0:0:0:0:
312,296,28012,1,8,0:0:0:0:
243,263,28309,37,0,0:0:0:0:
184,308,28606,2,0,P|96:288|60:224,1,150,4|8,0:0|0:0,0:0:0:0:
68,168,29497,1,0,0:0:0:0:
127,122,29794,2,0,P|215:142|251:206,1,150,0|8,0:0|0:0,0:0:0:0:
243,263,30686,5,0,0:0:0:0:
308,228,30983,2,0,B|348:188|348:188|364:124,1,112.5,2|0,0:0|0:0,0:0:0:0:
348,60,31725,1,0,0:0:0:0:
276,80,32022,2,0,L|152:48,1,112.5,2|0,0:0|0:0,0:0:0:0:
108,100,32765,2,0,P|104:140|120:184,1,75,8|0,0:0|0:0,0:0:0:0:
184,200,33359,6,0,P|204:264|176:348,1,150,2|8,0:0|0:0,0:0:0:0:
92,272,34398,2,0,P|48:252|16:188,1,112.5,2|0,0:0|0:0,0:0:0:0:
32,124,35141,1,8,0:0:0:0:
96,84,35438,5,0,0:0:0:0:
168,108,35735,2,0,L|248:104,1,75,2|0,0:0|0:0,0:0:0:0:
268,76,36181,2,0,L|348:72,1,75,0|0,0:0|0:0,0:0:0:0:
412,100,36775,2,0,P|420:168|400:216,1,112.5,2|0,0:0|0:0,0:0:0:0:
340,244,37517,1,8,0:0:0:0:
268,228,37814,1,0,0:0:0:0:
256,192,38111,12,8,39893,0:0:0:0:
152,108,40488,38,0,P|120:184|136:264,1,150,6|8,0:0|0:0,0:0:0:0:
216,320,41527,2,0,P|256:316|296:332,1,75,8|8,0:0|0:0,0:0:0:0:
312,356,41973,2,0,P|347:367|384:363,1,75,0|8,0:0|0:0,0:0:0:0:
436,308,42567,1,0,0:0:0:0:
400,244,42864,6,0,L|424:84,1,150,2|8,0:0|0:0,0:0:0:0:
336,24,43903,2,0,L|312:100,1,75,8|8,0:0|0:0,0:0:0:0:
288,124,44349,2,0,P|240:132|208:120,2,75,0|8|0,0:0|0:0|0:0,0:0:0:0:
252,60,45240,6,0,P|180:60|148:92,1,112.5,2|0,0:0|0:0,0:0:0:0:
148,160,45983,1,0,0:0:0:0:
188,224,46280,2,0,B|188:280|188:280|160:332,1,112.5,8|0,0:0|0:0,0:0:0:0:
88,340,47022,1,8,0:0:0:0:
28,296,47319,1,0,0:0:0:0:
32,220,47616,6,0,L|44:96,1,112.5,2|0,0:0|0:0,0:0:0:0:
107,69,48359,1,0,0:0:0:0:
164,116,48656,2,0,L|156:200,1,75,8|8,0:0|0:0,0:0:0:0:
172,224,49101,1,0,0:0:0:0:
232,268,49398,38,0,P|272:272|316:256,1,75,12|8,0:0|0:0,0:0:0:0:
352,204,49992,2,0,P|376:244|332:332,1,150,4|8,0:0|0:0,0:0:0:0:
224,344,51032,2,0,P|184:328|160:296,1,75,8|8,0:0|0:0,0:0:0:0:
156,268,51478,2,0,L|156:176,1,75,0|8,0:0|0:0,0:0:0:0:
200,132,52072,1,0,0:0:0:0:
260,176,52369,6,0,P|324:184|408:148,1,150,2|8,0:0|0:0,0:0:0:0:
460,56,53408,2,0,L|364:36,1,75,8|8,0:0|0:0,0:0:0:0:
348,44,53854,2,0,L|272:76,2,75,0|8|8,0:0|0:0|0:0,0:0:0:0:
376,112,54745,6,0,P|364:172|348:192,1,75,4|0,0:0|0:0,0:0:0:0:
284,204,55339,2,0,P|228:192|176:224,2,112.5,8|8|0,0:0|0:0|0:0,0:0:0:0:
240,264,56527,1,8,0:0:0:0:
224,336,56824,1,0,0:0:0:0:
156,368,57121,6,0,L|120:260,1,112.5,4|0,0:0|0:0,0:0:0:0:
112,188,57864,1,0,0:0:0:0:
176,148,58161,2,0,L|172:28,1,112.5,4|8,0:0|0:3,0:0:0:0:
244,16,58903,1,8,0:3:0:0:
296,68,59200,1,8,0:3:0:0:
260,132,59497,38,0,P|256:192|320:280,1,165.000005035401,6|8,0:0|0:0,0:0:0:0:
424,152,60686,2,0,L|476:80,1,82.5000025177003,2|0,0:0|0:0,0:0:0:0:
420,20,61280,2,0,L|328:52,1,82.5000025177003,8|0,0:0|0:0,0:0:0:0:
296,116,61874,6,0,P|292:172|308:212,1,82.5000025177003,2|0,0:0|0:0,0:0:0:0:
236,248,62468,2,0,P|184:208|112:212,1,123.75000377655,8|0,0:0|0:0,0:0:0:0:
92,232,63062,2,0,L|80:324,2,82.5000025177003,2|0|12,0:0|0:0|0:0,0:0:0:0:
192,100,64250,6,0,B|272:120|272:120|364:100,1,165.000005035401,4|8,0:0|0:0,0:0:0:0:
440,244,65438,2,0,P|440:296|416:332,1,82.5000025177003,2|0,0:0|0:0,0:0:0:0:
360,272,66032,1,8,0:0:0:0:
300,328,66329,1,0,0:0:0:0:
228,288,66626,6,0,B|224:248|224:248|196:216|196:216|192:176,2,123.75000377655,2|2|8,0:0|0:0|0:0,0:0:0:0:
152,324,67814,2,0,B|148:284|148:284|120:252|120:252|116:212,1,123.75000377655,2|0,0:0|0:0,0:0:0:0:
113,169,68408,2,0,P|113:122|140:80,1,82.5000025177003,12|0,0:0|0:0,0:0:0:0:
196,40,69002,38,0,P|248:24|356:60,1,165.000005035401,4|8,0:0|0:0,0:0:0:0:
420,204,70191,2,0,P|424:250|404:292,1,82.5000025177003,2|0,0:0|0:0,0:0:0:0:
340,236,70785,2,0,P|308:268|264:280,1,82.5000025177003,8|0,0:0|0:0,0:0:0:0:
264,196,71379,5,2,0:0:0:0:
196,244,71676,1,0,0:0:0:0:
120,208,71973,2,0,P|88:148|96:84,1,123.75000377655,8|0,0:0|0:0,0:0:0:0:
120,64,72567,2,0,L|216:52,1,82.5000025177003,2|0,0:0|0:0,0:0:0:0:
256,116,73161,2,0,L|260:168,1,41.2500012588501,8|4,0:0|0:0,0:0:0:0:
288,280,73755,6,0,P|360:320|444:292,1,165.000005035401,4|8,0:0|0:0,0:0:0:0:
484,140,74943,2,0,L|460:48,1,82.5000025177003,2|0,0:0|0:0,0:0:0:0:
388,92,75537,1,8,0:0:0:0:
338,26,75834,1,0,0:0:0:0:
256,36,76131,6,0,B|236:41|216:36|216:36|176:48|176:48|155:41|134:48,2,123.75000377655,4|2|8,0:0|0:0|0:0,0:0:0:0:
260,120,77319,2,0,B|240:125|220:120|220:120|180:132|180:132|159:125|138:132,1,123.75000377655,2|0,0:0|0:0,0:0:0:0:
104,156,77913,2,0,P|100:204|120:236,1,82.5000025177003,8|8,0:0|0:3,0:0:0:0:
192,236,78507,38,0,P|256:244|288:332,1,150,4|12,0:0|0:0,0:0:0:0:
216,308,79398,1,0,0:0:0:0:
192,236,79695,2,0,P|204:156|272:128,1,150,2|8,0:0|0:0,0:0:0:0:
332,148,80587,1,0,0:0:0:0:
356,220,80884,6,0,P|412:240|460:220,1,112.5,2|0,0:0|0:0,0:0:0:0:
408,164,81626,2,0,L|408:40,1,112.5,0|2,0:0|0:0,0:0:0:0:
256,52,82666,1,12,0:0:0:0:
192,92,82963,1,0,0:0:0:0:
195,166,83260,6,0,P|160:200|120:208,2,75,4|0|8,0:0|0:0|0:0,0:0:0:0:
128,132,84151,1,0,0:0:0:0:
68,176,84448,2,0,P|72:248|148:280,1,150,2|8,0:0|0:0,0:0:0:0:
208,260,85339,1,0,0:0:0:0:
260,208,85636,6,4,L|416:204,1,150,2|12,0:0|0:0,0:0:0:0:
448,140,86527,2,4,P|444:100|424:68,1,75,0|2,0:0|0:0,0:0:0:0:
352,56,87121,1,8,0:3:0:0:
308,116,87418,38,0,B|288:116|272:104|272:104|256:120|240:104|240:104|224:116|204:116,1,112.5,0|0,0:0|0:0,0:0:0:0:
