osu file format v12

[General]
AudioFilename: TV.mp3
AudioLeadIn: 1500
PreviewTime: 16318
Countdown: 0
SampleSet: Soft
StackLeniency: 0.5
Mode: 0
LetterboxInBreaks: 0
WidescreenStoryboard: 0

[Editor]
DistanceSpacing: 1.4
BeatDivisor: 6
GridSize: 32
TimelineZoom: 1

[Metadata]
Title:Meiwaku Spectacle (TV Size)
TitleUnicode:迷惑スペクタクル(TVサイズ)
Artist:Hanazawa Kana
ArtistUnicode:花澤香菜
Creator:jonathanlfj
Version:Yamete
Source:Tonari no Seki-kun
Tags:となりの関くん opening Yokoi Rumi captin1 nyquill those Irreversible Project_Railgun Giralda
BeatmapID:417232
BeatmapSetID:155039

[Difficulty]
HPDrainRate:7
CircleSize:4
OverallDifficulty:8
ApproachRate:9
SliderMultiplier:1.88
SliderTickRate:2

[Events]
//Background and Video events
Video,-450,"op.avi"
0,0,"34908284.jpg",0,0
//Break Periods
//Storyboard Layer 0 (Background)
//Storyboard Layer 1 (Fail)
//Storyboard Layer 2 (Pass)
//Storyboard Layer 3 (Foreground)
//Storyboard Sound Samples
//Background Colour Transformations
3,100,0,0,0

[TimingPoints]
268,382.165605095541,4,2,1,60,1,0
1414,-55.5555555555556,4,2,1,60,0,0
1478,-55.5555555555556,4,2,1,5,0,0
1796,382.165605095541,4,2,1,60,1,0
4853,-166.666666666667,4,2,1,60,0,0
5171,-166.666666666667,4,2,1,5,0,0
5235,-100,4,2,1,60,0,0
5426,-166.666666666667,4,2,1,60,0,0
5553,-166.666666666667,4,2,1,5,0,0
5617,-100,4,2,1,60,0,0
6190,-125,4,2,1,60,0,0
7146,-55.5555555555556,4,2,1,60,0,0
7464,-55.5555555555556,4,2,1,5,0,0
7528,-55.5555555555556,4,2,1,30,0,0
7910,-100,4,2,1,60,0,0
10203,-66.6666666666667,4,2,1,60,0,0
10299,-66.6666666666667,4,2,1,5,0,0
10394,-66.6666666666667,4,2,1,60,0,0
10490,-66.6666666666667,4,2,1,5,0,0
10585,-100,4,2,1,60,0,0
16891,-111.111111111111,4,2,1,60,0,1
16955,-111.111111111111,4,2,1,60,0,0
17083,382.165605095541,4,2,1,60,1,0
17210,-111.111111111111,4,2,1,5,0,0
17274,-100,4,2,1,60,0,0
17465,-66.6666666666667,4,2,1,60,0,0
17560,-66.6666666666667,4,2,1,5,0,0
17656,-100,4,2,1,60,0,0
18420,-111.111111111111,4,2,1,60,0,0
18739,-111.111111111111,4,2,1,5,0,0
18802,-100,4,2,1,60,0,0
18993,-66.6666666666667,4,2,1,60,0,0
19089,-66.6666666666667,4,2,1,5,0,0
19184,-66.6666666666667,4,2,1,60,0,0
19280,-66.6666666666667,4,2,1,5,0,0
19375,-100,4,2,1,60,0,0
21477,-111.111111111111,4,2,1,60,0,0
21860,-83.3333333333333,4,2,1,60,0,0
22242,-66.6666666666667,4,2,1,60,0,0
22624,-55.5555555555556,4,2,1,60,0,0
23770,-100,4,2,1,60,0,0
27274,-100,4,2,1,30,0,0
27401,-100,4,2,1,60,0,0
27592,-111.111111111111,4,2,1,60,0,0
27974,-100,4,2,1,60,0,0
28547,-100,4,2,1,60,0,1
28611,-100,4,2,1,60,0,0
29121,-111.111111111111,4,2,1,60,0,1
29184,-111.111111111111,4,2,1,60,0,0
29439,-111.111111111111,4,2,1,5,0,0
29503,-111.111111111111,4,2,1,60,0,0
29694,-66.6666666666667,4,2,1,60,0,0
29790,-66.6666666666667,4,2,1,5,0,0
29885,-100,4,2,1,60,0,0
30649,-111.111111111111,4,2,1,60,0,0
30968,-111.111111111111,4,2,1,5,0,0
31032,-111.111111111111,4,2,1,60,0,0
31223,-66.6666666666667,4,2,1,60,0,0
31318,-66.6666666666667,4,2,1,5,0,0
31414,-66.6666666666667,4,2,1,60,0,0
31509,-66.6666666666667,4,2,1,5,0,0
31605,-100,4,2,1,60,0,0
33707,-111.111111111111,4,2,1,60,0,0
34025,-111.111111111111,4,2,1,5,0,0
34089,-83.3333333333333,4,2,1,60,0,0
34407,-83.3333333333333,4,2,1,5,0,0
34471,-66.6666666666667,4,2,1,60,0,0
34790,-66.6666666666667,4,2,1,5,0,0
34853,-55.5555555555556,4,2,1,60,0,0
35172,-55.5555555555556,4,2,1,5,0,0
35235,-55.5555555555556,4,2,1,60,0,0
36000,-100,4,2,1,60,0,0
40012,382.165605095541,4,2,1,60,1,0
41540,-100,4,2,1,5,0,0
41731,-166.666666666667,4,2,1,30,0,0
41922,-166.666666666667,4,2,1,12,0,0
42113,-166.666666666667,4,2,1,8,0,0

[Colours]
Combo1 : 102,245,253
Combo2 : 182,176,165
Combo3 : 247,214,81

[HitObjects]
468,186,268,5,2,0:0:0:0:
384,144,650,1,2,0:0:0:0:
291,152,1032,1,0,0:0:0:0:
213,203,1414,2,0,L|157:208,5,56.3999982788086,4|0|0|0|0|0,0:3|0:0|0:0|0:0|0:0|0:0,0:0:0:0:
126,210,1796,6,0,L|111:165,1,47,0|0,1:0|0:0,0:0:0:0:
47,208,1987,2,0,L|32:163,1,47,0|0,0:0|0:0,0:0:0:0:
198,19,2178,6,0,L|183:63,1,47,8|0,0:0|0:0,0:0:0:0:
119,21,2369,2,0,L|104:65,1,47,0|0,0:0|0:0,0:0:0:0:
213,203,2560,6,0,B|277:195|277:195|304:207,1,94,0|0,1:0|0:0,0:0:0:0:
304,206,2846,1,0,0:0:0:0:
389,250,2942,5,8,0:0:0:0:
389,250,3038,1,0,0:0:0:0:
389,250,3133,1,0,0:0:0:0:
389,250,3229,1,0,0:0:0:0:
389,250,3324,6,0,L|407:207,1,47,0|0,1:0|0:0,0:0:0:0:
372,343,3515,2,0,L|400:380,1,47
300,282,3706,2,0,L|253:287,3,47,8|0|0|0,0:0|0:0|0:0|0:0,0:0:0:0:
164,255,4088,2,0,L|117:260,3,47,0|0|0|0,1:0|0:0|0:0|0:0,0:0:0:0:
27,288,4471,5,8,0:0:0:0:
26,273,4566,1,0,0:0:0:0:
25,258,4662,1,0,0:0:0:0:
24,243,4757,1,0,0:0:0:0:
22,228,4853,2,0,B|33:182|33:182|29:135,1,93.9999971313477,0|0,1:0|0:0,0:0:0:0:
28,125,5235,1,8,0:0:0:0:
155,101,5426,2,0,L|120:113,1,37.5999988525391
111,117,5617,6,0,B|147:129|147:129|161:231,1,141,0|0,1:0|1:0,0:0:0:0:
163,244,5999,1,8,1:2:0:0:
255,362,6190,6,0,P|323:333|393:355,1,150.4,0|0,1:0|0:0,0:0:0:0:
256,362,6955,5,0,0:0:0:0:
162,355,7146,2,0,B|150:290|89:206|89:206|141:286|170:278,1,281.999991394043,0|0,0:0|0:0,0:0:0:0:
207,284,7528,2,0,P|228:286|249:284,7,42.2999987091065,0|0|0|0|0|0|0|0,1:0|1:0|1:0|1:0|1:0|1:0|1:0|1:0,0:0:0:0:
273,278,7910,6,0,L|288:233,1,47,4|0,1:2|0:0,0:0:0:0:
351,277,8101,2,0,L|366:232,1,47,0|0,0:0|0:0,0:0:0:0:
200,88,8292,6,0,L|215:132,1,47,8|0,0:0|0:0,0:0:0:0:
279,90,8483,2,0,L|294:134,1,47,0|0,0:0|0:0,0:0:0:0:
185,272,8674,5,0,1:0:0:0:
170,270,8770,1,0,0:0:0:0:
156,268,8866,2,0,L|109:275,1,47
39,142,9057,5,8,0:0:0:0:
39,142,9152,1,0,0:0:0:0:
39,142,9248,1,0,1:0:0:0:
39,142,9343,1,0,0:0:0:0:
130,161,9439,2,0,L|222:176,1,94,0|0,1:0|0:0,0:0:0:0:
222,176,9725,1,0,0:0:0:0:
295,236,9821,5,8,0:0:0:0:
308,233,9917,1,0,0:0:0:0:
321,230,10012,1,0,0:0:0:0:
334,227,10108,1,0,0:0:0:0:
425,209,10203,6,0,B|434:245|434:245|425:277,1,70.5000026893617,0|0,1:0|0:0,0:0:0:0:
312,181,10394,2,0,B|303:145|303:145|311:112,1,70.5000026893617,0|0,0:0|0:0,0:0:0:0:
225,267,10585,1,8,0:0:0:0:
225,267,10681,1,0,0:0:0:0:
225,267,10776,1,0,0:0:0:0:
130,173,10967,6,0,P|177:166|223:156,1,94,0|0,1:0|0:0,0:0:0:0:
223,156,11254,1,0,0:0:0:0:
223,156,11350,1,8,0:0:0:0:
330,263,11541,1,0,0:0:0:0:
186,303,11732,5,0,1:0:0:0:
178,105,12018,1,0,1:0:0:0:
178,105,12114,1,8,1:2:0:0:
353,198,12305,5,0,1:0:0:0:
299,297,12496,1,0,0:0:0:0:
202,239,12687,1,0,1:0:0:0:
202,239,12783,1,0,0:0:0:0:
202,239,12878,1,8,0:0:0:0:
257,140,13069,1,0,0:0:0:0:
396,320,13260,5,0,1:0:0:0:
396,320,13452,2,0,L|427:323,2,31.3333333333333,8|8|8,0:0|0:0|0:0,0:0:0:0:
396,320,13643,1,8,0:0:0:0:
256,192,14025,12,8,15362,0:0:0:0:
433,105,15745,5,8,0:0:0:0:
433,105,15840,1,8,0:0:0:0:
433,105,15936,1,8,0:3:0:0:
427,273,16127,1,0,0:0:0:0:
495,337,16318,5,2,0:0:0:0:
333,285,16509,1,0,0:0:0:0:
173,341,16700,1,0,0:0:0:0:
15,279,16891,2,0,P|19:208|20:138,1,140.999995697022,4|0,1:0|0:0,0:0:0:0:
20,138,17274,1,0,1:0:0:0:
20,138,17369,1,0,0:0:0:0:
111,112,17465,6,0,B|144:105|144:105|178:116,1,70.5000026893617,8|0,0:0|0:0,0:0:0:0:
262,71,17656,2,0,P|308:70|355:66,2,94,0|0|0,0:0|1:0|0:0,0:0:0:0:
405,160,18229,1,8,0:0:0:0:
335,314,18420,2,0,P|266:303|196:298,1,140.999995697022,4|0,0:0|0:0,0:0:0:0:
196,298,18802,1,0,1:0:0:0:
196,298,18898,1,0,1:0:0:0:
101,303,18993,6,0,B|95:338|95:338|105:371,1,70.5000026893617,8|0,1:2|0:0,0:0:0:0:
69,223,19184,2,0,B|36:208|36:208|2:209,1,70.5000026893617,0|0,1:0|0:0,0:0:0:0:
158,229,19375,2,0,P|163:182|162:135,2,94,0|0|8,1:0|0:0|0:0,0:0:0:0:
56,70,19949,6,0,P|103:63|150:65,1,94,0|0,0:0|1:0,0:3:0:0:
236,103,20331,1,0,0:0:0:0:
271,115,20426,1,0,0:0:0:0:
308,118,20522,1,8,0:0:0:0:
399,97,20713,1,0,0:0:0:0:
504,176,20904,1,0,1:0:0:0:
485,185,21095,5,0,0:0:0:0:
507,55,21286,1,8,1:2:0:0:
512,259,21477,6,0,P|468:257|428:251,1,84.599997418213,2|0,0:0|1:0,0:0:0:0:
96,314,21860,2,0,P|152:304|208:297,1,112.799996557617,2|8,0:0|0:0,0:0:0:0:
466,132,22242,2,0,B|396:118|396:118|327:131,1,141.000005378723,2|0,0:0|1:0,0:0:0:0:
5,234,22624,2,0,B|82:214|82:214|126:233|126:233|154:202,1,169.199994836426,2|8,0:0|0:0,0:0:0:0:
467,325,23006,6,0,P|441:178|296:218,1,338.399989672852,4|0,1:2|0:0,0:0:0:0:
296,218,23484,1,0,1:0:0:0:
296,218,23579,1,8,1:2:0:0:
170,180,23770,5,0,0:0:0:0:
93,350,23961,2,0,P|86:303|84:256,1,94,0|0,1:0|0:0,0:0:0:0:
83,256,24344,1,8,0:0:0:0:
428,256,24535,6,0,P|425:303|418:350,1,94,0|0,0:0|1:0,0:0:0:0:
256,253,24917,1,2,0:0:0:0:
256,238,25012,1,2,0:0:0:0:
256,223,25108,1,8,0:0:0:0:
256,129,25299,1,2,0:0:0:0:
174,82,25490,2,0,L|127:79|80:76,1,94,0|2,1:0|0:0,0:0:0:0:
338,302,25872,2,0,P|384:304|431:307,1,94,10|0,0:0|0:0,0:0:0:0:
163,229,26254,5,0,1:0:0:0:
252,62,26446,1,0,1:0:0:0:
252,62,26541,1,0,0:0:0:0:
258,99,26637,5,0,1:0:0:0:
386,125,26828,1,0,1:0:0:0:
386,125,26923,1,0,0:0:0:0:
376,186,27019,5,0,1:0:0:0:
247,212,27210,2,0,L|251:242,2,31.3333333333333,0|0|0,1:0|1:0|1:0,0:0:0:0:
260,294,27401,5,0,1:0:0:0:
389,316,27592,2,0,P|305:326|222:342,1,169.199994836426,4|8,0:1|0:0,0:0:0:0:
221,342,28070,1,0,0:0:0:0:
221,342,28165,1,8,0:3:0:0:
96,303,28356,2,0,L|80:347,1,47
81,258,28547,5,4,1:3:0:0:
67,259,28643,1,0,0:0:0:0:
150,235,28739,5,0,0:0:0:0:
160,244,28834,1,0,0:0:0:0:
98,183,28930,5,8,0:0:0:0:
84,184,29026,1,0,0:0:0:0:
151,131,29121,6,0,P|222:129|292:118,1,140.999995697022,4|0,1:0|0:0,0:0:0:0:
292,118,29503,1,0,1:0:0:0:
292,118,29598,1,0,0:0:0:0:
369,173,29694,6,0,B|371:133|371:133|386:106,1,70.5000026893617,8|0,0:0|0:0,0:0:0:0:
458,166,29885,2,0,P|465:212|470:259,2,94,0|0|0,0:0|1:0|0:0,0:0:0:0:
298,223,30458,1,8,0:0:0:0:
129,209,30649,2,0,P|119:279|116:350,1,140.999995697022,4|0,0:0|0:0,0:0:0:0:
116,350,31032,1,0,1:0:0:0:
116,350,31127,1,0,1:0:0:0:
210,360,31223,6,0,B|246:349|246:349|277:356,1,70.5000026893617,8|0,1:2|0:0,0:0:0:0:
280,271,31414,2,0,B|316:282|316:282|347:274,1,70.5000026893617,0|0,1:0|0:0,0:0:0:0:
369,356,31605,2,0,P|415:351|462:350,2,94,0|0|8,1:0|0:0|0:0,0:0:0:0:
236,358,32178,6,0,P|213:317|218:272,1,94,0|0,0:0|1:0,0:0:0:0:
298,223,32560,1,0,0:0:0:0:
298,223,32656,1,0,0:0:0:0:
298,223,32751,2,0,L|391:215,2,94,8|0|0,0:0|0:0|1:0,0:0:0:0:
124,291,33325,5,0,1:0:0:0:
119,299,33420,1,0,1:0:0:0:
114,307,33516,1,8,1:2:0:0:
110,315,33611,1,0,1:0:0:0:
104,321,33707,6,0,P|53:275|48:207,1,140.999995697022,4|0,0:0|0:0,0:0:0:0:
61,187,34089,2,0,L|248:173,1,187.999994262695,4|0,0:0|0:0,0:0:0:0:
284,194,34471,2,0,P|309:88|210:42,1,235.000008964539,4|0,0:0|0:0,0:0:0:0:
160,87,34853,2,0,P|233:205|351:282,1,281.999991394043,4|0,0:0|0:0,0:0:0:0:
417,229,35235,6,0,P|272:165|157:275,1,338.399989672852,4|0,0:0|1:0,0:0:0:0:
156,276,35681,1,0,1:0:0:0:
156,276,35745,1,0,1:0:0:0:
156,276,35809,1,8,1:2:0:0:
276,338,36000,5,0,0:0:0:0:
369,326,36191,2,0,L|462:331,1,94,0|0,1:0|0:0,0:0:0:0:
462,331,36573,1,8,0:0:0:0:
462,52,36764,6,0,L|369:58,1,94,0|0,1:0|0:0,0:0:0:0:
239,167,37146,1,2,1:2:0:0:
239,167,37242,1,2,0:0:0:0:
239,167,37337,1,8,1:2:0:0:
316,220,37528,1,2,0:0:0:0:
386,159,37719,2,0,P|383:112|363:70,1,94,0|2,1:0|0:0,0:0:0:0:
125,224,38102,2,0,P|128:271|148:313,1,94,10|0,0:0|0:0,0:0:0:0:
331,277,38484,5,0,1:0:0:0:
331,277,38675,1,0,1:0:0:0:
131,176,38866,1,0,1:0:0:0:
131,176,39057,1,0,1:0:0:0:
319,52,39248,5,0,1:0:0:0:
331,277,39439,1,0,1:0:0:0:
193,54,39630,1,0,1:0:0:0:
208,322,39821,1,0,1:0:0:0:
434,175,40012,1,4,1:2:0:0:
256,192,40075,8,0,41540,0:0:0:0:
465,296,41731,6,0,L|476:351,2,56.3999982788086
