osu file format v13

[General]
AudioFilename: TV.mp3
AudioLeadIn: 1500
PreviewTime: 16318
Countdown: 0
SampleSet: Soft
StackLeniency: 0.5
Mode: 0
LetterboxInBreaks: 0
WidescreenStoryboard: 0

[Editor]
DistanceSpacing: 1
BeatDivisor: 4
GridSize: 4
TimelineZoom: 1

[Metadata]
Title:Meiwaku Spectacle (TV Size)
TitleUnicode:迷惑スペクタクル(TVサイズ)
Artist:Hanazawa Kana
ArtistUnicode:花澤香菜
Creator:jonathanlfj
Version:Hard
Source:Tonari no Seki-kun
Tags:となりの関くん opening Yokoi Rumi captin1 nyquill those Irreversible Project_Railgun Giralda
BeatmapID:380484
BeatmapSetID:155039

[Difficulty]
HPDrainRate:6
CircleSize:4
OverallDifficulty:6
ApproachRate:7
SliderMultiplier:1.5
SliderTickRate:1

[Events]
//Background and Video events
0,0,"34908284.jpg",0,0
Video,-450,"op.avi"
//Break Periods
//Storyboard Layer 0 (Background)
//Storyboard Layer 1 (Fail)
//Storyboard Layer 2 (Pass)
//Storyboard Layer 3 (Foreground)
//Storyboard Sound Samples
//Background Colour Transformations
3,100,163,162,255

[TimingPoints]
268,382.165605095541,4,2,1,60,1,0
1796,382.165605095541,4,2,1,70,1,1
1892,-100,4,2,1,70,0,0
6573,-133.333333333333,4,2,1,40,0,0
7529,-133.333333333333,4,1,1,40,0,0
7624,-133.333333333333,4,1,1,45,0,0
7720,-133.333333333333,4,1,1,50,0,0
7815,-133.333333333333,4,1,1,55,0,0
7911,-100,4,2,1,70,0,0
14025,-133.333333333333,4,2,1,50,0,0
15745,-111.111111111111,4,2,1,60,0,0
16891,-100,4,2,1,80,0,1
16987,-100,4,2,1,80,0,0
17083,382.165605095541,4,2,1,80,1,0
29121,-100,4,2,1,80,0,1
40012,382.165605095541,4,2,1,70,1,0
41540,-100,4,2,1,5,0,0
41731,-100,4,2,1,25,0,0

[Colours]
Combo1 : 102,245,253
Combo2 : 182,176,165
Combo3 : 247,214,81

[HitObjects]
215,292,268,5,8,1:2:0:0:
296,91,650,1,2,0:0:0:0:
155,151,1032,1,2,3:2:0:0:
356,232,1414,1,8,1:3:0:0:
215,292,1796,6,0,P|144:312|68:292,1,150,4|8,1:2|0:0,0:0:0:0:
28,232,2369,1,0,0:0:0:0:
28,232,2560,2,0,L|48:140,1,75,0|0,1:0|0:0,0:0:0:0:
135,70,2943,2,0,L|120:144,1,75,8|0,0:0|0:0,0:0:0:0:
204,40,3325,5,0,1:0:0:0:
260,92,3516,1,0,0:0:0:0:
320,48,3707,2,0,P|364:40|404:48,1,75,8|0,0:0|0:0,0:0:0:0:
492,116,4089,2,0,P|448:108|408:116,1,75,0|0,1:0|0:0,0:0:0:0:
316,184,4471,2,0,P|360:176|400:184,1,75,8|0,0:0|0:0,0:0:0:0:
448,228,4853,6,0,P|452:300|500:364,1,150,0|8,1:0|0:0,0:0:0:0:
368,328,5427,1,0,0:0:0:0:
368,328,5618,2,0,B|328:328|328:328|296:336|296:336|256:336,2,112.5,0|0|0,1:0|1:0|1:0,0:0:0:0:
200,284,6573,5,0,0:0:0:0:
352,200,6955,1,0,0:0:0:0:
352,200,7146,2,0,L|360:136,1,56.2500021457673,2|0,0:0|0:0,0:0:0:0:
316,84,7529,2,0,B|304:88|304:88|288:84|288:84|260:92|228:84,1,84.3750032186509,0|0,0:0|0:0,0:0:0:0:
233,85,7911,6,0,L|224:172,1,75,4|0,1:2|0:0,0:0:0:0:
128,160,8293,2,0,L|160:236,1,75,8|0,0:0|0:0,0:0:0:0:
72,280,8675,2,0,L|136:328,1,75,0|0,1:0|0:0,0:0:0:0:
224,292,9057,1,8,0:0:0:0:
300,352,9248,1,0,1:0:0:0:
224,292,9439,6,0,P|212:228|264:160,1,150,0|8,1:0|0:0,0:0:0:0:
356,152,10013,1,0,0:0:0:0:
420,224,10204,2,0,P|416:268|400:300,1,75,0|0,1:0|0:0,0:0:0:0:
356,152,10586,2,0,P|400:128|436:128,1,75,8|0,0:0|1:0,0:0:0:0:
324,240,10968,6,0,B|288:248|252:240|252:240|212:228|176:240,1,150,0|8,1:0|0:0,0:0:0:0:
120,320,11541,1,0,0:0:0:0:
76,232,11732,2,0,P|59:159|67:119,1,112.5,0|0,1:0|1:0,0:0:0:0:
88,92,12115,2,0,L|168:84,1,75,8|0,0:0|1:0,0:0:0:0:
448,108,12688,6,0,L|373:115,1,75,0|8,1:0|0:0,0:0:0:0:
316,164,13069,1,0,0:0:0:0:
180,216,13261,2,0,L|254:208,1,75,0|0,1:0|1:0,0:0:0:0:
324,240,13643,2,0,L|398:232,1,75,8|0,0:0|0:0,0:0:0:0:
284,304,14025,6,0,P|228:296|176:320,1,112.500004291535,4|0,3:0|0:0,0:0:0:0:
178,318,14599,1,2,0:0:0:0:
364,304,14981,1,2,0:0:0:0:
180,216,15363,1,2,0:0:0:0:
396,132,15745,5,8,0:0:0:0:
396,132,15841,1,0,0:0:0:0:
396,132,15936,2,0,L|388:200,1,67.4999979400635,8|8,1:2|1:3,0:0:0:0:
332,92,16318,1,2,0:0:0:0:
268,132,16510,1,0,0:0:0:0:
208,88,16701,1,2,0:0:0:0:
268,208,16892,6,0,P|264:244|176:304,1,150,4|0,1:2|1:0,0:0:0:0:
100,312,17465,2,0,P|68:324|40:352,1,75,12|0,0:0|0:0,0:0:0:0:
132,240,17847,2,0,P|100:216|56:208,2,75,2|0|10,1:2|0:0|0:0,0:0:0:0:
176,304,18420,6,0,P|248:336|336:320,1,150,2|0,1:2|1:0,0:0:0:0:
344,304,18898,1,0,1:0:0:0:
364,272,18994,2,0,L|368:188,1,75,12|0,0:0|1:0,0:0:0:0:
468,168,19376,1,2,1:2:0:0:
468,168,19567,2,0,L|464:242,1,75,0|8,0:0|0:0,0:0:0:0:
388,96,19949,6,0,P|332:76|244:116,1,150,2|0,1:2|0:0,0:0:0:0:
228,180,20522,2,0,P|192:192|148:188,1,75,8|0,0:0|0:0,0:0:0:0:
280,236,20904,2,0,P|304:244|364:240,1,75,2|0,1:2|0:0,0:0:0:0:
324,164,21287,1,8,0:0:0:0:
180,112,21478,5,4,1:2:0:0:
244,304,21860,1,2,0:0:0:0:
252,124,22242,1,2,0:0:0:0:
168,312,22624,2,0,L|92:320,1,75,2|8,0:0|0:0,0:0:0:0:
244,304,23006,6,0,P|292:264|292:164,1,150,4|0,1:2|1:0,0:0:0:0:
252,124,23579,1,8,0:0:0:0:
228,196,23770,1,0,0:0:0:0:
324,112,23962,2,0,P|361:98|408:104,1,75,0|2,1:0|0:0,0:0:0:0:
372,172,24344,1,8,0:0:0:0:
228,196,24535,6,0,P|180:156|192:76,1,150,2|2,0:2|0:0,0:0:0:0:
136,28,25108,2,0,L|40:32,1,75,8|2,0:0|0:0,0:0:0:0:
192,76,25490,2,0,L|288:80,1,75,0|2,1:0|0:0,0:0:0:0:
124,100,25873,2,0,L|28:104,1,75,8|2,0:0|0:0,0:0:0:0:
180,148,26255,6,0,P|188:192|180:236,1,75,0|0,1:0|1:0,0:0:0:0:
76,319,26637,2,0,P|110:288|152:274,1,75,8|0,1:2|1:0,0:0:0:0:
280,325,27019,1,0,1:0:0:0:
276,248,27210,1,0,1:0:0:0:
212,292,27401,1,8,1:2:0:0:
352,352,27592,6,0,B|392:324|404:272|404:272|436:256|448:232,1,150,4|8,1:2|1:3,0:0:0:0:
472,168,28166,2,0,P|480:140|480:92,1,75,8|8,0:0|1:3,0:0:0:0:
404,24,28548,1,2,1:2:0:0:
376,120,28739,1,0,0:0:0:0:
304,44,28930,1,10,0:0:0:0:
280,152,29121,6,0,P|275:213|288:300,1,150,4|0,1:2|1:0,0:0:0:0:
372,340,29694,2,0,P|409:342|445:334,1,75,12|0,0:0|0:0,0:0:0:0:
288,300,30076,2,0,P|250:297|214:305,2,75,2|0|8,1:2|0:0|0:0,0:0:0:0:
172,376,30650,6,0,P|136:336|156:244,1,150,2|0,1:2|1:0,0:0:0:0:
236,208,31223,2,0,P|240:168|232:132,1,75,12|0,0:0|1:0,0:0:0:0:
156,80,31605,1,2,1:2:0:0:
320,92,31796,2,0,P|315:126|324:168,1,75,0|8,0:0|0:0,0:0:0:0:
408,72,32178,6,0,P|379:25|278:11,1,150,2|0,0:0|0:0,0:0:0:0:
232,76,32752,2,0,P|192:84|156:80,1,75,8|0,0:0|0:0,0:0:0:0:
320,92,33134,1,2,1:2:0:0:
264,160,33325,1,0,1:0:0:0:
264,160,33420,1,0,1:0:0:0:
264,160,33516,2,0,L|256:216,2,37.5,8|0|6,1:2|1:0|1:2,0:0:0:0:
244,320,34089,5,4,1:2:0:0:
268,136,34471,1,6,1:2:0:0:
240,344,34853,1,4,1:2:0:0:
272,112,35236,6,0,P|328:80|420:96,1,150,4|0,1:2|1:0,0:0:0:0:
473,241,35809,2,0,L|444:172,1,75,12|0,0:0|0:0,0:0:0:0:
356,196,36191,2,0,L|364:280,2,75,0|2|8,1:0|0:0|0:0,0:0:0:0:
268,200,36764,6,0,B|232:212|196:200|196:200|156:188|120:200,1,150,2|2,1:2|1:2,0:0:0:0:
156,284,37338,2,0,L|152:364,1,75,8|2,0:0|0:0,0:0:0:0:
64,272,37720,2,0,P|36:232|28:196,1,75,0|2,1:0|0:0,0:0:0:0:
72,128,38102,1,8,0:0:0:0:
120,200,38293,1,0,0:0:0:0:
160,120,38484,6,0,L|240:104,1,75,4|0,1:2|1:0,0:0:0:0:
305,248,38866,2,0,L|256:192,1,75,8|0,1:2|1:0,0:0:0:0:
348,56,39248,2,0,L|321:133,1,75,0|0,1:0|1:0,0:0:0:0:
160,120,39631,2,0,L|240:104,1,75,8|0,1:2|0:0,0:0:0:0:
256,192,40012,5,6,1:2:0:0:
256,192,40107,12,0,41540,0:0:0:0:
307,192,41731,5,2,0:0:0:0:
230,147,41922,1,0,0:0:0:0:
230,237,42113,1,2,0:0:0:0:
