osu file format v14

[General]
AudioFilename: TV.mp3
AudioLeadIn: 0
PreviewTime: 16222
Countdown: 0
SampleSet: Soft
StackLeniency: 0.7
Mode: 0
LetterboxInBreaks: 1
WidescreenStoryboard: 1

[Editor]
DistanceSpacing: 1.1
BeatDivisor: 8
GridSize: 4
TimelineZoom: 1

[Metadata]
Title:Meiwaku Spectacle (TV Size)
TitleUnicode:Meiwaku Spectacle (TV Size)
Artist:Hanazawa Kana
ArtistUnicode:Hanazawa Kana
Creator:Kuki
Version:Extravaganza
Source:
Tags:
BeatmapID:873020
BeatmapSetID:401325

[Difficulty]
HPDrainRate:7.4
CircleSize:5.2
OverallDifficulty:8.2
ApproachRate:8.8
SliderMultiplier:1.8
SliderTickRate:1

[Events]
//Background and Video events
0,0,"spectaclebg.jpg",0,0
//Break Periods
//Storyboard Layer 0 (Background)
//Storyboard Layer 1 (Fail)
//Storyboard Layer 2 (Pass)
//Storyboard Layer 3 (Foreground)
//Storyboard Sound Samples

[TimingPoints]
268,382.165605095541,4,2,1,60,1,0
1414,-125,4,2,1,60,0,0
1796,382.165605095541,4,2,1,70,1,0
6190,-135.135135135135,4,2,1,70,0,0
7910,-100,4,2,1,70,0,0
12305,-200,4,2,1,70,0,0
16891,-100,4,2,1,70,0,1
17083,382.165605095541,4,2,1,80,1,1
21382,-100,4,2,1,80,0,0
21477,-66.6666666666667,4,2,1,80,0,1
21764,-100,4,2,1,40,0,0
21860,-66.6666666666667,4,2,1,80,0,1
22146,-100,4,2,1,40,0,0
22242,-66.6666666666667,4,2,1,80,0,1
22528,-100,4,2,1,40,0,0
22624,-66.6666666666667,4,2,1,80,0,1
22911,-100,4,2,1,40,0,0
23006,-80,4,2,1,40,0,1
23388,-100,4,2,1,80,0,1
33611,-100,4,2,1,80,0,0
33707,-66.6666666666667,4,2,1,80,0,1
33993,-100,4,2,1,40,0,0
34089,-66.6666666666667,4,2,1,80,0,1
34375,-100,4,2,1,40,0,0
34471,-66.6666666666667,4,2,1,80,0,1
34758,-100,4,2,1,40,0,0
34853,-66.6666666666667,4,2,1,80,0,1
35140,-100,4,2,1,40,0,0
35235,-80,4,2,1,80,0,1
35522,-80,4,2,1,40,0,1
35618,-100,4,2,1,80,0,1
36764,-106.382978723404,4,2,1,80,0,1
40012,382.165605095541,4,2,1,70,1,0
40012,-200,4,2,1,70,0,0
40394,-200,4,2,1,60,0,0
40776,-200,4,2,1,50,0,0
41158,-200,4,2,1,40,0,0
41540,-200,4,2,1,30,0,0
41731,-200,4,2,1,20,0,0
42113,-200,4,2,1,10,0,0

[HitObjects]
56,191,268,5,0,0:0:0:0:
256,161,650,5,0,0:0:0:0:
456,191,1032,5,0,0:0:0:0:
314,336,1414,6,0,L|308:262,1,72
398,16,1796,5,0,0:0:0:0:
369,49,1891,1,0,0:0:0:0:
328,67,1987,1,0,0:0:0:0:
283,66,2082,1,0,0:0:0:0:
244,45,2178,2,0,L|248:90,1,45
304,188,2369,2,0,L|307:232,1,45
314,336,2560,6,0,L|311:292,1,45
304,188,2751,1,0,0:0:0:0:
261,186,2846,1,0,0:0:0:0:
219,202,2942,1,0,0:0:0:0:
188,234,3037,1,0,0:0:0:0:
175,277,3133,1,0,0:0:0:0:
180,321,3228,1,0,0:0:0:0:
203,359,3324,6,0,P|184:342|160:335,1,45
86,319,3515,2,0,P|60:320|38:332,1,45
116,383,3706,2,0,L|124:339,1,45
141,250,3897,2,0,L|149:206,1,45
261,186,4088,6,0,P|278:167|285:143,1,45
301,69,4279,2,0,P|299:43|287:21,1,45
237,99,4470,2,0,L|281:107,1,45
370,124,4661,2,0,L|414:132,1,45
433,337,4853,6,0,P|459:270|433:216,1,135
433,217,5235,1,0,0:0:0:0:
366,277,5426,2,0,L|271:283,1,90
162,355,5903,1,0,0:0:0:0:
162,355,5999,1,0,0:0:0:0:
261,186,6190,6,0,P|287:119|260:65,1,133.200003251953
104,132,6955,2,0,L|170:127,1,66.6000016259766
262,67,7337,1,0,0:0:0:0:
435,132,7528,2,0,L|437:112,1,16.6500004064942
418,130,7624,2,0,L|416:150,1,16.6500004064942
385,128,7719,2,0,L|387:108,1,16.6500004064942
368,126,7815,2,0,L|366:146,1,16.6500004064942
351,126,7910,2,0,L|304:122,1,45
262,67,8101,2,0,L|215:63,1,45
104,132,8292,5,0,0:0:0:0:
74,165,8387,1,0,0:0:0:0:
63,208,8483,1,0,0:0:0:0:
74,251,8578,1,0,0:0:0:0:
103,284,8674,6,0,L|149:280,1,45
193,223,8865,2,0,L|239:219,1,45
352,284,9056,1,0,0:0:0:0:
380,251,9152,1,0,0:0:0:0:
391,208,9247,1,0,0:0:0:0:
380,165,9343,1,0,0:0:0:0:
351,132,9438,5,0,0:0:0:0:
193,223,9630,2,0,L|239:219,1,45
147,280,9821,2,0,L|103:284,1,45
74,251,10013,1,0,0:0:0:0:
63,208,10108,1,0,0:0:0:0:
74,165,10203,2,0,P|89:131|73:81,1,90
193,223,10585,2,0,L|238:228,1,45
352,284,10776,2,0,L|397:289,1,45
457,350,10967,6,0,P|483:283|457:229,1,135
457,230,11349,1,0,0:0:0:0:
390,290,11540,2,0,L|295:296,1,90
186,368,12017,1,0,0:0:0:0:
186,368,12113,1,0,0:0:0:0:
285,199,12305,6,0,P|311:132|285:78,1,135
390,290,13260,1,0,0:0:0:0:
448,228,13452,2,0,L|455:213,4,11.25
457,350,14025,5,0,0:0:0:0:
323,230,14407,1,0,0:0:0:0:
332,352,14598,1,0,0:0:0:0:
448,228,14980,1,0,0:0:0:0:
207,354,15362,1,0,0:0:0:0:
314,108,15745,5,0,0:0:0:0:
201,239,15936,1,0,0:0:0:0:
199,114,16127,1,0,0:0:0:0:
439,106,16318,1,0,0:0:0:0:
207,354,16509,1,0,0:0:0:0:
314,108,16700,1,0,0:0:0:0:
457,350,16891,6,0,P|390:376|336:350,1,135
383,246,17274,2,0,L|375:156,1,90
248,10,17656,1,0,0:0:0:0:
148,114,17847,1,0,0:0:0:0:
314,108,18038,1,0,0:0:0:0:
201,239,18229,1,0,0:0:0:0:
439,106,18420,6,0,P|464:166|438:226,1,135
337,152,18802,1,0,0:0:0:0:
337,152,18898,1,0,0:0:0:0:
337,152,18993,2,0,L|247:144,1,90
86,96,19375,1,0,0:0:0:0:
196,302,19567,1,0,0:0:0:0:
244,144,19758,1,0,0:0:0:0:
38,254,19949,6,0,L|30:344,1,90
90,190,20331,1,0,0:0:0:0:
0,131,20522,1,0,0:0:0:0:
122,266,20713,1,0,0:0:0:0:
244,144,20904,1,0,0:0:0:0:
196,302,21095,1,0,0:0:0:0:
334,152,21286,1,0,0:0:0:0:
90,190,21477,6,0,P|46:92|92:17,1,202.500007724762
335,109,21860,6,0,L|132:103,1,202.500007724762
378,22,22242,6,0,P|422:120|376:195,1,202.500007724762
132,103,22624,6,0,P|98:190|148:176,1,202.500007724762
335,109,23006,6,0,B|387:103|387:103|444:117|444:117|500:107,1,168.75
479,113,23388,2,0,L|485:158,1,45
496,270,23579,1,0,0:0:0:0:
382,217,23770,2,0,P|333:203|297:218,1,90
207,322,24153,1,0,0:0:0:0:
156,187,24344,2,0,P|141:145|156:103,1,90
278,4,24726,5,0,0:0:0:0:
384,127,24917,2,0,L|382:217,1,90
353,376,25299,1,0,0:0:0:0:
231,270,25490,1,0,0:0:0:0:
382,217,25681,1,0,0:0:0:0:
226,180,25872,2,0,L|136:178,1,90
34,316,26254,6,0,P|35:340|46:360,1,45
57,199,26446,2,0,P|40:216|34:238,1,45
156,135,26637,2,0,P|132:136|112:146,1,45
272,156,26829,2,0,P|254:139|232:133,1,45
337,252,27019,2,0,P|336:228|325:208,1,45
272,156,27210,2,0,L|273:133,1,22.5
272,156,27305,2,0,L|248:144,1,22.5
272,156,27401,1,0,0:0:0:0:
155,315,27592,6,0,P|88:341|34:315,1,135
56,322,27974,2,0,L|50:277,1,45
39,165,28165,1,0,0:0:0:0:
153,218,28356,2,0,P|202:232|238:217,1,90
327,108,28739,1,0,0:0:0:0:
373,248,28930,1,0,0:0:0:0:
269,68,29121,6,0,P|202:42|148:68,1,135
170,61,29503,2,0,L|164:106,1,45
153,218,29694,1,0,0:0:0:0:
267,165,29885,2,0,P|316:151|352:166,1,90
436,270,30268,1,0,0:0:0:0:
487,135,30459,1,0,0:0:0:0:
383,315,30649,6,0,P|316:341|262:315,1,135
284,322,31032,2,0,L|280:286,2,30
267,165,31222,1,0,0:0:0:0:
153,218,31414,1,0,0:0:0:0:
436,270,31605,1,0,0:0:0:0:
487,135,31796,1,0,0:0:0:0:
284,322,31987,1,0,0:0:0:0:
383,315,32178,6,0,L|473:313,1,90
247,279,32560,1,0,0:0:0:0:
346,272,32751,2,0,L|436:270,1,90
267,165,33133,1,0,0:0:0:0:
64,345,33325,1,0,0:0:0:0:
62,330,33420,1,0,0:0:0:0:
60,315,33516,1,0,0:0:0:0:
59,300,33611,1,0,0:0:0:0:
153,218,33707,6,0,P|197:120|151:45,1,202.500007724762
8,132,34090,6,0,L|211:138,1,202.500007724762
378,22,34472,6,0,P|422:120|376:195,1,202.500007724762
132,103,34854,6,0,P|98:190|148:176,1,202.500007724762
335,109,35236,6,0,B|387:103|387:103|444:117|444:117|500:107,1,168.75
479,113,35618,2,0,L|483:149,2,30
496,270,35808,1,0,0:0:0:0:
382,217,36000,2,0,L|276:229,1,90
155,313,36382,1,0,0:0:0:0:
150,151,36573,1,0,0:0:0:0:
293,227,36764,6,0,B|345:221|345:221|402:235|402:235|458:225,1,168.75
479,113,37337,2,0,L|380:130,1,84.5999987091065
293,227,37719,1,0,0:0:0:0:
190,127,37911,2,0,L|107:113,1,84.5999987091065
5,13,38293,1,0,0:0:0:0:
34,316,38484,6,0,P|35:340|46:360,1,45
57,199,38676,2,0,P|40:216|34:238,1,45
156,135,38867,2,0,P|132:136|112:146,1,45
272,156,39059,2,0,P|254:139|232:133,1,45
337,252,39249,2,0,P|336:228|325:208,1,45
272,156,39439,2,0,P|254:139|232:133,1,45
156,135,39630,2,0,P|132:136|112:146,1,45
57,199,39821,2,0,P|40:216|34:238,1,45
34,316,40012,6,0,P|91:358|78:201,1,360
106,278,41731,6,0,L|64:257,1,45
8,226,42113,5,0,0:0:0:0:
