osu file format v9

[General]
AudioFilename: ed7.mp3
AudioLeadIn: 0
PreviewTime: 9614
Countdown: 0
SampleSet: Soft
StackLeniency: 0.4
Mode: 0
LetterboxInBreaks: 0
EpilepsyWarning: 1

[Editor]
DistanceSpacing: 1
BeatDivisor: 4
GridSize: 4

[Metadata]
Title:Masquerade
Artist:Hanazawa Kana
Creator:Scorpiour
Version:Hard
Source:Ore no Imouto ga Konna ni Kawaii Wake ga Nai
Tags:tutuhaha Gokou Ruri Kuro Neko Sennyou Maschera Black Cat ed7 full version oreimo ending

[Difficulty]
HPDrainRate:6
CircleSize:4
OverallDifficulty:6
ApproachRate:8
SliderMultiplier:1.6
SliderTickRate:2

[Events]
//Background and Video events
0,0,"bg2.jpg"
//Break Periods
2,24036,30197
2,73813,79975
2,139591,143975
2,171836,177752
//Storyboard Layer 0 (Background)
//Storyboard Layer 1 (Fail)
//Storyboard Layer 2 (Pass)
//Storyboard Layer 3 (Foreground)
Sprite,Foreground,Centre,"SB\bg8.jpg",320,240 F,0,227836,228280,1,0 S,0,227836,228280,0.8,1.2
Sprite,Foreground,Centre,"SB\bg8.jpg",320,240 F,0,234502,234947,1,0 S,0,234502,234947,0.8,1.2
//Storyboard Sound Samples
//Background Colour Transformations
3,100,163,162,255

[TimingPoints]
2503,444.444444444444,4,2,1,70,1,0
9614,-78.125,4,2,1,70,0,1
23836,-78.125,4,2,1,70,0,0
59391,-78.125,4,2,1,100,0,1
73614,-78.125,4,2,1,70,0,0
109169,-78.125,4,2,1,100,0,1
122502,-78.125,4,2,1,70,0,0
206947,-78.125,4,2,1,100,0,1
234502,-78.125,4,2,1,100,0,0
235391,-78.125,4,2,1,100,0,1
249614,-78.125,4,2,1,100,0,0
250058,-78.125,4,2,1,80,0,0
250502,-78.125,4,2,1,60,0,0
250947,-78.125,4,2,1,40,0,0
251391,-78.125,4,2,1,20,0,0
251725,-78.125,4,2,1,5,0,0

[Colours]
Combo1 : 255,0,128
Combo2 : 64,0,64
Combo3 : 255,128,255
Combo4 : 46,0,91
SliderBorder : 200,200,200

[HitObjects]
344,268,9614,6,0,B|244:240|136:268,1,204.8,4|0
48,308,10280,1,2
88,216,10502,2,0,B|120:176|120:120,1,102.4,0|2
68,32,10947,2,0,B|36:72|36:128,1,102.4,0|2
48,228,11391,5,0
144,188,11614,1,2
144,188,11725,1,0
144,188,11836,2,0,B|200:172|264:192,1,102.4,0|2
324,252,12280,2,0,B|368:208|332:132,2,102.4,0|2|2
260,68,13169,5,0
332,140,13391,1,2
332,140,13502,1,0
332,140,13614,2,0,B|380:168|428:140,1,102.4,0|2
472,116,13947,2,0,B|392:72|320:152,1,153.6,0|2
292,236,14502,2,0,B|256:280|184:268,1,102.4,0|2
96,264,14947,5,0
220,172,15169,1,2
172,320,15391,1,0
124,172,15614,1,2
248,264,15836,1,0
248,264,16280,1,2
96,80,16725,6,0,B|176:160|288:116,1,204.8,4|0
368,56,17391,2,2,B|404:100|380:152,1,102.4,2|0
288,336,17947,1,2
288,336,18058,1,2
176,164,18502,5,0
240,244,18725,1,2
240,244,18947,2,0,B|196:276|144:260,1,102.4,0|2
104,228,19280,2,0,B|204:124|352:196,1,256,0|2
232,364,20280,5,0
316,308,20502,1,2
316,308,20614,1,0
316,308,20725,2,0,B|284:260|228:264,1,102.4,0|2
180,272,21058,2,0,B|88:300|48:220,1,153.6,0|2
144,180,21614,2,0,B|148:128|208:104,1,102.4,0|2
296,148,22058,6,0,B|380:168|436:108,2,153.6,0|0|2
196,120,22947,1,0
176,108,23058,1,0
152,100,23169,1,2
128,100,23280,1,2
104,108,23391,1,2
104,108,23836,5,4
132,196,30947,5,4
232,220,31169,2,0,B|276:256|256:320,2,102.4,2|0|2
192,188,31725,2,0,B|128:128|164:48,1,153.6,0|2
248,104,32280,1,0
248,104,32502,1,2
420,212,32947,6,0,B|364:192|320:232,1,102.4,8|0
300,248,33280,2,0,B|264:288|208:296,1,102.4,0|0
211,295,33614,1,2
100,288,33836,2,0,B|56:260|0:280,2,102.4,2|0|2
188,188,34725,5,0
244,104,34947,1,0
244,104,35058,2,0,B|300:136|288:220,1,102.4
256,340,35614,1,2
352,304,35836,1,0
400,212,36058,1,2
392,112,36280,6,0,B|356:72|296:88,1,102.4,8|2
248,104,36614,2,0,B|184:148|96:112,1,153.6,0|2
20,52,37169,1,0
101,114,37391,1,2
128,212,37614,1,0
104,312,37836,1,2
212,136,38280,5,0
212,136,38502,2,0,B|260:80|328:88,1,102.4,0|2
352,88,38836,2,0,B|284:152|212:136,1,153.6,0|2
116,108,39391,2,0,B|136:52|192:44,1,102.4,0|2
296,220,40058,6,0,B|352:256|352:324,2,102.4,8|0|2
244,212,40614,1,0
92,220,40947,1,2
172,284,41169,2,0,B|216:328|288:304,1,102.4,0|2
396,148,41836,5,0
396,148,41947,1,0
396,148,42058,1,0
396,148,42169,1,0
396,148,42280,2,0,B|348:112|296:148,1,102.4,2|0
220,208,42725,2,0,B|268:244|320:208,2,102.4,2|0|2
180,116,43391,6,0,B|124:129|119:189,1,102.4,0|2
120,239,43725,2,0,B|210:201|175:101,1,153.6,0|2
124,32,44280,1,0
100,44,44391,1,0
84,64,44502,1,2
76,88,44614,1,2
72,112,44725,1,2
76,216,45169,5,10
268,288,46058,6,0,B|328:268|328:212,1,102.4,0|2
416,164,46502,2,0,B|368:122|320:150,1,102.4,0|2
232,96,46947,2,0,B|219:157|267:185,1,102.4,0|2
266,184,47391,1,0
360,228,47614,2,0,B|256:184|168:256,1,204.8,0|2
168,255,48280,1,0
72,72,48725,5,4
124,160,48947,1,2
208,100,49169,1,0
256,192,49391,2,0,B|372:184|424:60,1,204.8,2|2
256,192,50058,12,0,51836
232,208,52280,6,0,B|288:220|320:288,1,102.4,4|2
232,208,52725,2,0,B|288:220|332:204,1,102.4,0|2
416,144,53169,1,0
332,84,53391,1,2
228,84,53614,2,0,B|140:84|144:84,2,51.2,0|0|2
280,172,54058,2,0,B|264:232|184:248,1,102.4,0|2
120,196,54502,1,0
24,232,54725,2,0,B|64:340|188:336,1,204.8,2|2
182,336,55391,1,0
356,228,55836,5,8
304,137,56058,1,2
213,189,56280,1,0
265,280,56502,1,2
364,164,56725,5,0
217,118,56947,1,2
172,263,57169,1,0
317,308,57391,1,2
256,192,57614,12,0,58947
200,60,59391,5,4
148,148,59614,1,2
148,148,59725,1,0
148,148,59836,2,0,B|192:184|184:252,1,102.4,0|2
128,324,60280,2,0,B|176:356|236:328,1,102.4,0|2
308,272,60725,2,0,B|352:236|408:252,1,102.4,0|2
500,296,61169,5,0
456,204,61391,1,2
456,204,61502,1,0
456,204,61614,2,0,B|428:152|360:160,1,102.4,0|2
272,188,62058,2,0,B|224:148|228:92,2,102.4,0|2|0
204,288,62947,5,8
328,200,63169,1,2
176,200,63391,1,0
300,292,63614,1,2
300,292,63725,2,0,B|216:248|244:160,1,153.6,0|2
200,72,64280,2,0,B|260:68|292:120,1,102.4,0|2
312,212,64725,5,0
416,100,64947,1,2
268,132,65169,1,0
412,188,65391,1,2
328,56,65614,1,0
224,232,66058,2,0,B|168:248|128:208,1,102.4,2|0
100,112,66502,5,4
200,124,66725,1,2
200,124,66947,2,0,B|256:108|296:152,1,102.4,0|2
348,236,67391,2,0,B|376:292|464:296,1,102.4,0|2
348,236,67836,2,0,B|292:312|168:272,1,153.6
160,272,68280,5,0
52,216,68502,1,2
160,160,68725,1,0
52,104,68947,1,2
52,104,69058,2,0,B|104:36|208:48,1,153.6,0|2
284,76,69614,2,0,B|332:104|408:76,1,102.4,0|2
452,160,70058,5,8
392,244,70280,1,2
392,244,70391,1,0
392,244,70502,1,0
304,192,70725,1,2
304,192,70836,2,0,B|228:148|156:204,1,153.6,0|2
72,252,71391,2,0,B|104:304|156:304,1,102.4,0|2
160,200,71836,6,0,B|124:124|172:52,2,153.6
248,256,72725,1,0
268,244,72836,1,2
292,236,72947,1,2
316,232,73058,1,0
340,232,73169,6,0,B|404:240,4,51.2,0|2|2|0|4
124,244,80725,5,4
124,244,80947,2,0,B|176:268|240:248,1,102.4
255,251,81280,2,0,B|306:248,1,51.2,0|2
324,224,81502,2,0,B|308:136|380:80,1,153.6,0|2
468,52,82058,1,0
344,332,82725,5,8
244,308,82947,2,0,B|188:292|168:240,1,102.4,0|2
152,196,83280,2,0,B|244:172|268:88,1,153.6,0|2
160,92,83836,2,0,B|104:84|68:132,1,102.4
232,252,84502,6,0,B|196:296|140:292,2,102.4,0|0|2
272,104,85169,1,0
152,200,85391,1,2
304,192,85614,1,0
172,112,85836,1,2
232,252,86058,6,0,B|272:288|348:272,1,102.4,8|2
380,268,86391,2,0,B|308:228|232:252,1,153.6,0|2
136,292,86947,2,0,B|84:324|32:296,1,102.4,0|2
80,208,87391,2,0,B|132:176|184:204,1,102.4,0|2
372,264,88058,6,0,B|376:328|428:344,2,102.4,0|0|2
280,220,88725,2,0,B|272:160|320:124,1,102.4,0|2
340,116,89058,1,0
368,104,89169,2,0,B|424:92|440:36,1,102.4,0|2
480,240,89836,5,0
460,228,89947,1,0
436,220,90058,1,0
412,224,90169,1,0
388,232,90280,1,2
368,244,90391,2,0,B|300:292|184:256,1,153.6,0|2
220,265,90947,1,0
44,128,91391,5,8
44,128,91614,2,0,B|96:112|152:144,1,102.4
180,180,91947,2,0,B|224:212|288:188,1,102.4
332,172,92280,2,0,B|388:144|384:88,1,102.4,0|2
292,28,92725,2,0,B|236:55|240:111,1,102.4,0|2
252,220,93169,6,0,B|272:280|232:312,1,102.4,0|2
196,356,93502,2,0,B|188:272|252:220,1,153.6,0|2
344,176,94058,1,0
352,200,94169,1,0
352,224,94280,1,2
340,248,94391,1,0
328,272,94502,1,0
140,192,94947,5,6
324,160,95836,6,0,B|336:104|400:92,1,102.4,0|2
380,196,96280,2,0,B|422:234|400:295,1,102.4,0|2
320,228,96725,2,0,B|265:245|223:196,2,102.4,0|2|0
396,156,97391,6,0,B|324:72|212:96,1,204.8,2|2
120,140,98058,1,0
204,200,98280,1,2
264,284,98502,2,0,B|220:312|164:296,1,102.4,4|2
84,232,98947,1,0
164,168,99169,2,0,B|260:108|360:156,1,204.8,2|2
456,192,99836,6,0,B|452:132|404:108,1,102.4,0|2
308,72,100280,2,0,B|240:148|272:268,1,204.8
316,356,100947,1,2
372,272,101169,2,0,B|268:240|176:304,1,204.8
160,100,102058,6,0,B|176:152|144:200,1,102.4,4|2
160,100,102502,2,0,B|176:152|232:176,1,102.4,0|2
380,196,102947,1,0
240,260,103169,1,2
308,124,103391,2,0,B|332:80,2,51.2,0|0|2
320,228,103836,6,0,B|256:240|224:184,1,102.4,0|2
176,112,104280,1,0
80,152,104502,1,2
208,312,104947,6,0,B|160:340|104:320,2,102.4,2|0|2
276,236,105614,1,0
276,236,105836,1,2
212,156,106058,2,0,B|256:120|312:140,1,102.4,0|2
404,172,106502,1,0
404,172,106725,1,2
472,248,106947,2,0,B|428:284|368:268,1,102.4,0|2
256,192,107391,12,0,108725
164,92,109169,5,4
248,152,109391,1,2
248,152,109502,1,0
248,152,109614,2,0,B|264:212|216:248,1,102.4,0|2
228,348,110058,2,0,B|168:331|160:272,1,102.4,0|2
68,232,110502,2,0,B|111:188|167:211,1,102.4,0|2
260,244,110947,6,0,B|320:256|376:184,1,102.4,0|2
372,188,111280,1,0
388,164,111391,2,0,B|412:112|388:60,1,102.4,0|2
304,8,111836,2,0,B|280:60|304:112,2,102.4,0|2|0
468,132,112725,5,8
420,224,112947,1,2
420,224,113058,1,0
420,224,113169,2,0,B|392:280|308:284,1,102.4,0|2
288,292,113502,2,0,B|248:216|164:216,1,153.6,0|2
88,276,114058,2,0,B|152:264|164:216,1,102.4,0|2
108,72,114502,5,0
196,200,114725,1,2
280,72,114947,1,0
364,200,115169,1,2
448,72,115391,1,0
280,332,115836,5,2
136,276,116169,1,0
136,276,116280,2,0,B|264:280|308:188,1,204.8,4|0
276,92,116947,1,2
212,173,117169,2,0,B|256:209|308:189,1,102.4,0|2
388,124,117614,2,0,B|420:176|404:224,1,102.4,0|2
364,316,118058,5,0
304,232,118280,1,2
304,232,118502,2,0,B|248:216|212:260,1,102.4,0|2
184,304,118836,2,0,B|40:272|56:80,1,256,0|2
256,84,119836,6,0,B|304:56|352:84,1,102.4,8|2
428,152,120280,2,0,B|380:180|332:152,1,102.4,0|2
284,132,120614,2,0,B|224:128|192:184,1,102.4
204,228,120947,2,0,B|200:284|136:304,2,102.4,2|0|2
132,156,121614,6,0,B|120:100|164:56,1,102.4,0|2
200,32,121947,2,0,B|216:112|132:156,1,153.6,0|2
32,172,122502,1,0
36,196,122614,1,0
48,216,122725,1,2
68,236,122836,1,0
88,248,122947,2,0,B|140:268|192:240,1,102.4,0|2
280,200,123391,5,4
236,108,123614,1,2
236,108,123836,2,0,B|288:80|340:116,1,102.4,0|2
376,140,124169,2,0,B|300:172|236:108,1,153.6,0|2
324,56,124725,5,0
324,56,124947,1,2
316,156,125169,2,0,B|324:216|384:236,1,102.4,0|2
476,240,125614,2,0,B|464:296|416:324,1,102.4,0|2
372,340,125947,2,0,B|256:252|136:340,1,256,0|2
112,136,126947,6,0,B|172:152|184:216,1,102.4,8|2
196,252,127280,2,0,B|284:260|352:196,1,153.6,0|2
372,168,127725,1,0
264,60,128058,1,2
356,12,128280,1,0
428,84,128502,1,2
372,168,128725,5,0
256,268,128947,1,2
140,168,129169,1,0
24,268,129391,1,2
24,268,129502,2,0,B|80:336|188:324,1,153.6,0|2
304,268,130058,6,0,B|368:268,2,51.2,0|0|2
212,224,130502,2,0,B|244:168|312:176,1,102.4,4|2
396,196,130947,1,0
444,108,131169,1,2
444,108,131280,2,0,B|388:60|296:84,1,153.6,0|2
200,52,131836,2,0,B|184:104|216:148,1,102.4,0|2
296,208,132280,5,0
212,336,132502,1,2
364,344,132725,2,0,B|424:320|428:264,1,102.4,0|2
428,220,133058,2,0,B|332:120|192:192,1,256,0|2
44,52,134058,5,4
124,112,134280,2,0,B|124:176,2,51.2,2|0|0
200,44,134725,1,2
200,44,134836,2,0,B|236:120|344:100,1,153.6,0|2
428,72,135391,1,0
328,44,135614,1,2
248,108,135836,2,0,B|164:168|152:292,2,204.8,0|2|0
344,148,136947,1,2
368,248,137169,2,0,B|308:260|272:220,1,102.4,0|2
256,192,137614,12,2,139391
256,192,144725,5,4
120,136,146502,5,4
244,300,146947,1,4
324,112,147391,1,4
160,236,147836,5,4
180,220,147947,1,0
204,212,148058,1,0
228,212,148169,1,0
252,220,148280,2,0,B|348:284|448:224,1,204.8,4|2
428,124,148947,1,2
428,124,149058,1,0
428,124,149169,2,0,B|408:72|344:72,1,102.4,4|2
252,32,149614,2,0,B|236:88|268:128,1,102.4,0|2
372,116,150058,6,0,B|352:216|204:264,1,204.8,4|2
176,340,150725,1,2
176,340,150836,1,0
176,340,150947,2,0,B|128:304|132:252,1,102.4,4|2
148,152,151391,2,0,B|88:144|52:192,2,102.4,0|2|4
244,184,152058,5,2
244,184,152169,1,2
244,184,152280,1,2
304,100,152502,1,2
304,100,152614,1,2
304,100,152725,1,2
388,160,152947,1,2
388,160,153058,1,2
388,160,153169,2,0,B|384:224|328:248,1,102.4,2|2
236,260,153614,6,0,B|336:212|436:292,1,204.8,4|2
336,332,154280,1,2
336,332,154391,1,0
336,332,154502,2,0,B|272:340|236:276,1,102.4,4|2
144,288,154947,2,0,B|169:228|242:229,1,102.4,0|2
324,220,155391,6,0,B|312:104|184:72,2,204.8,4|2|0
168,228,156502,1,2
197,75,156725,1,0
352,56,156947,1,2
456,168,157169,6,0,B|420:224|352:212,1,102.4,4|2
340,208,157502,1,2
312,192,157614,2,0,B|276:148|208:144,1,102.4,0|2
192,152,157947,1,2
164,168,158058,2,0,B|164:216|100:248,1,102.4,4|2
76,252,158391,1,2
44,256,158502,2,0,B|56:328|160:328,1,102.4,2|2
208,288,158947,6,0,B|280:192|428:240,2,204.8,4|2|0
148,372,160058,1,2
104,280,160280,1,0
160,196,160502,1,2
88,120,160725,6,0,B|128:88|184:96,1,102.4,4|2
276,140,161169,2,0,B|236:172|180:164,1,102.4,0|2
112,88,161614,2,0,B|152:56|208:64,1,102.4,4|2
300,108,162058,2,0,B|260:140|204:132,1,102.4,0|2
128,200,162502,5,4
244,300,162725,2,0,B|312:356,2,51.2,2|2|2
360,200,163169,2,0,B|412:160,2,51.2,2|2|2
268,76,163614,1,2
240,84,163725,1,2
216,100,163836,1,2
192,120,163947,1,0
176,148,164058,1,2
168,176,164169,1,0
172,208,164280,6,0,B|192:320|312:336,1,204.8,4|2
376,140,165169,2,0,B|316:148|284:220,1,102.4,0|2
232,280,165614,2,0,B|176:284|144:228,1,102.4,0|2
52,200,166058,6,0,B|100:100|212:84,1,204.8,4|2
312,96,166725,1,2
312,96,166836,1,0
312,96,166947,2,0,B|304:152|252:172,1,102.4,0|2
220,268,167391,2,0,B|175:233|184:178,1,102.4,0|2
208,76,167836,5,6
356,112,168058,1,2
212,168,168280,1,2
296,40,168502,1,2
312,192,168725,1,2
180,268,168947,1,0
196,288,169058,1,0
216,304,169169,1,0
240,316,169280,1,0
264,320,169391,1,0
288,320,169502,1,0
312,316,169614,5,4
320,112,169836,2,0,B|376:112,2,51.2,2|2|2
80,148,170280,2,0,B|16:148,2,51.2,0|2|0
180,180,170725,1,2
204,188,170836,1,2
228,196,170947,1,2
252,204,171058,1,2
276,212,171169,1,2
300,220,171280,1,2
384,284,178502,6,0,B|312:200|180:244,1,204.8,6|2
24,128,179391,6,0,B|52:80|120:92,1,102.4,0|2
200,148,179836,2,0,B|166:189|106:177,1,102.4,0|2
124,76,180280,2,0,B|224:8|312:104,1,204.8,0|2
408,120,180947,2,0,B|456:120|508:68,2,102.4,0|0|2
332,192,181614,2,0,B|280:208|264:268,1,102.4,0|2
216,352,182058,6,0,B|108:312|96:188,1,204.8,8|0
120,100,182725,1,2
220,120,182947,2,0,B|220:172|160:196,1,102.4,0|2
220,52,183391,2,0,B|265:26|315:65,1,102.4,0|2
416,60,183836,6,0,B|424:120|364:156,1,102.4,0|2
284,192,184280,2,0,B|276:132|336:96,2,102.4,0|2|0
432,332,185169,1,2
228,332,185614,2,0,B|196:224|68:200,1,204.8,4|2
28,296,186502,6,0,B|72:328|144:304,1,102.4,0|2
208,244,186947,2,0,B|248:204|308:220,1,102.4,0|2
352,308,187391,2,0,B|268:224|320:104,1,204.8,0|0
388,48,188058,2,0,B|424:100|396:156,1,102.4,2|0
324,212,188502,2,0,B|220:240|124:172,1,204.8,2|2
104,76,189169,5,4
20,136,189391,1,2
48,236,189614,2,0,B|60:296|116:320,1,102.4,0|2
184,248,190058,1,0
284,236,190280,1,2
372,288,190502,2,0,B|424:280|452:224,1,102.4,0|2
352,192,190947,6,0,B|300:168|292:112,1,102.4,0|2
296,12,191391,2,0,B|348:35|356:91,1,102.4,0|2
316,184,191836,2,0,B|264:160|256:104,1,102.4,0|2
168,52,192280,2,0,B|214:18|267:40,2,102.4,0|2|8
24,200,193169,5,2
200,304,193614,6,0,B|204:248|260:224,1,102.4,0|2
400,284,194058,2,0,B|349:308|300:272,1,102.4,0|2
284,120,194502,2,0,B|330:151|323:211,2,102.4,8|2|0
212,192,195169,2,0,B|166:220|107:193,1,102.4,2|0
56,112,195614,2,0,B|101:83|160:110,1,102.4,2|0
212,192,196058,1,2
160,280,196280,6,0,B|100:288|68:240,2,102.4,4|2|0
260,260,196947,2,0,B|256:140|376:108,1,204.8,2|2
468,148,197614,1,0
388,208,197836,2,0,B|272:200|208:104,1,204.8,2|2
256,192,198391,12,0,199391
136,232,199836,5,4
220,176,200058,1,2
304,232,200280,2,0,B|352:264|400:236,1,102.4,0|2
356,144,200725,1,0
272,88,200947,1,2
188,144,201169,2,0,B|132:144,2,51.2,0|0|2
292,260,201614,5,0
160,336,201836,1,2
312,352,202058,1,0
200,248,202280,1,2
348,104,202725,2,0,B|292:104|232:44,2,102.4,2|0|2
380,204,203391,5,0
288,284,203614,1,2
360,184,203836,21,0
452,104,204058,1,2
360,204,204280,21,0
284,108,204502,1,2
380,184,204725,21,0
460,276,204947,1,2
256,192,205169,12,0,206502
344,276,206947,21,4
260,216,207169,1,2
260,216,207280,1,0
260,216,207391,2,0,B|208:184|144:216,1,102.4,0|2
88,280,207836,2,0,B|48:240|60:180,1,102.4,0|2
36,88,208280,2,0,B|104:76|140:136,1,102.4,0|2
220,76,208725,1,0
276,160,208947,1,2
276,160,209058,1,0
276,160,209169,2,0,B|324:196|384:164,1,102.4,0|2
452,104,209614,2,0,B|404:67|344:99,2,102.4,0|2|0
344,280,210502,22,0,B|332:220|388:184,1,102.4,8|2
404,92,210947,2,0,B|368:136|304:124,1,102.4,0|2
264,116,211280,2,0,B|320:56|404:92,1,153.6,0|2
348,176,211836,2,0,B|316:220|248:212,1,102.4,0|2
116,152,212280,1,0
192,284,212502,1,2
212,132,212725,1,0
104,244,212947,1,2
257,212,213169,1,0
257,212,213614,2,0,B|340:164|416:232,1,153.6,2|0
420,172,214058,22,0,B|324:100|200:188,1,204.8,4|0
148,236,214725,1,2
160,336,214947,2,0,B|96:336|64:288,1,102.4,0|2
148,236,215391,2,0,B|108:188|128:124,1,102.4,0|2
176,52,215836,1,0
328,52,216058,1,0
360,200,216280,2,0,B|344:256|284:276,1,102.4,0|2
244,280,216614,2,0,B|100:244|84:64,1,256,0|2
252,44,217614,21,8
400,92,217837,2,0,B|360:140,2,51.2,2|0|0
276,180,218281,1,2
276,180,218391,2,0,B|200:136|132:184,1,153.6,0|2
60,260,218947,2,0,B|136:304|204:256,1,153.6
252,236,219391,22,0,B|312:236|336:284,1,102.4,0|2
348,332,219725,2,0,B|256:328|252:236,1,153.6,0|2
280,136,220280,2,0,B|336:144,3,51.2,0|0|2|2
360,144,220725,2,0,B|440:108,3,51.2,2|0|2|2
432,104,221169,22,0,B|380:0|216:36,1,204.8,4|0
228,40,221725,1,0
204,60,221836,2,0,B|124:56,1,51.2,2|0
108,84,222058,2,0,B|120:148|208:160,1,102.4,0|2
272,120,222502,2,0,B|294:168|258:216,1,102.4,0|2
188,292,222947,5,0
280,336,223169,1,2
280,336,223280,1,0
280,336,223391,2,0,B|308:284|368:288,1,102.4,0|2
444,224,223836,2,0,B|484:264|464:324,2,102.4,0|2|0
284,100,224725,5,8
388,100,224947,1,2
388,100,225169,2,0,B|380:160|336:184,1,102.4,0|2
292,212,225502,2,0,B|224:156|124:184,1,153.6,0|2
60,232,226058,2,0,B|92:280|152:272,1,102.4,0|2
300,248,226502,1,0
188,356,226725,1,2
212,204,226947,1,0
288,340,227169,1,2
147,272,227391,1,0
148,64,227836,6,0,B|200:24|276:64,1,102.4,2|0
324,120,228280,1,4
396,48,228502,1,2
396,48,228614,1,0
396,48,228725,2,0,B|440:96|416:148,1,102.4,0|2
336,204,229169,2,0,B|372:252|440:244,1,102.4,0|2
336,204,229614,2,0,B|316:260|260:264,1,102.4,0|2
248,168,230058,5,0
176,96,230280,1,2
176,96,230391,1,0
176,96,230502,2,0,B|132:128|148:188,1,102.4,0|2
180,228,230836,2,0,B|328:180|392:316,1,256,0|2
392,112,231836,6,0,B|356:156|300:128,1,102.4,8|2
208,84,232280,2,0,B|164:48|112:72,1,102.4,0|2
64,92,232614,2,0,B|148:132|208:84,1,153.6,0|2
288,148,233169,1,0
244,240,233391,1,2
244,240,233502,1,0
244,240,233614,2,0,B|428:280|488:72,1,307.2
479,98,234502,1,0
276,104,234947,6,0,B|340:120|348:200,1,102.4,0|2
332,276,235391,1,4
244,328,235614,1,2
244,328,235725,1,0
244,328,235836,2,0,B|188:296|184:248,1,102.4,0|2
132,240,236169,2,0,B|120:152|192:104,1,153.6,0|2
292,92,236725,6,0,B|300:152|256:184,1,102.4,0|2
188,106,237169,2,0,B|144:76|88:104,1,102.4,0|2
44,192,237614,2,0,B|112:196|144:288,1,102.4,0|2
144,292,237947,2,0,B|56:284|44:192,1,153.6,0|2
48,92,238502,1,0
248,48,238947,5,8
348,68,239169,1,2
348,68,239280,1,0
348,68,239391,2,0,B|408:92|420:160,1,102.4,0|2
376,176,239725,2,0,B|284:196|264:300,1,153.6,0|2
316,368,240280,1,0
269,275,240502,1,2
160,224,240725,5,0
184,104,240947,1,2
304,88,241169,1,0
364,196,241391,1,2
364,196,241502,1,0
364,196,241614,2,0,B|424:168|424:120,1,102.4,0|2
332,76,242058,6,0,B|332:8,2,51.2,0|2|0
420,24,242502,2,0,B|452:76|424:120,1,102.4,4|2
404,144,242836,1,2
376,156,242947,2,0,B|320:148|280:192,1,102.4,2|2
268,216,243280,1,2
252,240,243391,2,0,B|220:288|148:268,1,102.4,2|2
92,196,243836,5,0
104,188,243947,1,0
116,180,244058,1,2
128,172,244169,1,2
140,164,244280,2,0,B|200:160|224:92,1,102.4,0|2
276,24,244725,1,0
172,24,244947,1,2
172,24,245058,1,0
172,24,245169,2,0,B|200:132|328:168,1,204.8,0|2
136,272,246058,6,0,B|164:220|244:216,1,102.4,8|2
308,268,246502,2,0,B|280:320|200:324,1,102.4,0|2
172,328,246836,2,0,B|220:268|308:268,1,153.6,0|2
392,324,247391,2,0,B|436:272|396:208,1,102.4,0|2
476,152,247836,6,0,B|408:56|276:112,1,204.8
220,176,248502,1,2
117,180,248725,2,0,B|152:300|276:264,1,204.8
364,212,249391,1,2
256,192,249614,12,0,251725
