osu file format v9

[General]
AudioFilename: ed7.mp3
AudioLeadIn: 0
PreviewTime: 9614
Countdown: 0
SampleSet: Soft
StackLeniency: 0.7
Mode: 0
LetterboxInBreaks: 0
EpilepsyWarning: 1

[Editor]
DistanceSpacing: 1
BeatDivisor: 4
GridSize: 4

[Metadata]
Title:Masquerade
Artist:Hanazawa Kana
Creator:Scorpiour
Version:Easy
Source:Ore no Imouto ga Konna ni Kawaii Wake ga Nai
Tags:tutuhaha Gokou Ruri Kuro Neko Sennyou Maschera Black Cat ed7 full version oreimo ending

[Difficulty]
HPDrainRate:2
CircleSize:3
OverallDifficulty:2
ApproachRate:3
SliderMultiplier:0.8
SliderTickRate:1

[Events]
//Background and Video events
0,0,"bg2.jpg"
//Break Periods
2,24035,29507
2,73814,79285
2,139591,143285
2,171836,177063
//Storyboard Layer 0 (Background)
//Storyboard Layer 1 (Fail)
//Storyboard Layer 2 (Pass)
//Storyboard Layer 3 (Foreground)
//Storyboard Sound Samples
//Background Colour Transformations
3,100,0,0,0

[TimingPoints]
2503,444.444444444444,4,2,2,100,1,0
9614,-100,4,2,2,100,0,1
22947,-100,4,2,1,100,0,1
23836,-100,4,2,2,80,0,0
30725,-100,4,2,1,80,0,0
31058,-100,4,2,2,80,0,0
45169,-100,4,2,1,80,0,0
46058,-100,4,2,2,80,0,0
49391,-100,4,2,1,80,0,0
49836,-100,4,2,2,80,0,0
50280,-100,4,2,1,80,0,0
50725,-100,4,2,2,80,0,0
58280,-100,4,2,1,80,0,0
59391,-100,4,2,2,80,0,1
73614,-100,4,2,2,80,0,0
84280,-100,4,2,1,80,0,0
86058,-100,4,2,2,80,0,0
91169,-100,4,2,1,80,0,0
92502,-100,4,2,2,80,0,0
99391,-100,4,2,2,70,0,0
99614,-100,4,2,2,60,0,0
99836,-100,4,2,2,50,0,0
100058,-100,4,2,2,40,0,0
100280,-100,4,2,2,30,0,0
100502,-100,4,2,2,20,0,0
100725,-100,4,2,2,10,0,0
100947,-100,4,2,2,7,0,0
101169,-100,4,2,2,5,0,0
102058,-100,4,2,2,80,0,0
107391,-100,4,2,1,80,0,0
109169,-100,4,2,2,100,0,1
112725,-100,4,2,1,100,0,1
113169,-100,4,2,2,100,0,1
119836,-100,4,2,1,100,0,1
122502,-100,4,2,1,80,0,0
123614,-100,4,2,2,80,0,0
171391,-100,4,2,2,5,0,0
178058,-100,4,2,2,80,0,0
205169,-100,4,2,1,80,0,0
206947,-100,4,2,2,100,0,1
210502,-100,4,2,1,100,0,1
212280,-100,4,2,2,100,0,1
217614,-100,4,2,1,100,0,1
218502,-100,4,2,2,100,0,1
234502,-100,4,2,2,100,0,0
235391,-100,4,2,2,100,0,1
249614,-100,4,2,2,80,0,0
251725,-100,4,2,2,5,0,0

[Colours]
Combo1 : 255,0,128
Combo2 : 64,0,64
Combo3 : 255,128,255
Combo4 : 46,0,91
SliderBorder : 200,200,200

[HitObjects]
164,260,9614,2,0,B|328:260,1,160,6|0
404,260,10947,1,2
456,200,11391,2,0,B|392:144,1,80,0|2
316,136,12280,2,0,B|316:48,1,80,0|2
240,32,13169,6,0,B|160:76|148:160,1,160
132,236,14503,1,2
100,312,14947,2,0,B|180:348|264:332,1,160
336,324,16280,1,2
416,308,16725,6,0,B|424:260|392:220,1,80,6|2
324,208,17614,2,0,B|300:168|312:128,1,80,0|2
284,56,18502,1,0
208,84,18947,1,2
232,160,19391,2,0,B|148:160,1,80,0|2
116,232,20280,6,0,B|36:200,1,80,0|2
20,280,21169,2,0,B|108:316,1,80,0|2
164,352,22058,1,0
240,324,22502,1,2
252,244,22947,2,0,B|332:216|408:248,1,160,2|6
420,124,30947,6,0,B|328:124,1,80,8|2
296,188,31836,2,0,B|216:188,1,80,0|2
156,240,32725,6,0,B|200:324,1,80,0|2
264,348,33614,2,0,B|348:328,1,80,0|2
412,292,34502,5,0
460,228,34947,1,2
452,148,35391,1,0
392,96,35836,1,2
316,68,36280,2,0,B|244:32|148:36|72:96,1,240,0|2
48,156,38058,6,0,B|20:232|148:204|128:280,1,160,6|0
92,344,39391,1,2
172,344,39836,2,0,B|256:368|324:312,1,160
388,268,41169,1,2
416,196,41614,6,0,B|464:172|432:112,1,80,4|2
392,64,42502,2,0,B|356:24|312:56,1,80,0|2
252,92,43391,1,0
184,48,43836,1,2
124,100,44280,2,0,B|116:184|192:248,1,160,0|10
312,340,46058,6,0,B|364:344|384:300,1,80,0|2
424,240,46947,2,2,B|344:220,1,80,0|2
300,156,47836,2,0,B|212:180,1,80,0|2
168,236,48725,1,4
160,316,49169,2,0,B|68:308|24:212|60:124,2,240,2|0|2
240,316,52280,6,0,B|328:316,1,80,2|2
376,260,53169,2,0,B|376:176,1,80,0|2
428,120,54058,1,0
372,64,54502,2,0,B|288:64,2,80,2|0|2
344,140,55836,6,0,B|248:168|284:284,1,160,6|0
360,264,57169,1,2
420,316,57614,2,0,B|352:364|264:360,1,160,0|10
116,312,59391,6,0,B|116:224,1,80,6|2
196,232,60280,2,0,B|196:152,1,80,0|2
276,148,61169,2,0,B|276:68,1,80,0|2
356,68,62058,1,2
452,196,62947,6,0,B|372:196,1,80,0|2
312,248,63836,2,0,B|228:248,1,80,0|2
176,304,64725,2,0,B|92:304,2,80,0|2|2
256,308,66058,1,2
336,308,66502,6,0,B|372:344|408:308,1,80,4|2
460,252,67391,2,0,B|496:212|456:176,1,80,0|2
404,128,68280,2,0,B|368:100|328:128,1,80,0|2
268,176,69169,2,0,B|184:176,1,80,0|2
132,236,70058,6,0,B|72:176,1,80,0|2
20,120,70947,2,0,B|84:56,1,80,0|2
152,88,71836,2,0,B|240:64,1,80,0|2
300,104,72725,2,0,B|384:104,1,80,0|2
460,104,73614,1,6
256,192,80725,5,6
256,192,82502,5,2
256,192,84280,5,10
256,192,86058,5,4
84,240,87836,6,0,B|180:240,1,80,4|2
216,180,88725,2,0,B|300:180,1,80,0|2
368,144,89614,2,0,B|368:240,1,80,0|2
448,224,90502,2,0,B|448:144,1,80,0|2
408,72,91391,5,8
332,36,91836,2,0,B|288:112|192:128,1,160,2|2
128,112,93169,2,0,B|116:160|164:196,1,80,0|2
200,248,94058,2,0,B|232:280,2,40,0|0|2
120,248,94947,5,2
256,332,95836,2,0,B|308:256|428:264,1,160
436,332,97169,1,2
472,260,97614,1,0
428,192,98058,1,2
356,156,98502,2,0,B|328:124|268:144,1,80,0|2
256,192,99169,12,2,101169
140,108,102058,6,0,B|208:52|296:84,1,160,4|0
364,112,103391,1,2
364,192,103836,1,0
288,216,104280,1,2
244,148,104725,2,0,B|224:112|176:116,1,80,0|2
140,188,105614,5,0
96,120,106058,1,2
132,48,106502,1,0
212,48,106947,1,2
264,104,107391,2,0,B|264:296,1,160,6|2
424,280,109169,6,0,B|308:280,1,80,6|2
284,224,110058,2,0,B|192:224,1,80,0|2
140,176,110947,1,0
76,224,111391,1,2
140,272,111836,2,0,B|152:316|196:324,1,80,0|2
260,276,112725,5,8
324,228,113169,1,2
404,236,113614,1,0
464,180,114058,1,2
444,104,114502,2,0,B|380:44|296:68,1,160
224,36,115836,1,2
168,92,116280,6,0,B|80:92,1,80,4|2
40,156,117169,2,0,B|40:248,1,80,0|2
40,316,118058,1,0
112,280,118502,1,2
188,256,118947,2,0,B|224:228|264:256,1,80,0|2
304,324,119836,6,0,B|328:284|376:296,1,80,8|2
448,268,120725,2,0,B|476:232|460:188,1,80,0|2
416,128,121614,1,0
380,56,122058,1,2
304,80,122502,1,0
220,216,123391,6,0,B|212:260|168:272,1,80,8|2
140,196,124280,2,0,B|148:152|192:136,1,80,0|2
268,148,125169,2,0,B|316:136|324:92,1,80,0|2
360,24,126058,1,0
440,12,126502,1,2
460,88,126947,6,0,B|488:184,1,80,0|2
432,228,127836,2,0,B|396:324,1,80,0|2
328,328,128725,2,0,B|252:296|172:328,1,160
124,264,130058,1,2
184,208,130502,6,0,B|220:180|216:136,1,80,4|2
224,60,131391,1,0
300,84,131836,2,0,B|316:40|364:36,2,80,2|0|2
256,148,133169,2,0,B|180:196|104:148,1,160,0|4
100,68,134502,5,2
32,112,134947,1,0
36,192,135391,1,2
256,192,135836,12,2,139391
256,192,144725,5,6
216,232,146503,1,6
296,232,146947,1,6
256,164,147391,1,6
100,120,148280,6,0,B|124:156|168:164,1,80,4|2
236,128,149169,1,0
288,188,149614,1,2
352,140,150058,2,0,B|388:160|436:140,1,80,0|2
500,104,150947,1,0
496,184,151391,1,2
428,224,151836,5,4
368,280,152280,1,2
308,224,152725,1,0
248,280,153169,1,2
188,224,153614,2,0,B|84:224,1,80,0|2
108,144,154503,2,0,B|220:144,1,80,0|2
244,88,155391,6,0,B|316:44|400:72,1,160,6|0
432,144,156725,1,2
380,204,157169,1,0
308,172,157614,1,2
320,92,158058,2,0,B|284:64|240:80,1,80,0|2
184,28,158947,6,0,B|88:40|80:136,1,160,6|0
84,212,160280,1,2
40,280,160725,2,0,B|84:312|144:272,1,80,0|2
192,264,161614,2,0,B|228:240|268:264,1,80,0|2
336,300,162503,5,0
412,276,162947,1,2
436,200,163391,1,0
380,144,163836,1,2
304,172,164280,2,0,B|272:204|228:184,1,80,2|2
164,140,165169,1,0
148,60,165614,1,2
88,112,166058,6,0,B|76:160|24:168,1,80,6|2
24,244,166947,1,0
100,268,167391,1,2
96,348,167836,2,0,B|180:368|252:328,1,160,6|2
256,192,168947,12,0,171391
260,112,178503,6,0,B|260:228,1,80,4|2
220,260,179391,1,0
280,312,179836,1,2
352,280,180280,2,0,B|380:248|424:256,1,80,0|2
412,336,181169,2,0,B|380:368|336:360,1,80,0|2
260,340,182058,5,4
188,304,182503,1,2
180,224,182947,2,0,B|104:180,1,80,0|2
132,108,183836,2,0,B|211:154,1,80,0|2
276,180,184725,2,0,B|345:140,2,80,0|2|6
116,200,186503,5,0
56,148,186947,1,2
96,80,187391,2,0,B|132:108|176:92,1,80,0|2
252,84,188280,2,0,B|292:68|328:88,1,80,0|2
404,64,189169,5,4
388,144,189614,1,2
452,192,190058,2,0,B|416:280,1,80,0|2
464,332,190947,2,0,B|372:360,1,80,0|2
308,356,191836,2,0,B|224:324,2,80,0|2|6
268,200,193614,5,0
208,252,194058,1,2
140,208,194503,1,0
156,128,194947,1,2
236,124,195391,2,0,B|272:152|312:128,1,80,0|2
276,56,196280,5,4
236,124,196725,1,2
232,204,197169,1,0
280,268,197614,1,2
360,284,198058,2,0,B|316:376|228:332,1,160,0|0
76,280,199836,6,0,B|168:256,1,80,6|2
168,180,200725,2,0,B|252:200,1,80,0|2
324,184,201614,2,0,B|416:132,1,80,0|2
376,68,202503,2,0,B|296:116,1,80,0|2
232,84,203391,21,0
168,132,203836,1,2
216,196,204280,1,0
280,148,204725,1,2
232,84,205169,2,0,B|232:264,1,160,6|2
356,344,206947,6,0,B|284:308,1,80,6|2
212,344,207836,1,0
140,308,208280,1,2
84,252,208725,2,0,B|68:212|88:172,1,80,0|2
164,152,209614,2,0,B|188:112|168:76,1,80,0|2
96,108,210503,21,8
44,168,210947,1,2
88,236,211391,1,0
168,220,211836,1,2
176,140,212280,2,0,B|252:96|328:144,1,160,0|0
400,108,213614,1,2
396,188,214058,21,6
324,224,214503,1,2
388,268,214947,1,0
316,300,215391,1,2
240,324,215836,2,0,B|136:356,1,80,0|2
92,308,216725,2,0,B|36:240,1,80,0|2
108,200,217614,22,0,B|140:112,1,80,8|2
208,160,218503,2,0,B|288:96,1,80,0|2
316,176,219391,2,0,B|412:188,1,80,0|2
372,264,220280,1,2
232,340,221169,22,0,B|204:312|156:316,1,80,6|2
180,240,222058,2,0,B|224:252|260:236,1,80,0|2
336,220,222947,1,0
284,160,223391,1,2
204,168,223836,2,0,B|160:180|124:144,1,80,0|2
56,120,224725,6,0,B|32:216,1,80,0|2
116,192,225614,2,0,B|180:244,1,80,0|2
204,320,226503,2,0,B|268:268|356:284,1,160,0|0
428,316,227836,1,2
460,244,228280,6,0,B|428:208|448:160,1,80,6|2
452,88,229169,2,0,B|408:84|380:120,1,80,0|2
376,196,230058,1,0
308,152,230503,1,2
316,72,230947,2,0,B|284:48|240:52,1,80,0|2
172,92,231836,5,0
92,76,232280,1,2
24,120,232725,1,0
28,200,233169,1,2
84,256,233614,2,0,B|164:220|240:272,1,160,0|2
380,336,235391,5,2
452,300,235836,1,2
384,256,236280,1,0
376,96,237169,5,2
312,48,237614,1,2
248,96,238058,2,0,B|152:96,1,80,0|2
96,136,238947,6,0,B|128:176|96:208,1,80,0|2
44,268,239836,2,0,B|76:296|124:284,1,80,0|2
196,272,240725,1,0
276,256,241169,2,0,B|316:240|360:260,1,80,2|0
432,276,242058,6,0,B|432:356,2,80,2|4|2
484,216,243391,1,0
404,200,243836,2,0,B|360:208|332:176,1,80,2|0
392,120,244725,1,2
316,96,245169,2,0,B|224:96,1,80,0|2
192,28,246058,6,0,B|100:60,1,80,0|2
44,92,246947,2,0,B|120:152,1,80,0|2
256,192,247836,12,0,251725
