osu file format v9

[General]
AudioFilename: motto to love.mp3
AudioLeadIn: 0
PreviewTime: 120288
Countdown: 0
SampleSet: Soft
StackLeniency: 0.7
Mode: 0
LetterboxInBreaks: 1

[Editor]
DistanceSpacing: 0.9
BeatDivisor: 4
GridSize: 4

[Metadata]
Title:Living Wars
Artist:Hanazawa Kana
Creator:KayeSara
Version:Normal
Source:To Love
Tags:OzzyOzrock Gabriela Robin Beren AXBXSD

[Difficulty]
HPDrainRate:3
CircleSize:3
OverallDifficulty:2
ApproachRate:3
SliderMultiplier:0.9
SliderTickRate:1

[Events]
//Background and Video events
0,0,"BG.jpg"
//Break Periods
2,20645,30915
2,77448,89550
//Storyboard Layer 0 (Background)
Sprite,Background,Centre,"SB\BLACK.png",320,240 M,0,-188,1529,320,240 M,0,1529,,320,240 F,0,1529,1644,1,0 F,0,1644,1758,0,1 F,0,1758,1873,1,0 F,0,1873,1987,0,1 F,0,1987,2102,1,0 F,0,2102,2159,0,1 F,0,2159,2216,1,0 F,0,2216,2274,0,1 F,0,2274,2331,1,0 F,0,2331,2388,0,1 F,0,2388,2445,1,0 F,0,2445,2503,0,1 F,0,2503,2560,1,0
Sprite,Background,Centre,"SB\spotlight.png",320,240 S,0,2560,,1.9216 F,0,2560,2617,0,1 M,0,2560,3018,262,246,172,160 F,0,2617,2674,1,0 F,0,2674,2732,0,1 F,0,2732,2789,1,0 F,0,2789,2846,0,1 F,0,2846,2903,1,0 F,0,2903,2961,0,1 F,0,2961,3779,1,0.9897598 M,0,3018,3476,172,160,145,250 M,0,3476,3934,145,250,137,328 F,0,3779,4044,0.9897598 M,0,3934,4392,137,328,217,360 M,0,4392,4850,217,360,281,317 M,0,4850,5308,281,317,348,268 M,0,5308,5767,348,268,397,207 M,0,5767,6225,397,207,317,180 M,0,6225,6683,317,180,262,240 M,0,6683,7141,262,240,186,278 M,0,7141,7599,186,278,123,319 M,0,7599,8057,123,319,205,366 M,0,8057,8515,205,366,279,377 M,0,8515,8973,279,377,354,358 M,0,8973,9431,354,358,401,295 M,0,9431,9889,401,295,350,219 M,0,9889,10347,350,219,307,164 M,0,10347,10805,307,164,248,119 M,0,10805,11264,248,119,154,129 M,0,11264,11722,154,129,102,196 M,0,11722,12180,102,196,109,272 M,0,12180,12638,109,272,150,344 M,0,12638,13096,150,344,207,371 M,0,13096,13554,207,371,287,360 M,0,13554,14012,287,360,352,328 M,0,14012,14470,352,328,428,389 M,0,14470,14928,428,389,360,326 M,0,14928,15386,360,326,305,278 M,0,15386,15615,305,278,264,235 M,0,15615,15844,264,235 M,0,15844,16073,264,235,258,235 M,0,16073,20883,258,235 M,0,20883,21227,258,235 M,0,21227,21341,258,235
Sprite,Background,Centre,"SB\BLACK.png",320,240 F,0,-73,,1
Sprite,Background,Centre,"SB\BG2.jpg",320,240 F,0,20883,21101,0 F,0,21101,21227,0 F,0,21227,21341,0,0.4915201 F,0,21341,21456,0.4915201,0 F,0,21456,22143,0,0.008548185 F,0,22143,22258,0.008548185,0.5000682 F,0,22258,22372,0.5000682,0
Sprite,Background,Centre,"SB\BLACK.png",320,240 M,0,21341,,320,240 F,0,21341,21456,0,1 F,0,21456,22143,1
Sprite,Background,Centre,"SB\wave 01.png",320,240 M,0,19967,22258,829,354,180,360 F,0,22029,22258,1,0.47776
Sprite,Background,Centre,"SB\SNOW.png",320,240 M,0,20425,22258,164,483,158,104
Sprite,Background,Centre,"SB\star.png",320,240 M,0,22258,25464,473,409 F,0,25464,26380,0.08352005,1 M,0,25464,28213,473,409,479,12 R,0,25693,25922,0.6963196,1.80224 R,0,25922,26151,1.80224,2.53952 R,0,26151,26380,2.53952,3.072 R,0,26380,26609,3.072,4.25984 F,0,26380,27755,1 R,0,26609,26838,4.25984,5.488641 R,0,26838,27067,5.488641,6.676481 R,0,27067,27297,6.676481,7.74144 R,0,27297,27526,7.74144,8.478721 R,0,27526,27755,8.478721,9.338881 R,0,27755,27984,9.338881,10.69056 F,0,27755,28213,1,0 R,0,27984,28213,10.69056,11.6736
Sprite,Background,Centre,"SB\star4.png",320,240 R,0,26375,26609,0.1228799,1.310721 M,0,26375,27755,143,379,139,27 F,0,26380,26495,0.3856,1 F,0,26495,27640,1 R,0,26609,26838,1.310721,2.334721 R,0,26838,27067,2.334721,3.645441 R,0,27067,27297,3.645441,4.915201 R,0,27297,27526,4.915201,6.225921 R,0,27526,27755,6.225921,7.45472 F,0,27640,27755,1,0
Sprite,Background,Centre,"SB\star3.png",320,240 F,0,25922,26037,0,1 R,0,25922,26151,-1.47456,-0.2867205 M,0,25922,26380,320,405,393,278 F,0,26037,27182,1 R,0,26151,26380,-0.2867205,1.024 R,0,26380,26609,1.024,2.37568 M,0,26380,27297,393,278,328,47 R,0,26609,26838,2.37568,3.60448 R,0,26838,27067,3.60448,4.9152 R,0,27067,27297,4.9152,5.65248 F,0,27182,27297,1,0
Sprite,Background,Centre,"SB\star2.png",320,240 R,0,25922,26151,0.9830402,2.6624 S,0,25922,26380,0.3446398,1.69632 F,0,25922,26838,0,1 M,0,25922,27297,297,246 R,0,26151,26380,2.6624,4.62848 R,0,26380,26609,4.62848,6.22592 S,0,26380,27755,1.69632 R,0,26609,26838,6.22592,7.5776 R,0,26838,27067,7.5776,8.765439 F,0,26838,27526,1 R,0,27067,27297,8.765439,10.0352 R,0,27297,27526,10.0352,11.22304 M,0,27297,27755,297,246,290,69 F,0,27526,27755,1,0 R,0,27526,27755,11.22304,12.57472
Sprite,Background,Centre,"SB\BLACK.png",320,240 M,0,28671,,320,240 F,0,28671,29587,0,1 F,0,29587,30274,1 F,0,30274,30503,1,0 S,0,30503,,1
Sprite,Background,Centre,"SB\star3.png",320,240 M,0,28671,29472,457,74,299,203 F,0,28671,29472,1 R,0,28900,29129,0.65536,1.51552 R,0,29129,29358,1.51552,2.29376 R,0,29358,29472,2.29376,2.90816 R,0,29472,29587,2.90816,2.943731 F,0,29472,30274,1 M,0,29472,30503,299,203,172,45 R,0,29587,29816,2.943731,4.13157 R,0,29816,30045,4.13157,5.52421 R,0,30045,30274,5.52421,6.75301 F,0,30274,30503,1,0 R,0,30274,30503,6.75301,8.06373
Sprite,Background,Centre,"SB\spinner-metre.png",320,240 M,0,22258,32335,346,719,257,260 R,0,22258,32335,0,0.5324805 F,0,30961,31419,1,0
Sprite,Background,Centre,"SB\Ring5.png",320,240 F,0,29129,,1 S,0,29129,29472,0.1 F,0,29129,30503,1 S,0,29472,30961,0.1,1.04208 F,0,30503,30961,1,0
Sprite,Background,Centre,"SB\Hanazawa.png",320,240 S,0,23174,,0.6313601 F,0,23174,23632,0 M,0,23174,32335,174,131 F,0,23632,24090,0,1 F,0,24090,31877,1,0.9979379 F,0,31877,32106,0.9979379,0 F,0,32106,32335,0
Sprite,Background,Centre,"SB\Kana.png",320,240 S,0,24090,,0.6108799 F,0,24090,24548,0,1 M,0,24090,32335,289,131 F,0,24548,32106,1 F,0,32106,32335,1,0
Sprite,Background,Centre,"SB\Font effect.png",320,240 M,0,22716,,184,133 S,0,22716,23632,0.1,0.5096 F,0,23632,24090,1,0
Sprite,Background,Centre,"SB\Font effect.png",320,240 M,0,23174,,272,135 F,0,23174,24090,1 S,0,23174,24090,0.1,0.5095999 F,0,24090,24548,1,0
Sprite,Background,Centre,"SB\Sen.png",320,240 S,0,23632,24548,0.1000001,0.5505602 F,0,23632,31877,1 M,0,23632,32335,219,153 F,0,31877,32335,1,0
Sprite,Background,Centre,"SB\LW.png",320,240 F,0,24548,24777,0,1 S,0,24548,31877,0.6518399 R,0,24548,31877,0.90112 M,0,24548,32335,258,170 F,0,24777,31877,1 R,0,31877,31992,0.90112,2.8672 F,0,31877,32335,1,0 S,0,31877,32335,0.6518399,0.1398398 R,0,31992,32106,2.8672,4.7104 R,0,32106,32221,4.7104,6.758399 R,0,32221,32335,6.758399,8.72448
//Storyboard Layer 1 (Fail)
//Storyboard Layer 2 (Pass)
//Storyboard Layer 3 (Foreground)
//Storyboard Sound Samples
//Background Colour Transformations
3,100,163,162,255

[TimingPoints]
290,458.085203847916,4,2,1,100,1,0
61653,-100,4,1,1,100,0,1
76312,-100,4,1,1,100,0,0
120288,-100,4,1,1,100,0,1
149605,-100,4,1,1,100,0,0
150061,-100,4,1,1,80,0,1
150521,-100,4,1,1,60,0,0
150980,-100,4,1,1,40,0,0
151896,-100,4,1,1,20,0,0
153041,-100,4,1,1,40,0,0
161859,-100,4,1,1,60,0,0

[Colours]
Combo1 : 174,174,253
Combo2 : 157,253,157

[HitObjects]
144,104,3038,1,0
112,264,3954,6,0,B|176:272|200:328,1,90
256,264,4870,1,0
376,152,5787,2,0,B|304:152|280:96,1,90
248,184,6703,1,0
104,264,7619,5,0
248,328,8535,1,0
328,304,8993,1,8
384,240,9451,1,8
288,112,10367,5,8
224,64,10825,2,0,B|176:96|104:56,1,90,0|0
88,136,11742,1,8
72,216,12200,1,0
112,288,12658,1,8
184,320,13116,1,0
336,272,14032,6,0,B|424:352,2,90,8|0|8
280,216,15406,1,0
248,184,15635,1,8
256,192,16322,12,0,20445
240,320,32355,6,0,B|288:248|400:248,1,180
400,168,33730,2,0,B|376:120,1,45
336,56,34417,2,0,B|288:40|240:56,1,90
208,64,35104,1,0
136,104,35562,2,0,B|96:144,1,45
72,208,36249,5,0
80,248,36478,2,0,B|120:304|184:304,1,90,0|0
160,216,37394,2,0,B|200:224|256:192,1,90
192,136,38311,1,0
272,112,38769,2,0,B|328:96,2,45,0|8|8
384,64,39914,6,0,B|424:128|416:208,1,135
376,264,41059,2,0,B|336:288,1,45
264,312,41746,2,0,B|192:304|120:248,1,135
88,200,42891,2,0,B|112:128,1,45
152,48,43808,5,0
288,136,44724,1,0
240,288,45640,1,0
312,320,46098,2,0,B|424:336|480:240,1,180
456,176,47472,5,0
432,96,47930,2,0,B|392:56|312:56,1,90
272,48,48847,2,0,B|240:96|192:96,1,90
128,136,49763,2,0,B|72:136,2,45
200,176,50679,6,0,B|264:176|296:240,1,90
320,280,51595,1,0
392,240,52053,2,0,B|384:184|424:144,1,90
368,88,52969,1,0
296,56,53427,2,0,B|288:0,2,45
232,104,54344,6,0,B|128:104|72:200,1,180
152,220,55718,2,0,B|172:176|240:176,1,90
300,148,56634,1,0
376,120,57092,2,0,B|432:120|448:72,1,90
256,192,58008,12,0,60757
256,192,61673,5,0
296,260,62131,2,0,B|344:224|332:168,1,90
288,116,63047,1,0
208,132,63505,2,0,B|156:132|132:88,1,90,0|0
52,92,64421,2,0,B|20:60,2,45
60,172,65338,6,0,B|116:180|128:240,1,90
180,284,66254,2,0,B|232:276,1,45
300,248,66941,6,0,B|352:212,1,45
388,160,67628,1,0
380,80,68086,2,0,B|436:48,2,45
308,48,69002,6,0,B|208:80,1,90
284,128,69918,2,0,B|204:184,1,90
276,228,70835,2,0,B|216:312,1,90
152,336,71751,1,0
88,288,72209,2,0,B|72:236,1,45
80,164,72896,2,0,B|108:100|184:72,2,135
256,192,74728,12,0,77248
360,304,90990,6,0,B|416:228|384:116,1,180
320,92,92365,2,0,B|272:76,1,45
200,52,93052,2,0,B|124:68|76:136,1,135
48,192,94197,2,0,B|72:248,1,45
148,232,94884,6,0,B|188:204,2,45
132,268,95571,2,0,B|148:316|212:320,1,90
280,316,96487,2,0,B|296:272|340:232,1,90
396,196,97404,2,0,B|460:204,2,45
388,76,98549,6,0,B|356:56|288:48,1,90,0|0
280,84,99236,1,0
252,116,99465,2,0,B|200:108|176:72,1,90
96,84,100381,6,0,B|64:148|72:228,1,135
104,288,101526,2,0,B|152:308,1,45
224,320,102213,2,0,B|284:316,1,45
348,304,102901,2,0,B|420:248,1,90
344,220,103817,2,0,B|388:140,1,90
332,84,104733,2,0,B|316:36,2,45
252,100,105649,6,0,B|184:152|76:132,1,180
40,204,107023,1,0
68,280,107481,2,0,B|112:252|188:292,1,90
224,320,108398,2,0,B|256:368,2,45
224,240,109314,6,0,B|252:192|324:176,1,90
360,232,110230,2,0,B|364:168|428:152,1,90
480,188,111146,2,0,B|468:132|512:80,1,90
420,72,112062,2,0,B|328:32|224:68,1,180
136,116,113666,6,0,B|140:188|84:248,1,135
144,300,114811,1,0
304,268,115727,1,0
308,108,116643,5,0
244,60,117101,1,0
232,140,117559,1,0
168,92,118017,1,0
160,172,118475,6,0,B|184:216,6,45
172,92,120308,6,0,B|204:48|268:56,1,90
240,136,121224,2,0,B|260:180|324:200,1,90
312,112,122140,2,0,B|352:68|320:4,1,90
408,48,123056,2,0,B|464:68,2,45
396,128,123973,6,0,B|392:188|448:220,1,90
476,272,124889,2,0,B|440:328|376:312,1,90
320,308,125805,2,0,B|280:288,1,45
240,276,126263,2,0,B|188:264,1,45
156,260,126721,2,0,B|104:256,2,45
128,184,127637,6,0,B|92:152|108:92,1,90
180,128,128553,2,0,B|188:72|240:60,1,90
252,140,129470,2,0,B|340:116,2,90
208,208,130844,2,0,B|256:232,1,45
228,308,131531,6,0,B|376:336,1,135
436,308,132676,2,0,B|460:256,1,45
460,188,133363,2,0,B|396:124,1,90
320,92,134279,2,0,B|272:84,1,45
216,28,134967,6,0,B|164:32|136:76,1,90
100,140,135883,2,0,B|140:180|108:236,1,90
48,268,136799,2,0,B|52:324|112:340,1,90
168,296,137715,2,0,B|192:228|256:188,1,135
284,264,138860,6,0,B|304:316,1,45
380,296,139547,2,0,B|392:244|452:228,1,90
468,156,140464,2,0,B|484:96,3,45
460,80,141380,2,0,B|404:72|332:20,1,135
256,32,142525,6,0,B|184:24|112:64,1,135
92,132,143670,1,0
68,208,144128,2,0,B|56:252,4,45
148,192,145503,2,0,B|204:204,1,45
160,276,146190,6,0,B|284:340,1,135
292,256,147335,2,0,B|344:268,1,45
256,192,148251,12,0,152374
120,256,153290,6,0,B|140:212|196:204,1,90
216,128,154206,2,0,B|272:124|296:68,1,90
368,80,155122,2,0,B|384:128,1,45
408,200,155809,2,0,B|328:216|308:280,1,135
232,312,156955,6,0,B|128:320|64:232,1,180
72,84,158787,2,0,B|120:20|240:28,1,180
336,156,160619,2,0,B|224:192|224:296,1,180
304,276,161994,1,0
304,276,162223,1,0
384,288,162681,6,0,B|436:260|432:200,1,90
416,180,163368,1,0
380,108,163826,2,0,B|324:84,1,45
300,84,164284,1,0
