osu file format v9

[General]
AudioFilename: motto to love.mp3
AudioLeadIn: 0
PreviewTime: 120288
Countdown: 1
SampleSet: Soft
StackLeniency: 0.7
Mode: 0
LetterboxInBreaks: 1

[Editor]
Bookmarks: 91199
DistanceSpacing: 1
BeatDivisor: 4
GridSize: 4

[Metadata]
Title:Living Wars
Artist:Hanazawa Kana
Creator:KayeSara
Version:Beren&Robin
Source:To Love
Tags:OzzyOzrock Gabriela Robin Beren AXBXSD

[Difficulty]
HPDrainRate:5
CircleSize:4
OverallDifficulty:5
ApproachRate:7
SliderMultiplier:1.6
SliderTickRate:0.5

[Events]
//Background and Video events
0,0,"BG.jpg"
//Break Periods
2,19709,31665
2,78344,90299
2,151638,156035
//Storyboard Layer 0 (Background)
//Storyboard Layer 1 (Fail)
//Storyboard Layer 2 (Pass)
//Storyboard Layer 3 (Foreground)
//Storyboard Sound Samples
//Background Colour Transformations
3,100,163,162,255

[TimingPoints]
290,458.085203847916,4,2,1,100,1,0
10233,-100,4,1,1,100,0,0
10462,-100,4,2,1,100,0,0
12065,-100,4,2,2,100,0,0
12294,-100,4,2,1,100,0,0
13898,-100,4,1,1,100,0,0
14127,-100,4,2,1,100,0,0
38863,-100,4,2,0,100,0,0
39092,-100,4,2,1,100,0,0
46880,-100,4,1,1,100,0,0
47109,-100,4,2,1,100,0,0
61596,-100,4,1,1,100,0,0
61653,-100,4,1,1,100,0,1
61710,-100,4,2,1,100,0,1
76312,-100,4,2,1,100,0,0
97555,-100,4,2,0,100,0,0
97670,-100,4,2,1,100,0,0
98013,-100,4,2,0,100,0,0
98357,-100,4,2,1,100,0,0
105572,-100,4,1,1,100,0,0
105686,-100,4,2,1,100,0,0
112958,-50,4,2,1,5,0,0
113188,-100,4,2,1,5,0,0
113245,-100,4,2,1,100,0,0
120231,-100,4,1,1,100,0,0
120288,-100,4,1,1,100,0,1
120345,-100,4,2,1,100,0,1
127503,-100,4,1,1,100,0,1
127732,-100,4,2,1,100,0,1
134889,-100,4,1,1,100,0,1
135004,-100,4,2,1,100,0,1
142219,-100,4,1,1,100,0,1
142333,-100,4,2,1,100,0,1
149605,-100,4,2,1,100,0,0
164264,-200,4,2,1,100,0,0
166096,-100,4,2,1,100,0,0

[Colours]
Combo1 : 128,0,255
Combo2 : 0,128,192

[HitObjects]
256,48,3267,1,0
184,88,3496,1,0
144,160,3725,1,0
184,232,3954,2,0,B|160:312|80:368,1,160
56,288,4641,5,0
80,208,4870,1,0
144,160,5099,1,0
224,160,5328,2,0,B|264:168|304:200,1,80
296,272,5787,2,0,B|384:264|464:216,1,160
447,225,6474,1,0
336,112,6932,5,0
264,88,7161,1,0
224,160,7390,1,0
184,88,7619,2,0,B|160:56|120:40,1,80
184,88,8077,2,0,B|144:92|110:119,1,80
144,192,8535,5,0
184,264,8764,1,0
220,336,8993,2,0,B|252:328|256:320|256:320|260:328|308:340,1,80
328,264,9451,1,0
328,144,9795,1,0
416,64,10138,1,0
336,64,10367,5,4
328,144,10596,2,0,B|352:184|408:208,2,80
264,104,11284,2,0,B|208:160|104:192,1,160
48,160,11971,1,0
108,104,12200,5,8
128,184,12429,1,0
168,256,12658,2,0,B|216:320|304:352,1,160
360,304,13345,2,0,B|376:264|424:232,2,80
440,320,14032,5,4
360,304,14261,1,0
328,232,14490,1,8
336,152,14719,2,0,B|376:128|392:80,1,80
496,144,15292,2,0,B|447:108|381:90,1,120,0|8
232,112,16093,6,0,B|208:80|168:56,2,80,0|0|8
280,264,17010,2,0,B|304:296|344:320,1,80,0|8
360,240,17468,2,0,B|384:156|440:92,1,160
256,192,18155,12,0,19529
400,312,32585,5,0
352,248,32814,2,0,B|320:216|264:192,1,80,8|0
208,224,33272,2,0,B|168:264|96:304,2,120
80,136,34417,5,0
152,168,34646,1,8
208,224,34875,1,0
232,144,35104,2,0,B|280:80|368:40,1,160,0|8
356,45,35791,1,0
328,200,36249,6,0,B|344:248|368:280,1,80,0|8
208,224,36936,2,0,B|152:280|64:312,1,160,0|8
56,232,37623,1,0
48,192,37738,1,0
56,152,37852,1,0
128,192,38082,1,0
128,192,38311,1,8
144,112,38540,2,0,B|168:80|208:56,1,80
360,84,38998,2,0,B|376:124|424:148,1,80,2|8
216,312,39914,6,0,B|280:296|328:256,1,120
323,259,40372,1,0
400,244,40601,2,0,B|424:300|480:340,2,120
296,124,41746,2,0,B|276:88|244:64,2,80
216,140,42433,2,0,B|216:204|176:260,2,120
56,140,43579,5,0
88,216,43808,1,8
216,308,44266,1,0
328,352,44609,1,0
304,232,44953,1,0
336,208,45067,1,0
376,192,45182,1,0
400,120,45411,2,0,B|352:120|328:80|328:80|280:80|240:40,1,160
184,72,46098,1,8
84,200,46327,1,0
92,40,46556,1,8
180,172,46785,1,0
28,116,47014,5,4
180,172,47472,2,0,B|188:216|220:252,1,80,8|0
272,188,47930,2,0,B|204:240|168:312,1,160,0|8
272,188,48847,2,0,B|340:136|376:64,1,160,0|8
374,66,49534,1,0
428,128,49763,2,0,B|440:172|476:216,2,80,0|8|8
452,52,50450,5,0
292,48,50679,1,0
292,48,50793,1,0
292,48,50908,2,0,B|258:26|210:18,2,80,0|8|0
428,128,51595,1,0
488,276,51824,1,0
328,256,52053,1,8
168,276,52511,6,0,B|196:304|216:364,2,80,0|0|8
100,232,53198,2,0,B|104:192|128:156,1,80
176,96,53656,1,8
336,96,53885,1,8
256,120,54115,1,0
288,192,54344,6,0,B|320:272|392:320,1,160,0|8
440,256,55031,1,0
440,256,55145,1,0
440,256,55260,1,0
288,192,55489,1,0
128,208,55718,1,8
40,72,55947,1,0
120,96,56176,6,0,B|160:104|208:128,1,80
272,104,56634,2,0,B|336:88|400:56,1,120,8|0
384,63,57092,1,0
456,96,57321,1,0
408,160,57550,5,8
440,232,57779,1,0
384,288,58008,2,0,B|336:360,1,80
296,200,58466,2,0,B|344:128,1,80,8|0
272,96,58924,2,0,B|208:48|120:32,1,160,0|8
48,168,59841,5,8
200,224,60299,1,8
280,360,60757,1,8
312,344,60871,1,0
344,320,60986,1,0
372,292,61100,1,0
392,260,61215,1,8
404,224,61329,1,0
408,184,61444,1,0
412,144,61558,1,0
408,104,61673,1,4
356,44,61902,5,0
284,80,62131,1,8
204,96,62360,1,0
200,176,62589,1,0
200,176,62704,1,0
200,176,62818,2,0,B|212:224|236:264,2,80,0|8|0
132,132,63505,5,0
132,132,63620,1,0
132,132,63734,1,0
68,84,63963,2,0,B|32:56|0:8,2,80,8|0|0
132,132,64650,2,0,B|116:176|80:220,2,80,0|8|0
140,52,65338,1,0
204,100,65567,5,0
272,140,65796,2,0,B|312:164|364:176,1,80,8|0
416,136,66254,2,0,B|416:68|444:8,2,120
416,216,67170,5,0
336,272,67399,1,0
232,308,67628,1,8
104,328,67857,1,0
64,260,68086,2,0,B|36:200|24:140,2,120
216,212,69231,5,0
276,156,69460,2,0,B|308:124|336:84,1,80,8|0
396,52,69918,2,0,B|456:72|512:112,2,120
392,132,70835,5,0
368,208,71064,1,0
308,264,71293,2,0,B|320:316|356:364,2,80,8|0|0
232,172,72094,1,0
140,96,72438,1,0
108,252,72896,5,0
188,240,73125,1,8
232,172,73354,1,0
276,104,73583,2,0,B|312:56|376:28,2,120
316,260,74728,5,0
168,320,74957,1,8
232,172,75186,1,0
232,172,75645,1,0
188,240,75874,1,8
164,224,75988,1,0
140,208,76103,2,0,B|107:177|76:136,2,80
256,192,76790,12,0,78164
44,106,91219,6,0,B|130:106|202:152,1,160
254,203,91907,2,0,B|254:326,2,120
316,152,92823,1,0
392,127,93052,5,0
437,193,93281,1,8
385,254,93510,1,0
308,232,93739,2,0,B|271:286|207:309,2,120
316,152,94655,1,0
272,84,94884,5,0
200,48,95113,2,0,B|95:47,1,80,8|0
43,140,95571,2,0,B|144:140,1,80
195,210,96029,1,8
256,158,96258,1,0
256,158,96373,1,0
256,158,96487,1,0
335,158,96716,1,0
335,158,96831,1,0
335,158,96945,1,8
397,208,97175,1,0
437,276,97404,1,0
357,275,97633,5,2
278,192,97862,1,8
178,316,98091,1,2
95,128,98320,1,2
152,72,98549,6,0,B|257:72,2,80,0|8|0
95,128,99236,2,0,B|96:275,2,120
153,73,100152,1,0
164,152,100381,5,0
244,168,100610,1,8
288,100,100839,1,0
228,44,101068,2,0,B|284:16|364:16,2,120
288,100,101984,1,0
324,172,102213,5,0
376,232,102443,2,0,B|418:151|496:115,2,160,8|0|8
348,308,103588,1,0
348,308,103702,1,0
348,308,103817,1,0
275,274,104046,1,0
275,274,104160,1,0
275,274,104275,1,8
200,300,104504,1,0
132,344,104733,5,0
115,307,104847,1,0
106,267,104962,1,0
111,227,105076,1,0
121,188,105191,1,0
142,153,105306,1,0
161,119,105420,1,0
161,78,105535,1,0
152,38,105649,1,4
256,160,106107,5,8
385,66,106565,1,0
256,160,107023,1,8
224,316,107481,2,0,B|269:361|331:374,2,120
168,260,108398,1,0
142,184,108627,1,8
142,184,108856,1,8
75,138,109085,5,0
100,107,109199,1,0
134,86,109314,2,0,B|191:66|270:65,1,120
368,44,110001,2,0,B|352:148|280:280,1,240,0|8
128,252,111146,2,0,B|172:299|186:366,2,120
96,180,112062,1,0
148,119,112291,1,8
148,119,112520,1,8
256,192,112978,6,0,B|304:224|256:320|204:224|256:192,1,160
339,53,113666,5,0
339,53,113780,1,0
339,53,113895,2,0,B|422:51,2,80,0|0|8
298,122,114582,1,0
257,53,114811,2,0,B|128:54,2,120
453,190,116185,5,8
351,313,116643,5,0
191,315,117101,5,8
86,193,117559,5,0
187,69,118017,5,8
266,69,118246,1,0
266,69,118361,1,0
266,69,118475,5,0
155,316,118934,5,8
408,182,119392,5,8
120,190,119850,5,8
350,313,120308,1,4
292,257,120537,5,0
237,315,120766,1,8
184,255,120995,1,0
128,312,121224,2,0,B|-5:312,2,120
184,255,122140,1,0
153,181,122369,1,0
216,131,122598,1,8
283,173,122827,1,0
268,251,123056,2,0,B|292:320|354:368,2,120
283,173,123973,1,0
280,92,124202,5,0
280,92,124431,1,8
340,39,124660,1,0
396,95,124889,2,0,B|397:228,2,120
448,36,125805,1,0
396,96,126034,1,0
340,40,126263,1,8
280,92,126492,1,0
216,144,126721,2,0,B|171:98|90:68,2,120
180,216,127637,1,4
236,272,127866,5,0
312,244,128095,1,8
300,164,128324,1,0
300,164,128553,2,0,B|303:98|351:45,2,120
236,272,129470,2,0,B|136:272,1,80
312,244,129928,2,0,B|412:244,1,80,8|0
300,164,130386,2,0,B|277:100|220:56,2,120
312,244,131302,1,0
236,272,131531,5,0
172,320,131760,1,8
104,280,131989,1,0
52,220,132218,2,0,B|53:82,2,120
140,88,133363,1,8
216,64,133592,1,8
296,48,133821,1,8
224,192,134279,2,0,B|264:201|264:201|325:243,1,80
324,251,134623,1,0
348,283,134738,1,0
376,311,134852,1,0
410,331,134967,1,4
432,256,135196,5,0
468,184,135425,1,8
408,132,135654,1,0
379,100,135768,1,0
359,64,135883,2,0,B|415:29|502:29,2,120
408,132,136799,1,0
348,184,137028,1,0
280,144,137257,1,8
304,68,137486,1,0
384,56,137715,2,0,B|442:86|481:137,2,120
304,68,138631,1,0
224,84,138860,5,0
152,116,139089,1,8
96,172,139318,1,0
72,204,139433,1,0
56,240,139547,2,0,B|115:282|137:369,2,120
96,172,140464,1,0
172,192,140693,1,0
240,236,140922,1,8
300,288,141151,1,0
376,268,141380,2,0,B|424:217|507:197,2,120
300,288,142296,1,4
228,324,142525,6,0,B|128:324,1,80,0|8
72,300,142983,1,0
72,300,143098,1,0
72,300,143212,2,0,B|121:203,1,80
108,228,143556,1,0
108,228,143670,2,0,B|193:172,1,80,8|0
174,183,144014,1,0
174,183,144128,2,0,B|267:182,1,80
253,182,144472,1,0
253,182,144586,2,0,B|339:151,1,80,8|0
344,76,145044,2,0,B|475:76,2,120
264,76,145961,1,0
184,77,146190,5,0
184,77,146304,1,0
184,77,146419,2,0,B|231:146,1,80,8|0
229,143,146762,1,0
229,143,146877,2,0,B|203:234,1,80
207,220,147220,1,0
207,220,147335,2,0,B|264:296,1,80,8|0
368,168,148022,1,8
437,208,148251,1,8
485,271,148480,1,8
256,192,148938,12,0,151458
59,86,156955,5,0
132,54,157184,1,0
204,87,157413,1,8
218,165,157642,1,0
287,203,157871,1,0
353,247,158100,1,0
392,247,158214,1,0
442,309,158443,1,0
482,309,158558,1,0
364,351,158787,5,0
284,341,159016,1,0
232,279,159245,1,8
233,199,159474,1,0
275,131,159703,2,0,B|329:84|401:55,2,120
233,199,160619,5,0
162,237,160848,1,0
89,204,161077,1,8
63,128,161306,1,0
89,204,161535,1,0
59,278,161765,1,0
59,278,161879,1,0
121,327,162108,1,0
121,327,162223,1,0
211,195,162681,6,0,B|210:100,2,80
267,251,163368,2,0,B|317:296|401:312,2,120
212,196,164284,2,0,B|189:161|189:161|193:224|193:224|163:174|163:174|163:213|163:213|140:190|140:190|135:198|135:198|87:197|42:197,1,320
