osu file format v12

[General]
AudioFilename: Koi no Shirushi (shiori).mp3
AudioLeadIn: 1000
PreviewTime: 66009
Countdown: 0
SampleSet: None
StackLeniency: 0.7
Mode: 0
LetterboxInBreaks: 1

[Editor]
Bookmarks: 555,18009,66009,92191,98009,141645,167827,170736,180918,186736,192555,230373
DistanceSpacing: 1.2
BeatDivisor: 4
GridSize: 8

[Metadata]
Title:Koi no Shirushi (Shiori ver.)
TitleUnicode:コイノシルシ (栞 ver.)
Artist:Hanazawa Kana
ArtistUnicode:花澤香菜
Creator:Anzo-nii
Version:Insane
Source:Kami Nomi zo Shiru Sekai
Tags:the world god only knows
BeatmapID:249520
BeatmapSetID:92260

[Difficulty]
HPDrainRate:8
CircleSize:4
OverallDifficulty:7
ApproachRate:8
SliderMultiplier:1.7
SliderTickRate:1

[Events]
//Background and Video events
0,0,"shiori yay!.jpg",1,1
//Break Periods
2,6573,17259
2,41482,46350
//Storyboard Layer 0 (Background)
//Storyboard Layer 1 (Fail)
//Storyboard Layer 2 (Pass)
//Storyboard Layer 3 (Foreground)
//Storyboard Sound Samples
//Background Colour Transformations
3,100,163,162,255

[TimingPoints]
555,363.636363636364,4,3,0,70,1,0
66009,-100,4,3,0,70,0,1
92191,-100,4,3,0,70,0,0
141645,-100,4,3,0,70,0,1
167827,-100,4,3,0,70,0,0
192555,-100,4,3,0,70,0,1
204100,-100,4,3,0,70,0,0
204191,-100,4,3,0,70,0,1
215827,-100,4,3,0,70,0,0
216191,-100,4,3,0,70,0,1
230373,-100,4,3,0,70,0,0

[Colours]
Combo1 : 255,128,128
Combo2 : 255,128,192
Combo3 : 255,0,255
Combo4 : 255,0,128

[HitObjects]
168,72,555,1,0,0:0:0:0:
168,72,736,1,0,0:0:0:0:
89,244,918,2,0,L|128:168,1,85
232,128,1282,5,0,0:0:0:0:
232,128,1464,1,0,0:0:0:0:
232,317,1645,2,0,L|232:232,1,85
312,104,2009,5,0,0:0:0:0:
312,104,2191,1,0,0:0:0:0:
382,276,2373,2,0,L|344:200,1,85
256,320,2736,5,0,0:0:0:0:
112,200,2918,1,0,0:0:0:0:
160,288,3100,1,0,0:0:0:0:
128,96,3282,1,0,0:0:0:0:
304,216,3464,5,0,0:0:0:0:
264,120,3645,1,0,0:0:0:0:
368,136,3827,1,0,0:0:0:0:
352,264,4009,5,0,0:0:0:0:
312,168,4191,1,0,0:0:0:0:
416,184,4373,1,0,0:0:0:0:
400,312,4555,5,0,0:0:0:0:
360,216,4736,1,0,0:0:0:0:
464,232,4918,1,0,0:0:0:0:
400,312,5100,5,0,0:0:0:0:
264,120,5282,1,0,0:0:0:0:
464,232,5464,1,0,0:0:0:0:
352,264,5645,5,0,0:0:0:0:
312,168,5827,1,0,0:0:0:0:
416,184,6009,1,0,0:0:0:0:
360,216,6191,5,0,0:0:0:0:
360,216,6282,1,0,0:0:0:0:
360,216,6373,1,0,0:0:0:0:
50,161,18009,5,0,0:0:0:0:
122,88,18191,1,0,0:0:0:0:
224,88,18373,1,0,0:0:0:0:
296,160,18555,2,0,L|472:160,2,170
184,328,19464,1,0,0:0:0:0:
288,328,19645,1,0,0:0:0:0:
360,255,19827,1,0,0:0:0:0:
257,255,20009,2,0,L|80:256,2,170
395,75,20918,6,0,P|408:144|329:182,3,170
154,44,22373,2,0,L|314:104,1,170
408,136,22918,1,0,0:0:0:0:
408,136,23282,5,0,0:0:0:0:
408,240,23464,1,0,0:0:0:0:
312,200,23645,1,0,0:0:0:0:
256,288,23827,5,0,0:0:0:0:
153,288,24009,1,0,0:0:0:0:
80,215,24191,1,0,0:0:0:0:
80,112,24373,2,0,L|240:32,2,170
352,192,25282,1,0,0:0:0:0:
248,192,25463,1,0,0:0:0:0:
182,112,25645,1,0,0:0:0:0:
254,39,25827,2,0,L|424:40,2,170
99,209,26736,6,0,P|168:200|184:112,1,170
361,268,27282,2,0,P|273:252|264:184,1,170
312,96,27827,1,0,0:0:0:0:
384,168,28009,1,0,0:0:0:0:
384,168,28100,1,0,0:0:0:0:
384,168,28191,2,0,P|424:256|384:312,1,170
167,291,28736,2,0,P|248:296|312:240,1,170
216,200,29282,2,0,L|176:120,1,85
256,56,29645,5,0,0:0:0:0:
360,72,29827,1,0,0:0:0:0:
432,144,30009,1,0,0:0:0:0:
448,248,30191,2,0,P|440:320|352:304,2,170
256,56,31100,1,0,0:0:0:0:
152,72,31282,1,0,0:0:0:0:
80,144,31464,1,0,0:0:0:0:
64,248,31646,2,0,P|72:320|160:304,2,170
160,224,32555,6,0,L|216:160|216:160,1,85
288,88,32918,1,0,0:0:0:0:
288,88,33100,1,0,0:0:0:0:
288,240,33282,2,0,L|344:176|344:176,1,85
416,104,33645,1,0,0:0:0:0:
416,104,33827,1,0,0:0:0:0:
368,321,34009,2,0,P|440:288|432:208,1,170
360,128,34555,2,0,P|288:161|296:241,1,170
392,216,35100,2,0,L|312:176,1,85
224,128,35464,5,0,0:0:0:0:
128,96,35645,1,0,0:0:0:0:
40,144,35827,1,0,0:0:0:0:
40,248,36009,2,0,P|64:312|160:320,2,170
224,128,36918,1,0,0:0:0:0:
208,232,37100,1,0,0:0:0:0:
288,296,37282,1,0,0:0:0:0:
392,280,37464,2,0,P|456:256|464:160,2,170
360,184,38373,5,0,0:0:0:0:
360,184,38736,1,0,0:0:0:0:
272,128,38918,1,0,0:0:0:0:
360,184,39282,1,0,0:0:0:0:
272,128,39464,1,0,0:0:0:0:
184,72,39645,1,0,0:0:0:0:
360,184,40009,1,0,0:0:0:0:
272,128,40191,1,0,0:0:0:0:
192,192,40373,1,0,0:0:0:0:
112,256,40555,1,0,0:0:0:0:
32,192,40736,1,0,0:0:0:0:
32,192,41100,1,0,0:0:0:0:
32,192,41191,1,0,0:0:0:0:
32,192,41282,5,0,0:0:0:0:
256,192,47100,12,0,48191,0:0:0:0:
64,200,48555,6,0,P|104:136|192:160,1,170
80,80,49100,2,0,L|152:240,1,170
192,328,49645,1,0,0:0:0:0:
192,328,49827,1,0,0:0:0:0:
288,288,50009,6,0,L|368:256,1,85,0|0,0:0|0:0,0:0:0:0:
464,232,50373,1,0,0:0:0:0:
464,232,50555,2,0,L|385:200,1,85,0|0,0:0|0:0,0:0:0:0:
288,176,50919,1,0,0:0:0:0:
288,176,51100,2,0,L|366:144,1,85,0|0,0:0|0:0,0:0:0:0:
464,120,51464,1,0,0:0:0:0:
320,32,51645,1,0,0:0:0:0:
160,80,51827,1,0,0:0:0:0:
96,240,52009,5,0,0:0:0:0:
96,240,52373,1,0,0:0:0:0:
96,240,52736,6,0,P|152:304|248:304,1,170
280,296,53191,1,0,0:0:0:0:
328,280,53282,1,0,0:0:0:0:
408,216,53464,1,0,0:0:0:0:
408,112,53645,1,0,0:0:0:0:
328,64,53827,1,0,0:0:0:0:
328,168,54009,1,0,0:0:0:0:
240,112,54191,1,0,0:0:0:0:
240,216,54373,2,0,P|160:248|72:240,1,170
136,160,54918,2,0,P|176:240|160:320,1,170
80,248,55464,1,0,0:0:0:0:
80,248,55645,1,0,0:0:0:0:
152,176,55827,6,0,P|184:148|232:136,1,85
363,184,56191,2,0,P|316:197|280:224,1,85
352,288,56555,2,0,L|432:320|432:320,2,85
272,352,57100,1,0,0:0:0:0:
176,328,57282,1,0,0:0:0:0:
96,272,57464,2,0,P|56:192|64:112,2,170
63,113,58373,1,0,0:0:0:0:
63,113,58555,1,0,0:0:0:0:
283,128,58736,6,0,P|200:104|152:160,1,170
414,98,59282,2,0,P|366:154|282:129,1,170
232,208,59827,1,0,0:0:0:0:
336,48,60009,1,0,0:0:0:0:
408,200,60191,2,0,P|400:288|328:296,1,170
132,221,60736,2,0,P|142:289|230:297,1,170
336,224,61282,1,0,0:0:0:0:
208,224,61464,1,0,0:0:0:0:
432,160,61645,6,0,P|392:64|272:104,2,255
376,248,62918,1,0,0:0:0:0:
336,280,63009,1,0,0:0:0:0:
288,304,63100,1,0,0:0:0:0:
184,304,63282,1,0,0:0:0:0:
136,288,63373,1,0,0:0:0:0:
96,256,63464,1,0,0:0:0:0:
48,168,63645,1,0,0:0:0:0:
192,72,63827,1,0,0:0:0:0:
141,214,64009,1,0,0:0:0:0:
88,72,64191,1,0,0:0:0:0:
232,168,64373,1,0,0:0:0:0:
416,96,64918,5,0,0:0:0:0:
440,192,65282,1,0,0:0:0:0:
416,288,65645,1,0,0:0:0:0:
216,320,66009,6,0,L|40:320,2,170
184,224,66918,1,0,0:0:0:0:
232,136,67100,1,0,0:0:0:0:
304,64,67282,2,0,P|384:32|432:88,1,170
448,192,67827,1,0,0:0:0:0:
448,192,68009,1,0,0:0:0:0:
376,264,68191,1,0,0:0:0:0:
216,320,68373,1,0,0:0:0:0:
376,264,68555,1,0,0:0:0:0:
152,144,68736,1,0,0:0:0:0:
152,144,68918,6,0,P|144:72|56:72,2,170
56,168,69827,2,0,P|23:195|8:240,1,85
88,256,70191,2,0,L|96:344,1,85
200,336,70555,1,0,0:0:0:0:
272,264,70736,1,0,0:0:0:0:
272,160,70918,1,0,0:0:0:0:
328,72,71100,1,0,0:0:0:0:
448,192,71282,1,0,0:0:0:0:
328,72,71464,1,0,0:0:0:0:
408,312,71645,1,0,0:0:0:0:
408,312,71827,6,0,L|232:312,2,170
360,224,72736,1,0,0:0:0:0:
264,192,72918,1,0,0:0:0:0:
160,192,73100,1,0,0:0:0:0:
56,192,73282,2,0,L|24:112,2,85
56,192,73827,2,0,L|24:270,2,85
160,192,74373,1,0,0:0:0:0:
224,112,74555,1,0,0:0:0:0:
320,72,74736,2,0,P|392:48|464:104,1,170
320,72,75282,2,0,P|344:144|288:216,1,170
462,100,75827,1,0,0:0:0:0:
440,200,76009,5,0,0:0:0:0:
331,308,76191,1,0,0:0:0:0:
475,256,76373,1,0,0:0:0:0:
366,147,76555,1,0,0:0:0:0:
416,288,76736,1,0,0:0:0:0:
256,304,77100,5,0,0:0:0:0:
208,296,77191,1,0,0:0:0:0:
160,280,77282,1,0,0:0:0:0:
112,256,77373,1,0,0:0:0:0:
80,216,77464,1,0,0:0:0:0:
40,120,77645,6,0,P|88:49|160:65,2,170
136,144,78555,2,0,P|176:144|216:120,1,85
288,56,78918,2,0,P|376:32|440:72,1,170
352,128,79464,1,0,0:0:0:0:
400,216,79645,1,0,0:0:0:0:
352,304,79827,1,0,0:0:0:0:
176,304,80009,1,0,0:0:0:0:
352,304,80191,1,0,0:0:0:0:
120,192,80373,1,0,0:0:0:0:
256,128,80555,6,0,L|408:48|408:48,2,170
184,56,81464,2,0,P|152:96|152:128,1,85
136,232,81827,2,0,P|73:160|65:88,1,170
136,232,82373,1,0,0:0:0:0:
192,320,82555,1,0,0:0:0:0:
296,320,82736,1,0,0:0:0:0:
272,152,82918,1,0,0:0:0:0:
296,320,83100,1,0,0:0:0:0:
480,144,83282,1,0,0:0:0:0:
480,144,83464,6,0,P|448:72|368:88,1,170
256,200,84009,2,0,P|178:213|146:141,1,170
232,88,84555,1,0,0:0:0:0:
320,136,84736,1,0,0:0:0:0:
352,232,84918,1,0,0:0:0:0:
288,312,85100,1,0,0:0:0:0:
184,328,85282,2,0,L|96:328,1,85
448,152,85827,6,0,P|464:192|448:232,1,85,0|0,0:0|0:0,0:0:0:0:
352,192,86191,1,0,0:0:0:0:
64,232,86555,6,0,P|48:192|64:152,1,85,0|0,0:0|0:0,0:0:0:0:
160,192,86919,1,0,0:0:0:0:
216,64,87282,6,0,P|256:48|296:64,1,85,0|0,0:0|0:0,0:0:0:0:
256,160,87645,1,0,0:0:0:0:
320,240,87827,2,0,L|408:240,1,85
192,240,88191,2,0,L|107:240,1,85
368,320,88555,2,0,L|456:320,1,85
136,320,88919,2,0,L|51:320,1,85
256,192,89282,12,0,91464,0:0:0:0:
256,192,91827,5,0,0:0:0:0:
256,192,92191,5,0,0:0:0:0:
192,112,92373,1,0,0:0:0:0:
96,136,92555,1,0,0:0:0:0:
80,240,92736,2,0,P|104:320|184:344,1,170
280,320,93282,1,0,0:0:0:0:
368,264,93464,1,0,0:0:0:0:
376,64,93645,2,0,P|424:72|456:96,2,85
392,168,94191,2,0,P|320:152|272:72,1,170
376,64,94736,2,0,L|320:136,1,85
264,216,95100,6,0,P|208:280|128:248,2,170
176,168,96009,1,0,0:0:0:0:
120,96,96191,1,0,0:0:0:0:
64,192,96373,1,0,0:0:0:0:
259,121,96555,2,0,P|224:80|120:96,1,170
176,168,97100,2,0,P|211:209|315:193,1,170
392,128,97645,2,0,L|456:72,1,85
392,256,98009,6,0,L|456:312,2,85
304,304,98555,2,0,P|208:320|136:304,1,170
56,248,99100,1,0,0:0:0:0:
56,248,99282,1,0,0:0:0:0:
184,104,99464,2,0,L|104:64,2,85
264,40,100009,2,0,B|320:96|416:120,1,170
512,144,100555,1,0,0:0:0:0:
512,144,100736,1,0,0:0:0:0:
400,304,100918,6,0,P|320:336|240:312,1,170
168,248,101464,2,0,P|120:176|136:96,1,170
216,160,102009,2,0,L|304:136,1,85
344,128,102282,1,0,0:0:0:0:
392,120,102373,1,0,0:0:0:0:
344,128,102736,1,0,0:0:0:0:
392,120,102918,1,0,0:0:0:0:
344,128,103282,1,0,0:0:0:0:
392,120,103463,1,0,0:0:0:0:
448,112,103645,1,0,0:0:0:0:
