osu file format v9

[General]
AudioFilename: Shoooooter!.mp3
AudioLeadIn: 1000
PreviewTime: 59890
Countdown: 0
SampleSet: Soft
StackLeniency: 0.7
Mode: 0
LetterboxInBreaks: 0

[Editor]
DistanceSpacing: 1.5
BeatDivisor: 4
GridSize: 4

[Metadata]
Title:Jishu Koi Shoooooter! (Short Ver.)
Artist:Hanazawa Kana
Creator:KayeSara
Version:Hard
Source:RO-KYU-BU!
Tags:mjw5150 Kanpakyin Minato Tomoka

[Difficulty]
HPDrainRate:6
CircleSize:4
OverallDifficulty:6
ApproachRate:7
SliderMultiplier:1.2
SliderTickRate:2

[Events]
//Background and Video events
0,0,"BG.jpg"
//Break Periods
2,9082,20542
2,98142,108854
//Storyboard Layer 0 (Background)
//Storyboard Layer 1 (Fail)
//Storyboard Layer 2 (Pass)
//Storyboard Layer 3 (Foreground)
//Storyboard Sound Samples
//Background Colour Transformations
3,100,163,162,255

[TimingPoints]
1757,375,4,2,1,70,1,0
6160,-100,4,2,1,60,0,0
6347,-100,4,2,1,50,0,0
6535,-100,4,2,1,80,0,0
7379,-100,4,2,1,70,0,0
8316,-100,4,2,1,60,0,0
8691,-100,4,2,1,50,0,0
9442,375,4,2,1,80,1,0
21348,-100,4,2,1,90,0,0
32973,-100,4,2,1,70,0,0
33160,-100,4,2,1,90,0,0
35223,-100,4,2,1,70,0,0
35410,-100,4,2,1,90,0,0
39723,-100,4,2,1,70,0,0
39910,-100,4,2,1,90,0,0
40473,-100,4,2,1,70,0,0
40660,-100,4,2,1,90,0,0
44973,-100,4,2,1,70,0,0
45723,-133.333333333333,4,2,1,70,0,0
51348,-100,4,2,1,80,0,0
52848,-100,4,2,1,90,0,0
58192,-100,4,2,1,80,0,0
59785,-100,4,2,1,90,0,0
60254,-100,4,2,1,100,0,1
60910,-100,4,2,1,70,0,1
61098,-100,4,2,1,100,0,1
88942,-100,4,2,1,70,0,0
91848,-100,4,2,1,80,0,0
94848,-100,4,2,1,90,0,0
109660,-133.333333333333,4,2,1,60,0,0
115848,-100,4,2,1,80,0,0
118848,-100,4,2,1,90,0,0
126254,-100,4,2,1,100,0,1
156442,-100,4,2,1,60,0,0
156629,-100,4,2,1,70,0,0

[Colours]
Combo1 : 53,168,253
Combo2 : 176,249,128

[HitObjects]
68,176,1382,1,2
156,156,1569,1,0
96,88,1757,2,0,B|152:56|216:88,1,120,2|0
156,156,2319,1,2
230,206,2507,2,0,B|287:250|356:208,1,120
440,136,3257,1,2
284,44,3632,1,2
357,95,3819,1,0
159,206,4382,5,2
248,196,4569,1,0
212,280,4757,2,0,B|277:309|328:248,1,120,2|0
356,168,5319,1,2
320,257,5507,2,0,B|317:337|396:357,1,120,0|0
504,240,6069,1,2
416,264,6257,1,2
256,192,6350,12,4,8882
50,61,21442,5,0
59,151,21629,1,0
112,224,21817,2,0,B|172:260|248:216,1,120,8|0
314,205,22379,2,0,B|314:281|386:297,2,120
394,162,23317,6,0,B|412:128|399:96,1,60,8|0
311,112,23692,2,0,B|328:68|300:38,1,60
222,68,24067,2,0,B|225:34|199:6,1,60,8|0
231,146,24442,6,0,B|242:187|203:243|144:229,2,120,0|8|0
52,125,25567,6,0,B|41:84|80:28|139:42,2,120,8|2|8
223,179,26692,1,0
84,288,27067,5,8
84,288,27254,2,0,B|145:329|221:283,1,120,4|0
281,260,27817,2,0,B|347:229|418:271,1,120,8|0
228,40,28567,5,8
312,68,28754,1,2
240,124,28942,2,0,B|172:144|120:104,1,120,4|8
228,40,29504,1,2
240,124,29692,2,0,B|232:192|168:224,1,120,0|8
88,244,30254,1,2
260,328,30442,6,0,B|324:312,1,60,4|0
332,208,30817,2,0,B|399:249,1,60,8|0
464,320,31192,2,0,B|396:344,1,60
260,328,31567,1,8
100,228,31754,6,0,B|108:280|152:312|204:296,1,120
260,256,32317,1,8
344,292,32504,2,0,B|412:264|384:176,1,120,4|8
368,104,33067,1,8
200,120,33442,6,0,B|121:133|92:44,2,120,4|8|0
276,68,34379,1,2
192,32,34567,1,8
102,67,34754,2,0,B|58:131|110:203,1,120,0|0
180,252,35317,2,0,B|224:188|172:116,1,120,8|0
148,56,35879,5,0
60,76,36067,1,8
60,160,36254,1,0
136,212,36442,2,0,B|204:248|276:204,1,120,0|8
422,155,37004,6,0,B|358:118|282:163,1,120,0|0
216,138,37567,2,0,B|267:98|233:20,1,120,8|0
76,92,38129,1,0
148,36,38317,1,8
136,276,38692,1,0
316,300,39067,5,8
316,300,39254,2,0,B|394:320|408:224,1,120,4|0
344,96,39817,1,8
344,96,40004,2,0,B|262:78|252:172,1,120,0|0
392,236,40567,1,8
392,236,40754,2,0,B|468:256|484:160,1,120,0|0
460,92,41317,1,8
288,44,41692,1,0
228,212,42067,5,8
120,68,42442,1,4
172,140,42629,1,0
204,56,42817,1,8
255,128,43004,1,0
344,108,43192,6,0,B|356:162|322:209|271:205,1,120,0|8
256,128,43754,2,0,B|427:216,2,180,8|2|0
244,216,45067,2,0,B|197:237|144:217|144:217|157:233|149:256,1,120,8|4
395,165,45817,6,0,B|431:209|378:263,1,89.9999973177911,2|0
328,200,46567,2,0,B|295:155|340:104,1,89.9999973177911,2|0
309,87,47129,1,0
276,70,47317,1,2
241,79,47504,1,2
214,103,47692,2,0,B|186:67|186:67|122:63,1,89.9999973177911,0|2
68,68,48442,6,0,B|48:108|48:108|72:148,1,89.9999973177911,0|2
112,208,49192,2,0,B|200:208,1,89.9999973177911,0|2
272,208,49942,2,0,B|300:164|352:164,1,89.9999973177911,0|2
380,176,50504,1,2
409,197,50692,2,0,B|465:209|493:145,1,89.9999973177911,0|2
196,56,51442,6,0,B|124:64|80:128,1,120,8|2
44,188,52004,1,0
76,272,52192,1,8
248,320,52567,1,2
352,176,52942,1,8
172,152,53317,6,0,B|128:208|176:284,1,120,2|8
244,224,53879,2,0,B|288:168|240:92,1,120,2|0
172,67,54442,1,8
52,200,54817,1,2
192,312,55192,1,8
320,185,55567,1,2
476,20,55942,2,0,B|512:88|456:148,1,120,2|0
402,193,56504,1,0
358,114,56692,2,0,B|419:85|477:139,1,120,2|0
490,219,57254,1,8
256,192,57629,12,4,59692
256,196,59879,6,0,B|148:120,1,120,4|0
64,116,60442,2,0,B|75:57|75:57|147:38,1,120,0|8
228,52,61004,1,0
408,68,61379,6,0,B|440:132|396:196,1,120,0|2
352,256,61942,2,0,B|300:304,2,60,0|0|8
404,180,62504,1,0
328,128,62692,1,0
280,204,62879,1,0
404,180,63067,1,8
376,52,63254,1,0
252,76,63442,1,0
280,204,63629,1,0
280,204,63817,6,0,B|296:276|372:288,1,120,8|0
384,192,64379,2,0,B|368:120|292:108,1,120,2|0
280,204,64942,1,4
360,256,65129,1,0
440,200,65317,1,8
376,128,65504,1,2
284,100,65692,1,0
192,128,65879,1,0
138,201,66067,1,8
276,316,66442,6,0,B|340:328|392:276,2,120,0|8|0
96,296,67567,1,8
184,316,67754,1,0
24,232,68129,1,2
180,144,68504,5,0
96,180,68692,2,0,B|140:236|220:236,2,120,2|8|4
256,96,69817,6,0,B|212:40|132:40,2,120,8|2|8
316,164,70754,1,2
496,152,71129,1,2
432,216,71317,1,8
276,308,71692,5,8
188,332,71879,1,8
208,248,72067,1,8
120,265,72254,2,0,B|52:257|40:181,1,120,4|0
125,154,72817,1,8
125,154,73004,2,0,B|193:182|229:110,1,120,0|0
247,28,73567,1,8
247,28,73754,2,0,B|179:0|143:72,1,120,0|0
225,119,74317,1,8
400,120,74692,6,0,B|444:168|408:240,1,120,0|8
348,292,75254,1,0
348,292,75442,2,0,B|204:316,1,120,4|8
229,311,76004,1,2
232,132,76379,1,2
156,296,76754,1,2
160,116,77129,1,2
160,116,77317,1,2
160,116,77504,2,2,B|88:144|116:224,1,120
200,195,78067,1,8
444,76,78442,6,0,B|348:172,2,120,4|8|0
312,216,79567,1,0
312,216,79754,1,2
152,297,80129,1,2
73,144,80504,1,2
238,63,80879,1,0
238,63,81067,6,0,B|303:26|365:68,1,120,8|0
276,216,81817,2,0,B|212:256|144:204,1,120,8|0
64,64,82567,1,8
64,64,82754,2,0,B|128:32|192:76,1,120,2|2
116,132,83317,1,8
64,304,83692,1,2
244,288,84067,1,8
100,180,84442,6,0,B|128:124|220:136,1,120,2|8
202,134,85004,1,0
360,224,85379,1,0
360,224,85567,2,0,B|332:280|240:268,1,120,2|4
256,192,86317,12,4,88942
256,192,89317,5,0
256,192,89692,2,0,B|291:165|288:86|243:67,1,120,8|0
186,230,90254,2,0,B|159:264|162:336|204:357,1,120,2|0
224,128,91192,1,8
224,128,91567,1,0
224,128,91942,6,0,B|346:128,1,120,4|0
325,276,92692,1,8
238,252,92879,1,0
218,340,93067,1,0
304,363,93254,2,0,B|358:365|358:365|383:327|436:326,1,120,0|8
468,148,94192,2,0,B|390:145|376:56,1,120,8|2
213,143,94942,5,0
131,106,95129,1,0
133,196,95317,1,8
213,143,95504,2,0,B|232:185|219:248|169:269,1,120
274,291,96067,5,8
291,291,96160,1,0
309,291,96254,1,0
327,291,96348,1,0
344,292,96442,2,0,B|426:292,2,60,0|0|8
356,204,97004,2,0,B|276:204,2,60,0|0|0
432,156,97567,1,8
256,192,97942,5,4
256,192,109754,5,0
256,192,109942,2,0,B|300:220|356:188,2,89.9999973177911,2|0|0
232,124,111067,1,0
232,124,111442,2,0,B|188:100|144:124,1,89.9999973177911,2|0
158,196,112192,2,0,B|162:244|126:276,1,89.9999973177911,2|0
48,292,112942,6,0,B|40:240|88:208,2,89.9999973177911,2|0|2
110,327,114067,2,0,B|159:349|212:326,1,89.9999973177911,0|2
242,269,114817,2,0,B|196:247|136:272,2,89.9999973177911
416,236,115942,5,8
416,236,116129,1,0
256,92,117442,5,8
256,92,117629,1,0
76,192,118942,5,0
76,192,119129,1,0
76,192,119317,2,0,B|112:256|192:268,1,120,8|0
344,228,120067,2,0,B|308:164|228:152,1,120,8|0
80,104,120817,2,0,B|116:168|196:180,1,120,8|0
352,148,121567,2,0,B|316:84|236:72,1,120,8|0
80,60,122317,5,8
80,240,122692,1,0
260,240,123067,1,8
259,60,123442,1,0
169,60,123629,1,0
168,150,123817,1,8
257,149,124004,1,0
258,61,124192,1,4
258,61,124379,1,4
60,272,125879,6,0,B|136:312,1,60,4|0
204,304,126254,2,0,B|276:312|308:252,1,120,4|0
300,168,126817,1,8
340,88,127004,2,0,B|420:96|440:176,1,120,0|0
480,232,127567,1,8
428,308,127754,1,0
336,308,127942,1,0
388,232,128129,1,2
336,308,128317,2,0,B|268:320|220:240,1,120,8|2
168,92,129067,6,0,B|224:64|284:92,1,120,8|0
356,144,129629,1,0
308,220,129817,1,8
236,164,130004,1,0
284,92,130192,2,0,B|320:36|412:40,2,120,0|8|0
236,164,131129,1,0
204,248,131317,2,0,B|184:312|104:320,1,120,8|0
36,276,131879,1,0
24,188,132067,1,8
280,328,132442,5,0
424,220,132817,1,8
316,76,133192,2,0,B|257:33|195:82,1,120,0|8
259,134,133754,1,2
84,248,133942,6,0,B|35:196|85:125,1,120,0|8
137,190,134504,1,0
301,317,134692,6,0,B|245:357|186:316,1,120,0|8
241,258,135254,1,0
376,184,135442,6,0,B|364:234|411:274|465:267,2,120,4|8|0
318,115,136379,2,8,B|373:76|444:122,1,120,2|4
346,344,137129,1,2
346,344,137317,1,8
152,284,137692,6,0,B|108:220|148:152,1,120
196,100,138254,1,0
336,212,138629,1,0
336,212,138817,2,0,B|344:280|276:312,1,120,4|0
196,332,139379,1,0
36,248,139754,6,0,B|21:166,1,60,2|0
89,130,140129,1,0
171,176,140317,1,8
352,164,140692,1,0
352,164,140879,1,0
352,164,141067,6,0,B|280:176|240:116,1,120,10|0
227,36,141629,1,2
245,124,141817,2,0,B|275:251,1,120,8|0
162,135,142379,2,0,B|147:68,2,60,2|8|2
60,192,143129,5,2
452,192,143504,1,2
256,324,143879,1,2
256,60,144254,1,2
331,109,144442,6,0,B|354:79|347:32,2,60,0|2|8
178,22,145004,1,0
256,60,145192,2,0,B|242:101|192:124|134:95,1,120,0|8
88,192,145754,5,2
252,124,146129,1,2
420,192,146504,1,2
252,260,146879,1,0
252,260,147067,2,0,B|196:300|132:256,1,120,2|0
252,120,147817,2,0,B|308:92|380:124,1,120,8|0
476,264,148567,5,0
476,264,148754,2,0,B|420:304|356:260,1,120,2|0
202,199,149317,2,0,B|257:162|330:209,1,120,2|0
296,320,150067,5,0
296,320,150254,2,0,B|228:320,1,60,8|0
149,293,150629,2,0,B|37:233,1,120,0|0
45,145,151192,2,0,B|157:201,1,120,0|8
152,198,151754,1,0
256,188,152504,5,0
256,168,152692,1,0
256,152,152879,1,0
256,132,153067,1,0
256,116,153254,1,4
256,192,153442,12,4,156442
256,196,156817,6,0,B|300:256|252:320,1,120,8|0
100,224,157567,2,0,B|56:164|104:100,1,120,8|0
256,28,158317,1,8
380,160,158692,2,0,B|452:160,2,60,0|8|8
256,292,159442,6,0,B|196:332|120:280,1,120,4|8
77,230,160004,2,0,B|37:186|37:186|65:126,1,120,2|8
140,84,160567,1,8
180,164,160754,1,2
340,248,161129,1,2
332,68,161504,1,4
180,164,161879,5,0
132,240,162067,1,8
84,164,162254,1,0
36,240,162442,1,0
84,316,162629,1,0
176,316,162817,2,0,B|232:300|232:300|228:224,1,120,8|0
220,148,163379,2,0,B|248:92|248:92|316:80,1,120,0|8
432,212,164129,5,0
432,212,164317,1,4
256,256,164692,1,0
32,129,165067,1,8
32,129,165254,1,4
32,129,165442,2,0,B|91:93|161:135,1,120
304,196,166004,2,0,B|246:233|176:188,1,120,4|0
370,137,166567,5,0
370,137,166754,2,0,B|406:201|362:265,1,120,4|0
282,118,167317,1,0
282,118,167504,2,0,B|236:62|283:-10,1,120,4|0
304,197,168067,1,0
256,192,168254,12,4,170129
184,192,170317,5,6
328,192,170504,1,6
