osu file format v9

[General]
AudioFilename: Inochi mijikashi koiseyo otome1.mp3
AudioLeadIn: 0
PreviewTime: 59455
Countdown: 0
SampleSet: Normal
StackLeniency: 0.7
Mode: 0
LetterboxInBreaks: 1

[Editor]
DistanceSpacing: 0.8
BeatDivisor: 4
GridSize: 8

[Metadata]
Title:Inochi Mijikashi Koiseyo Otome (TV Size)
Artist:Hanazawa Kana
Creator:Shiki
Version:Insane
Source:Ore no Imouto ga Konna ni Kawaii Wake ga nai
Tags:gokou ruri Vicho-kun kuroneko oreimo

[Difficulty]
HPDrainRate:6
CircleSize:4
OverallDifficulty:7
ApproachRate:7
SliderMultiplier:2
SliderTickRate:1

[Events]
//Background and Video events
0,0,"bg.jpg"
Video,0,"Inochi Mijikashi Koiseyo Otome.avi"
//Break Periods
//Storyboard Layer 0 (Background)
//Storyboard Layer 1 (Fail)
//Storyboard Layer 2 (Pass)
//Storyboard Layer 3 (Foreground)
//Storyboard Sound Samples
//Background Colour Transformations
3,100,163,162,255

[TimingPoints]
4866,413.793103448276,4,1,1,75,1,0
18003,-125,4,2,1,65,0,0
18210,-125,4,2,1,85,0,0
20693,-125,4,2,1,75,0,0
21728,-125,4,2,1,85,0,0
24003,-125,4,2,1,75,0,0
24624,-125,4,2,1,85,0,0
27210,-125,4,2,1,75,0,0
27728,-125,4,2,1,85,0,0
31348,-100,4,2,1,85,0,0
53590,-100,4,2,1,100,0,0
56383,-100,4,2,1,25,0,0
56797,-100,4,2,1,50,0,0
57211,-100,4,2,1,75,0,0
57624,-100,4,2,1,100,0,0
59486,-100,4,2,1,100,0,1
85917,-100,4,1,0,71,0,1
86021,-100,4,2,1,100,0,0

[Colours]
Combo1 : 255,255,255
Combo2 : 170,7,188
Combo3 : 97,160,248
Combo4 : 202,123,208

[HitObjects]
464,240,4866,2,0,B|344:240,1,100,4|0
272,200,5279,1,8
360,144,5486,1,0
272,96,5693,1,0
184,144,5900,1,0
184,144,6003,1,0
80,256,6314,6,0,B|128:280|192:256,1,100
224,168,6728,1,0
272,256,6934,1,8
320,168,7141,2,0,B|296:120|312:64,1,100
400,112,7555,1,0
424,152,7659,1,0
352,288,7969,5,0
440,248,8176,2,0,B|424:184|352:160,1,100
280,168,8590,1,8
224,256,8797,1,0
160,176,9003,2,0,B|160:64,1,100
160,76,9314,2,0,B|224:44|320:76,1,150
352,160,9831,6,0,B|352:224|328:264,1,100
248,312,10245,1,8
216,216,10452,1,0
216,112,10659,1,0
176,120,10762,1,0
144,136,10866,1,0
120,168,10969,1,0
104,208,11072,1,8
96,304,11279,1,0
192,264,11486,6,0,B|176:192|256:152,1,100,4|0
280,256,11900,1,8
320,160,12107,1,0
368,248,12314,2,0,B|400:208|416:160,1,100
416,160,12624,1,0
336,96,12831,1,0
288,96,12935,1,0
208,32,13141,5,4
128,96,13348,1,0
88,192,13555,1,8
128,288,13762,1,0
208,352,13969,1,0
256,352,14072,1,0
272,256,14279,1,0
224,256,14383,1,8
240,160,14590,1,0
416,144,14797,6,0,B|384:96|304:96,1,100,4|0
240,56,15210,1,8
256,152,15417,1,0
160,128,15624,2,0,B|104:128|64:176,1,100
72,168,15934,1,0
72,168,16038,1,8
64,264,16245,1,0
168,264,16452,5,4
189,220,16555,1,0
210,177,16659,1,0
304,152,16866,5,0
283,195,16970,1,0
262,239,17073,1,4
360,224,17279,5,4
381,180,17382,1,0
402,137,17486,1,0
496,112,17693,5,0
475,155,17797,1,0
454,199,17900,1,4
256,192,18107,5,4
80,56,18521,6,0,B|128:64|160:96,1,80
224,64,18934,1,0
232,144,19141,2,0,B|256:184|304:176,1,80
344,104,19555,1,4
208,304,19969,1,4
104,96,20383,1,4
136,168,20590,1,4
208,128,20797,2,0,B|250:114|296:152,1,80,2|0
360,168,21210,2,0,B|400:192|456:176,1,80,2|0
112,104,21831,6,0,B|216:104,1,80,4|0
256,56,22245,1,0
328,88,22452,2,0,B|352:136|328:192,1,80
408,208,22866,1,4
216,336,23279,1,4
112,120,23693,1,4
144,192,23900,1,4
200,136,24107,2,0,B|304:176,1,80,2|0
352,192,24521,2,0,B|376:240|360:288,1,80,2|4
304,48,25141,5,0
320,128,25348,1,0
400,136,25555,2,0,B|400:184|344:216,1,80
280,216,25969,1,0
248,144,26176,1,4
56,296,26590,1,4
56,56,27003,1,4
56,136,27210,1,4
136,136,27417,2,0,B|176:112|224:144,1,80,2|0
240,296,27831,5,2
240,296,28038,2,0,B|280:320|344:288,1,80,4|0
312,216,28452,1,0
312,216,28659,2,4,B|336:184|392:160,1,80
456,144,29072,1,0
88,112,29486,1,4
328,72,29900,1,4
256,304,30314,1,4
336,288,30521,21,4
368,264,30624,1,0
392,232,30728,1,2
408,192,30831,1,0
416,152,30934,1,0
408,112,31038,1,0
392,72,31141,1,2
360,48,31245,1,0
320,40,31348,2,0,B|208:40,1,100,4|0
136,72,31762,6,0,B|88:104|64:192,1,100,8|0
152,176,32176,1,0
96,232,32383,1,0
96,312,32590,2,0,B|200:312,1,100,8|0
264,352,33003,1,0
264,272,33210,1,0
336,312,33417,1,8
416,296,33624,1,0
416,216,33831,2,0,B|432:112|328:48,1,200,0|8
248,48,34452,1,0
176,80,34659,6,0,B|128:96|80:168,1,100,4|0
96,224,35072,2,0,B|152:248|216:224,1,100,8|0
160,312,35486,1,0
240,328,35693,2,0,B|312:320|320:232,1,100,0|8
232,248,36107,1,0
376,48,36521,1,0
480,264,36934,1,0
440,192,37141,1,0
400,120,37348,2,0,B|288:120,1,100,0|8
256,48,37762,1,0
216,120,37969,1,4
312,304,38383,5,8
312,224,38590,1,0
240,256,38797,2,0,B|216:208|248:128,1,100
162,130,39210,1,8
96,176,39417,1,0
288,320,39831,1,0
304,80,40245,1,0
304,160,40452,1,0
224,168,40659,2,0,B|184:160|152:192|96:168,1,100,0|8
124,75,41072,6,0,B|124:175,1,100,0|4
143,252,41486,1,0
208,200,41693,1,4
224,280,41900,1,4
432,80,42314,1,4
368,128,42521,1,4
312,72,42728,6,0,B|200:72,1,100
128,176,43141,2,0,B|240:176,1,100
228,176,43555,1,0
256,304,43762,5,0
296,232,43969,1,0
228,176,44176,1,0
288,104,44383,1,0
216,32,44590,2,0,B|88:32|88:160,1,200,4|8
88,232,45210,1,0
160,192,45417,2,0,B|272:192,1,100
304,128,45831,1,8
352,192,46038,1,0
352,296,46245,6,0,B|304:328|232:288,1,100,2|0
216,232,46659,1,8
168,168,46866,2,0,B|216:136|288:176,1,100
328,112,47279,1,0
352,192,47486,1,8
424,152,47693,1,0
504,128,47900,6,0,B|494:66|440:48,1,100,4|0
367,43,48314,1,8
287,43,48521,1,0
328,112,48728,2,0,B|112:112,1,200,0|8
120,32,49348,1,0
48,72,49555,1,4
48,152,49762,1,0
120,192,49969,1,8
200,208,50176,2,0,B|192:272|248:296,1,100,0|4
376,256,50590,2,0,B|384:200|344:160,1,100,0|8
128,72,51210,5,4
208,72,51418,1,0
208,72,51521,1,4
288,72,51728,2,0,B|344:120,1,50,0|4
288,176,52038,1,0
208,176,52245,1,0
128,176,52452,6,0,B|85:225|136:288,1,100,0|0
192,304,52866,1,4
272,304,53073,1,0
272,304,53176,1,4
348,280,53383,1,0
348,280,53486,1,4
352,200,53693,6,0,B|280:200|280:128,3,100
328,80,54521,1,2
248,56,54728,1,0
64,136,55141,1,0
144,152,55348,1,2
224,168,55555,1,0
320,296,55969,1,2
240,280,56176,1,0
160,256,56383,2,0,B|128:248,28,25
320,320,58659,5,0
360,312,58762,1,0
400,288,58866,1,2
432,256,58969,1,0
448,216,59072,1,2
456,168,59176,1,0
432,128,59279,1,2
400,96,59383,1,0
368,72,59486,6,0,B|328:48|240:56,1,100,4|0
240,128,59900,1,8
312,168,60107,2,0,B|296:240|200:232,2,100
384,200,60728,2,0,B|384:304,1,100,8|0
312,336,61141,1,0
272,264,61348,1,0
232,336,61555,2,0,B|158:326|160:256,1,100,8|0
56,216,61969,6,0,B|32:168|56:112,1,100,2|0
96,48,62383,1,8
136,120,62590,1,0
184,56,62797,1,2
72,32,63003,1,0
136,152,63210,1,8
208,40,63417,2,0,B|272:32|312:96,1,100
424,160,64038,5,8
432,240,64245,2,0,B|416:288|360:304,1,100
296,256,64659,1,0
232,304,64866,2,0,B|112:304,1,100,8|0
56,280,65279,6,0,B|32:224|56:176,1,100
128,168,65693,1,8
168,94,65900,2,0,B|208:136|272:125,1,100,0|2
433,41,66521,1,8
259,126,66934,1,0
448,184,67348,1,8
259,126,67762,1,0
344,312,68176,1,8
259,126,68590,1,0
168,304,69003,1,8
80,120,69417,6,0,B|256:24|256:24|464:136,1,400,4|0
256,168,70659,1,8
256,168,70866,1,0
256,168,71072,5,4
232,136,71176,1,0
200,112,71279,1,0
160,104,71383,1,0
120,104,71486,1,8
80,112,71590,1,0
48,136,71693,1,0
24,168,71797,1,0
16,208,71900,2,0,B|144:208,1,100,4|0
208,216,72314,1,8
256,280,72521,1,0
368,272,72728,6,0,B|337:218|369:178,1,100,4|0
456,176,73141,1,8
456,96,73348,2,0,B|416:64|352:64,1,100
149,64,73969,6,0,B|96:56|56:96,1,100,8|0
120,144,74383,2,0,B|176:184|192:240,1,100
208,296,74797,1,8
432,176,75210,6,0,B|328:120,1,100,2|0
304,240,75624,2,0,B|408:296,1,100,8|0
264,320,76038,1,2
192,344,76245,1,0
120,320,76452,1,8
120,240,76659,2,0,B|120:128,2,100
240,192,77279,6,0,B|352:192,1,100,8|0
424,192,77693,1,0
424,112,77900,1,0
424,32,78107,2,0,B|296:32,1,100,8|0
320,112,78521,6,0,B|440:112,1,100
424,240,78934,2,0,B|424:304|352:304,1,100,8|0
256,304,79348,5,2
144,192,79762,1,8
256,80,80176,1,0
368,192,80590,1,8
256,344,81003,5,2
104,192,81417,1,8
256,40,81831,1,0
408,192,82245,1,8
256,344,82659,5,2
216,272,82866,1,0
296,224,83072,1,8
216,160,83279,1,0
296,80,83486,1,2
416,96,83693,1,0
400,216,83900,2,0,B|360:256|304:248,1,100,8|0
256,176,84314,5,4
216,160,84417,1,0
179,175,84521,1,0
156,208,84624,1,0
150,247,84728,1,2
167,283,84831,1,0
189,315,84934,1,2
220,339,85038,1,0
256,360,85141,5,2
292,339,85244,1,0
323,315,85348,1,2
345,283,85451,1,0
360,248,85554,1,2
356,208,85658,1,0
333,175,85761,1,0
296,160,85865,1,0
256,176,85968,1,4
