osu file format v9

[General]
AudioFilename: Inochi mijikashi koiseyo otome1.mp3
AudioLeadIn: 0
PreviewTime: 59367
Countdown: 0
SampleSet: Soft
StackLeniency: 0.7
Mode: 0
LetterboxInBreaks: 1

[Editor]
DistanceSpacing: 1
BeatDivisor: 2
GridSize: 8

[Metadata]
Title:Inochi Mijikashi Koiseyo Otome (TV Size)
Artist:Hanazawa Kana
Creator:Shiki
Version:Easy
Source:Ore no Imouto ga Konna ni Kawaii Wake ga nai
Tags:gokou ruri Vicho-kun kuroneko

[Difficulty]
HPDrainRate:2
CircleSize:3
OverallDifficulty:2
ApproachRate:3
SliderMultiplier:1
SliderTickRate:1

[Events]
//Background and Video events
0,0,"bg.jpg"
Video,0,"Inochi Mijikashi Koiseyo Otome.avi"
//Break Periods
//Storyboard Layer 0 (Background)
//Storyboard Layer 1 (Fail)
//Storyboard Layer 2 (Pass)
//Storyboard Layer 3 (Foreground)
//Storyboard Sound Samples
//Background Colour Transformations
3,100,163,162,255

[TimingPoints]
4866,413.793103448276,4,1,1,80,1,0
18003,-125,4,2,1,85,0,0
31245,-125,4,2,1,100,0,0
57728,-100,4,2,1,0,0,0
57934,-100,4,2,1,100,0,0
59486,-100,4,2,1,100,0,1
85969,-100,4,2,1,100,0,0

[Colours]
Combo1 : 255,255,255
Combo2 : 170,7,188
Combo3 : 97,160,248
Combo4 : 202,123,208

[HitObjects]
408,96,4866,2,0,B|360:64|296:104,1,100,4|8
208,264,6107,2,0,B|256:280|312:264,1,100,0|0
408,264,6934,1,8
328,80,7762,1,0
328,184,8176,2,0,B|280:208|232:184,1,100,0|8
64,80,9417,5,0
168,80,9831,1,0
272,80,10245,1,8
376,80,10659,2,0,B|400:128|376:184,1,100,0|8
280,176,11486,6,0,B|248:224|288:288,1,100,0|8
88,304,12728,1,8
88,208,13141,1,0
240,80,13969,2,0,B|288:64|344:80,2,100,0|8|4
144,80,15210,5,8
144,184,15624,2,0,B|192:152|256:192,1,100,0|8
208,280,16452,2,0,B|256:312|320:272,1,100,0|8
320,184,17279,2,0,B|360:136|320:88,2,100,0|8|4
312,272,18521,6,0,B|232:304|144:264,1,160,2|0
128,248,19555,1,4
88,176,19969,1,4
128,104,20383,2,4,B|152:72,1,40
418,58,21831,6,0,B|464:128|464:128|416:208,1,160,2|0
384,192,22866,1,4
303,191,23279,1,4
223,191,23693,2,4,B|223:247,1,40
264,72,24728,5,4
184,72,25141,2,0,B|96:72,2,80,2|0|0
224,72,26176,1,4
224,152,26590,1,4
224,232,27003,2,4,B|272:232,1,40,4|4
384,240,27831,6,0,B|384:184,1,40,4|4
384,80,28659,2,4,B|384:128,1,40,4|4
272,168,29486,1,4
192,168,29900,1,4
112,168,30314,2,4,B|72:168,1,40,4|4
176,88,31348,6,0,B|253:41|336:88,1,160,4|0
328,164,32590,1,0
328,243,33003,2,0,B|250:289|168:243,1,160,0|0
88,112,34659,6,0,B|144:192|80:272,1,160,0|0
160,288,35900,2,0,B|240:312|240:312|320:288,1,160,2|0
384,256,37141,1,0
384,176,37555,1,2
384,96,37969,6,0,B|304:53|224:96,1,160,0|0
160,136,39210,2,0,B|160:304,1,160,2|2
240,264,40452,1,0
312,296,40866,1,2
304,216,41279,5,4
296,136,41693,2,4,B|256:112,1,40,4|4
184,112,42314,2,4,B|136:112,1,40,4|4
432,96,43762,6,0,B|336:96,1,80,0|0
272,96,44590,2,0,B|272:144,1,40,4|0
272,216,45210,2,0,B|272:168,1,40,0|0
104,88,46245,38,0,B|112:136,1,40,0|0
128,208,46865,2,0,B|120:168,1,40,0|0
280,136,47900,38,0,B|376:136,3,80,4|0|0|0
360,214,49555,1,4
288,248,49969,1,0
208,248,50383,1,4
136,216,50797,1,0
168,144,51210,38,0,B|256:144,2,80,4|0|0
128,72,52452,1,0
96,144,52866,1,4
128,216,53279,1,0
128,216,53693,2,0,B|214:256|304:216,1,160,0|4
280,144,54934,2,0,B|280:56,2,80,0|4|0
256,192,56176,12,2,57831
400,96,59486,6,0,B|288:96,2,100,4|8|0
408,192,60728,2,8,B|408:312|256:312,1,200
200,256,61969,1,0
136,184,62383,1,8
232,168,62797,6,0,B|344:168,3,100,0|8|0|8
336,72,64452,1,0
240,72,64866,1,8
144,72,65279,1,0
136,168,65693,1,8
128,264,66107,6,2,B|336:264,3,200,2|0|0|2
328,160,69003,1,0
328,56,69417,6,0,B|208:56,1,100,4|8
128,56,70245,1,0
128,160,70659,2,2,B|128:208,1,50,8|0
256,192,71072,12,0,72314
400,96,72728,5,4
400,192,73141,1,8
400,296,73555,2,0,B|350:320|288:296,1,100,0|8
300,200,74383,2,0,B|255:171|189:206,1,100,0|8
194,298,75210,1,0
112,248,75624,1,8
88,152,76038,6,0,B|151:55,1,100,0|8
224,128,76866,2,0,B|172:213,1,100,0|8
168,312,77693,2,0,B|216:328|288:312,1,100,0|8
348,262,78521,1,0
279,189,78934,1,8
339,109,79348,6,2,B|237:61|136:116,3,200,2|0|0|2
144,208,82245,1,0
240,176,82659,2,2,B|328:192|368:280,2,150,2|0|2
256,192,84107,12,4,85969
