osu file format v12

[General]
AudioFilename: I wonder why.mp3
AudioLeadIn: 0
PreviewTime: 59348
Countdown: 0
SampleSet: Soft
StackLeniency: 0.7
Mode: 0
LetterboxInBreaks: 1
WidescreenStoryboard: 1

[Editor]
DistanceSpacing: 0.5
BeatDivisor: 4
GridSize: 4
TimelineZoom: 1.700001

[Metadata]
Title:I wonder why...
TitleUnicode:I wonder why…
Artist:Hanazawa Kana
ArtistUnicode:花澤香菜
Creator:RJQ
Version:Insane
Source:Nagi no Asukara
Tags:凪のあすから hanazawa kana manaka nagi no asukara
BeatmapID:401326
BeatmapSetID:161464

[Difficulty]
HPDrainRate:6
CircleSize:4
OverallDifficulty:7
ApproachRate:9
SliderMultiplier:1.4
SliderTickRate:1

[Events]
//Background and Video events
0,0,"BG.png",0,0
//Break Periods
2,223458,267175
//Storyboard Layer 0 (Background)
//Storyboard Layer 1 (Fail)
//Storyboard Layer 2 (Pass)
//Storyboard Layer 3 (Foreground)
//Storyboard Sound Samples
//Background Colour Transformations
3,100,163,162,255

[TimingPoints]
4550,483.870967741935,4,2,1,30,1,0
12291,-100,4,1,1,30,0,0
16404,-100,4,1,1,20,0,0
19791,-100,4,2,1,50,0,0
56082,-200,4,2,1,50,0,0
57291,-100,4,2,1,50,0,0
58259,-100,4,2,1,20,0,0
59227,-100,4,2,1,40,0,0
59469,-100,4,2,1,55,0,1
82937,-100,4,2,1,55,0,1
84872,-100,4,2,1,55,0,1
86808,-100,4,2,1,55,0,1
89711,-100,4,2,1,50,0,0
103259,-100,4,2,1,50,0,0
142453,-100,4,2,1,50,0,0
142695,-100,4,2,1,50,0,1
171001,-100,4,2,1,50,0,0
179227,-200,4,2,1,40,0,0
181525,-100,4,2,1,50,0,0
186848,-200,4,2,1,40,0,0
194227,-133.333333333333,4,2,1,5,0,0
221324,-133.333333333333,4,2,1,30,0,0
223985,-100,4,2,1,50,0,1
267654,-100,4,2,1,50,0,0
278510,483.870967741935,4,2,1,30,1,0
278838,483.870967741935,4,2,1,30,1,0
279372,483.870967741935,4,2,1,20,1,0
287113,-100,4,2,1,5,0,0

[HitObjects]
376,172,4549,5,0,0:0:0:0:
364,276,4791,2,0,P|316:348|308:352,1,70
252,268,5275,2,0,P|291:196|303:192,1,70
316,108,5759,5,0,0:0:0:0:
316,108,6243,1,0,0:0:0:0:
240,32,6485,2,0,P|164:40|160:44,1,70
52,324,7453,5,0,0:0:0:0:
356,36,8420,2,0,P|308:104|308:112,1,70
352,184,8904,2,0,P|400:116|400:108,1,70
212,36,9630,1,0,0:0:0:0:
212,36,10114,2,0,P|140:56|136:60,1,70
56,104,10598,1,0,0:0:0:0:
288,320,11324,1,0,0:0:0:0:
288,320,12291,6,0,L|368:264,1,70
328,68,12775,2,0,L|256:32,1,70
380,212,13259,2,0,L|324:272,1,70
380,212,13743,2,0,P|344:184|304:184,1,70
196,244,14227,1,0,0:0:0:0:
336,228,14469,2,0,P|284:296|272:304,1,70
132,48,16162,5,8,0:0:0:0:
116,152,16404,1,0,0:0:0:0:
164,300,16646,1,8,0:0:0:0:
312,244,16888,1,0,0:0:0:0:
248,100,17130,1,8,0:0:0:0:
104,160,17372,1,0,0:0:0:0:
164,304,17614,1,8,0:0:0:0:
436,52,18098,5,8,0:0:0:0:
104,104,19791,5,2,0:0:0:0:
208,116,20033,2,0,P|276:120|292:112,1,70
380,116,20517,1,2,0:0:0:0:
380,116,20638,1,0,0:0:0:0:
380,116,20759,2,0,P|316:111|248:152,1,140
344,200,21485,6,0,P|376:256|372:264,1,70
368,268,21848,1,0,0:0:0:0:
356,280,21969,1,0,0:0:0:0:
104,296,22211,5,0,0:0:0:0:
104,296,22453,1,0,0:0:0:0:
64,152,22695,6,0,P|108:204|132:216,1,70
208,236,23179,1,2,0:0:0:0:
224,240,23299,1,0,0:0:0:0:
240,240,23420,2,0,P|308:212|316:200,1,70
376,144,23904,2,0,P|300:120|288:124,1,70
212,144,24388,2,0,L|244:168,1,35
284,196,24630,1,0,0:0:0:0:
376,144,24872,5,0,0:0:0:0:
376,144,25114,2,0,P|300:120|288:124,1,70
208,108,25598,1,2,0:0:0:0:
208,108,25719,1,0,0:0:0:0:
208,108,25840,2,0,L|112:92,1,70
344,56,26566,6,0,P|396:104|396:116,1,70
432,196,27049,1,2,0:0:0:0:
328,208,27291,2,0,P|296:136|300:128,1,70
388,108,27775,2,0,P|336:56|320:52,1,70
236,44,28259,1,0,0:0:0:0:
132,48,28501,1,0,0:0:0:0:
40,100,28743,1,0,0:0:0:0:
20,204,28985,1,0,0:0:0:0:
32,308,29227,6,0,P|96:356|100:356,1,70
152,276,29711,1,0,0:0:0:0:
152,276,29832,1,0,0:0:0:0:
152,276,29953,1,0,0:0:0:0:
132,172,30195,6,0,L|172:216,1,35
204,236,30437,1,0,0:0:0:0:
260,80,30679,1,2,0:0:0:0:
260,80,31162,1,0,0:0:0:0:
260,80,31646,6,0,P|368:68|408:80,1,140
480,140,32372,1,2,0:0:0:0:
384,180,32614,2,0,L|288:212,1,70
216,232,33098,1,0,0:0:0:0:
216,232,33582,1,2,0:0:0:0:
208,224,35275,5,0,0:0:0:0:
208,224,35396,1,0,0:0:0:0:
208,224,35517,1,0,0:0:0:0:
256,316,35759,1,0,0:0:0:0:
360,292,36001,1,0,0:0:0:0:
432,216,36243,1,0,0:0:0:0:
448,112,36485,1,0,0:0:0:0:
360,52,36727,1,0,0:0:0:0:
260,80,36969,2,0,P|208:120|200:140,1,70
196,136,37332,5,0,0:0:0:0:
188,152,37453,1,0,0:0:0:0:
280,208,37695,1,0,0:0:0:0:
196,272,37937,1,0,0:0:0:0:
88,296,38179,6,0,P|68:220|76:212,1,70
104,144,38662,6,0,P|124:224|120:236,1,70
32,160,39146,1,2,0:0:0:0:
60,60,39388,2,0,P|108:40|148:36,1,70
232,44,39872,1,2,0:0:0:0:
324,96,40114,2,0,P|404:100|420:92,1,70
464,180,40598,2,0,P|388:208|380:220,1,70
384,208,40961,1,0,0:0:0:0:
372,220,41082,1,2,0:0:0:0:
464,96,42291,6,0,P|412:48|408:48,1,70
316,36,42775,1,0,0:0:0:0:
212,40,43017,1,0,0:0:0:0:
112,68,43259,2,0,P|76:108|116:96,1,140
208,44,43985,1,0,0:0:0:0:
312,36,44227,1,0,0:0:0:0:
412,64,44469,1,0,0:0:0:0:
488,136,44711,1,0,0:0:0:0:
476,240,44953,1,0,0:0:0:0:
420,328,45195,6,0,P|344:352|336:348,1,70
268,304,45679,6,0,P|344:280|352:284,1,70
428,240,46162,1,2,0:0:0:0:
436,136,46404,2,0,P|408:68|400:64,1,70
404,60,46767,1,0,0:0:0:0:
392,48,46888,1,0,0:0:0:0:
320,28,48582,1,0,0:0:0:0:
216,40,48824,1,2,0:0:0:0:
60,324,49791,5,0,0:0:0:0:
60,324,49912,1,0,0:0:0:0:
60,324,50033,2,0,P|140:348|208:348,1,140
376,244,51001,6,0,P|320:296|312:300,1,70
300,192,51485,2,0,P|344:120|356:112,1,70
436,136,51969,1,0,0:0:0:0:
404,36,52211,6,0,P|316:24|312:24,1,70
148,40,53904,5,0,0:0:0:0:
148,40,54025,1,0,0:0:0:0:
148,40,54146,2,0,P|80:84|72:96,1,70
44,272,54872,1,0,0:0:0:0:
116,196,55114,1,0,0:0:0:0:
216,160,55356,1,0,0:0:0:0:
320,180,55598,1,0,0:0:0:0:
376,268,56082,2,0,P|452:224|408:180,1,175
256,192,58259,5,8,0:0:0:0:
256,192,59227,1,8,0:0:0:0:
164,104,59469,1,0,0:0:0:0:
192,40,59711,6,0,L|216:-8,2,35
304,24,60195,1,0,0:0:0:0:
480,100,60679,6,0,L|424:148,2,70
380,180,61404,1,8,0:0:0:0:
336,216,61646,2,0,L|272:264,2,70
248,308,62372,1,0,0:0:0:0:
128,352,62614,1,0,0:0:0:0:
16,296,62856,1,0,0:0:0:0:
4,172,63098,5,8,0:0:0:0:
128,152,63340,2,0,P|204:168|208:172,1,70
196,288,63824,2,0,P|284:304|292:300,1,70
388,312,64308,1,8,0:0:0:0:
484,232,64549,2,0,P|496:160|492:148,1,70
436,56,65033,5,0,0:0:0:0:
308,56,65275,1,0,0:0:0:0:
436,56,65517,2,0,L|340:56,1,70
240,76,66001,1,8,0:0:0:0:
240,76,66485,5,0,0:0:0:0:
124,128,66727,1,0,0:0:0:0:
72,244,66969,1,0,0:0:0:0:
124,128,67211,2,0,P|88:204|88:212,1,70
72,312,67695,1,8,0:0:0:0:
196,288,67937,6,0,P|256:228|264:216,1,70
316,136,68420,2,0,P|356:140|304:180,1,140
192,180,69146,1,0,0:0:0:0:
76,128,69388,1,0,0:0:0:0:
192,180,69630,1,0,0:0:0:0:
76,128,69872,1,8,0:0:0:0:
192,180,70114,6,0,P|108:148|104:144,1,70
124,160,70840,1,0,0:0:0:0:
124,160,71082,1,0,0:0:0:0:
124,160,71566,1,0,0:0:0:0:
92,60,71808,6,0,P|176:32|184:32,1,70
256,68,72291,2,0,P|188:104|184:104,1,70
96,132,72775,1,8,0:0:0:0:
108,236,73017,2,0,P|184:272|196:280,1,70
184,276,73380,1,0,0:0:0:0:
196,288,73501,1,0,0:0:0:0:
308,340,73743,1,0,0:0:0:0:
308,340,73864,1,0,0:0:0:0:
308,340,73985,1,0,0:0:0:0:
412,328,74227,6,0,L|460:304,1,35
488,288,74469,1,0,0:0:0:0:
436,196,74711,5,0,0:0:0:0:
436,196,74953,2,0,P|408:128|404:124,1,70
224,40,75679,1,8,0:0:0:0:
72,316,76162,1,0,0:0:0:0:
72,316,76404,1,0,0:0:0:0:
304,352,76646,2,0,P|384:336|392:332,1,70
472,80,77130,2,0,P|396:84|384:92,1,70
296,172,77614,1,8,0:0:0:0:
164,224,77856,6,0,L|80:184,2,70
284,256,78582,1,0,0:0:0:0:
164,224,78824,1,0,0:0:0:0:
284,256,79066,1,8,0:0:0:0:
392,188,79308,2,0,P|320:136|308:132,1,70
212,128,79791,1,0,0:0:0:0:
212,128,79912,1,0,0:0:0:0:
212,128,80033,1,0,0:0:0:0:
212,128,80154,1,0,0:0:0:0:
212,128,80275,2,0,P|360:128|364:152,1,210
244,148,81243,5,0,0:0:0:0:
244,148,81364,1,0,0:0:0:0:
244,148,81485,1,0,0:0:0:0:
120,120,81727,1,2,0:0:0:0:
28,156,82937,2,0,L|92:224,2,70
116,244,83904,1,0,0:0:0:0:
212,324,84872,6,0,L|244:240,2,70
256,204,85840,1,0,0:0:0:0:
472,208,86808,2,0,L|376:200,2,70
348,196,87775,1,0,0:0:0:0:
380,288,89711,5,0,0:0:0:0:
400,184,89953,1,0,0:0:0:0:
380,288,90195,1,0,0:0:0:0:
400,184,90437,2,0,L|336:264,1,70
292,320,90920,1,0,0:0:0:0:
48,120,91646,6,0,L|100:64,2,70
60,224,92372,1,0,0:0:0:0:
60,224,92856,1,0,0:0:0:0:
240,332,93340,1,0,0:0:0:0:
240,332,93461,1,0,0:0:0:0:
240,332,93582,1,0,0:0:0:0:
240,332,93824,1,0,0:0:0:0:
240,332,94066,1,0,0:0:0:0:
240,332,94308,1,0,0:0:0:0:
340,48,95517,5,0,0:0:0:0:
236,72,95759,1,0,0:0:0:0:
340,48,96001,1,0,0:0:0:0:
236,72,96243,2,0,L|316:96,1,70
404,120,96727,1,0,0:0:0:0:
380,224,96969,6,0,P|312:248|304:248,1,70
208,244,97453,1,0,0:0:0:0:
208,244,97695,1,0,0:0:0:0:
116,196,97937,2,0,P|144:264|148:272,1,70
144,260,98662,1,0,0:0:0:0:
432,296,99388,5,0,0:0:0:0:
292,296,99630,1,0,0:0:0:0:
432,296,99872,1,0,0:0:0:0:
292,296,100114,1,0,0:0:0:0:
96,136,100598,1,0,0:0:0:0:
336,216,101082,2,0,L|288:200,2,35
244,168,101566,6,0,L|224:140,1,35
192,96,101808,1,0,0:0:0:0:
88,96,102049,1,0,0:0:0:0:
88,96,102775,1,0,0:0:0:0:
136,188,103017,5,0,0:0:0:0:
136,188,103138,1,0,0:0:0:0:
136,188,103259,2,0,L|208:200,1,70
256,212,103622,1,0,0:0:0:0:
308,216,103743,2,0,L|368:160,1,70
408,76,104227,1,0,0:0:0:0:
408,76,104348,1,0,0:0:0:0:
408,76,104469,1,0,0:0:0:0:
312,36,104711,5,0,0:0:0:0:
212,64,104953,2,0,L|140:88,1,70
144,88,105679,1,0,0:0:0:0:
76,288,105920,1,0,0:0:0:0:
76,288,106041,1,0,0:0:0:0:
76,288,106162,2,0,L|160:272,1,70
248,260,106646,1,0,0:0:0:0:
340,312,106888,1,0,0:0:0:0:
248,260,107130,2,0,L|160:236,1,70
236,152,107614,5,0,0:0:0:0:
260,52,107856,2,0,L|352:92,1,70
264,168,108340,1,0,0:0:0:0:
208,256,108582,2,0,L|300:232,1,70
292,236,108945,1,0,0:0:0:0:
308,232,109066,1,0,0:0:0:0:
408,196,109308,1,0,0:0:0:0:
396,92,109549,6,0,L|344:104,1,35
312,112,109791,1,0,0:0:0:0:
212,80,110033,1,0,0:0:0:0:
212,80,110275,1,0,0:0:0:0:
116,40,110517,5,0,0:0:0:0:
32,104,110759,1,0,0:0:0:0:
116,168,111001,1,0,0:0:0:0:
116,168,111122,1,0,0:0:0:0:
116,168,111243,1,0,0:0:0:0:
220,184,111485,6,0,L|296:140,1,70
380,116,111969,1,0,0:0:0:0:
436,204,112211,2,0,L|388:224,1,35
356,236,112453,1,0,0:0:0:0:
256,268,112695,2,0,P|336:304|340:308,1,70
412,348,113179,1,0,0:0:0:0:
412,348,113420,5,0,0:0:0:0:
308,336,113662,1,0,0:0:0:0:
208,304,113904,1,0,0:0:0:0:
108,336,114146,2,0,P|96:276|92:248,1,70
288,180,114872,1,0,0:0:0:0:
288,180,115356,1,0,0:0:0:0:
204,116,115598,2,0,P|268:80|292:72,1,70
372,80,116082,2,0,P|296:32|288:32,1,70
304,32,116445,5,0,0:0:0:0:
288,28,116566,1,0,0:0:0:0:
84,216,118501,5,0,0:0:0:0:
84,216,118622,1,0,0:0:0:0:
84,216,118743,1,2,0:0:0:0:
272,312,119227,1,0,0:0:0:0:
368,268,119469,1,0,0:0:0:0:
272,312,119711,1,0,0:0:0:0:
368,268,119953,1,0,0:0:0:0:
360,164,120195,1,0,0:0:0:0:
308,72,120437,2,0,P|236:84|232:88,1,70
288,172,120920,5,0,0:0:0:0:
212,100,121162,1,0,0:0:0:0:
160,192,121404,2,0,L|104:136,1,70
32,72,121888,5,0,0:0:0:0:
112,140,122130,2,0,L|172:204,1,70
88,268,122614,2,0,P|64:320|84:324,1,70
152,348,123098,5,0,0:0:0:0:
240,292,123340,2,0,P|248:216|244:212,1,70
252,192,124066,5,0,0:0:0:0:
252,192,124549,1,0,0:0:0:0:
252,192,125033,1,0,0:0:0:0:
252,192,125517,1,0,0:0:0:0:
252,192,126001,1,0,0:0:0:0:
252,192,126485,1,0,0:0:0:0:
252,192,126969,1,0,0:0:0:0:
252,192,127453,1,0,0:0:0:0:
252,192,127937,1,0,0:0:0:0:
320,192,128420,5,0,0:0:0:0:
320,192,128904,1,0,0:0:0:0:
320,192,129388,1,0,0:0:0:0:
320,192,129872,1,0,0:0:0:0:
320,192,130356,1,0,0:0:0:0:
320,192,130840,1,0,0:0:0:0:
320,192,131324,1,0,0:0:0:0:
320,192,131808,1,0,0:0:0:0:
320,192,132291,1,0,0:0:0:0:
392,192,132775,5,0,0:0:0:0:
392,192,133259,1,0,0:0:0:0:
392,192,133743,1,0,0:0:0:0:
392,192,134227,1,0,0:0:0:0:
392,192,134711,1,0,0:0:0:0:
392,192,135195,1,0,0:0:0:0:
392,192,135679,1,0,0:0:0:0:
392,192,136162,1,0,0:0:0:0:
392,192,136646,1,0,0:0:0:0:
140,192,137130,5,0,0:0:0:0:
140,192,137614,1,0,0:0:0:0:
140,192,138098,1,0,0:0:0:0:
140,192,138582,1,0,0:0:0:0:
140,192,139066,1,0,0:0:0:0:
140,192,139549,1,0,0:0:0:0:
140,192,140033,1,0,0:0:0:0:
140,192,140517,1,0,0:0:0:0:
140,192,141001,1,0,0:0:0:0:
216,192,141485,5,0,0:0:0:0:
288,192,141969,5,0,0:0:0:0:
80,152,142453,5,0,0:0:0:0:
80,152,142574,1,0,0:0:0:0:
80,152,142695,2,0,L|152:128,1,70
164,124,143058,1,0,0:0:0:0:
180,120,143179,1,0,0:0:0:0:
272,56,143420,1,0,0:0:0:0:
272,56,143904,1,0,0:0:0:0:
416,192,144388,5,0,0:0:0:0:
416,192,144872,1,0,0:0:0:0:
416,192,145356,1,0,0:0:0:0:
416,192,145840,1,0,0:0:0:0:
416,192,146324,1,0,0:0:0:0:
416,192,146808,1,0,0:0:0:0:
416,192,147291,1,0,0:0:0:0:
416,192,147775,1,0,0:0:0:0:
416,192,148259,1,0,0:0:0:0:
344,192,148743,5,0,0:0:0:0:
344,192,149227,1,0,0:0:0:0:
344,192,149711,1,0,0:0:0:0:
344,192,150195,1,0,0:0:0:0:
344,192,150679,1,0,0:0:0:0:
344,192,151162,1,0,0:0:0:0:
344,192,151646,1,0,0:0:0:0:
344,192,152130,1,0,0:0:0:0:
344,192,152614,1,0,0:0:0:0:
276,192,153098,5,0,0:0:0:0:
276,192,153582,1,0,0:0:0:0:
276,192,154066,1,0,0:0:0:0:
276,192,154549,1,0,0:0:0:0:
276,192,155033,1,0,0:0:0:0:
276,192,155517,1,0,0:0:0:0:
276,192,156001,1,0,0:0:0:0:
276,192,156485,1,0,0:0:0:0:
276,192,156969,1,0,0:0:0:0:
208,192,157453,5,0,0:0:0:0:
208,192,157937,1,0,0:0:0:0:
208,192,158420,1,0,0:0:0:0:
208,192,158904,1,0,0:0:0:0:
208,192,159388,1,0,0:0:0:0:
208,192,159872,1,0,0:0:0:0:
208,192,160356,1,0,0:0:0:0:
208,192,160840,1,0,0:0:0:0:
208,192,161324,1,0,0:0:0:0:
140,192,161808,5,0,0:0:0:0:
140,192,162291,1,0,0:0:0:0:
140,192,162775,1,0,0:0:0:0:
140,192,163259,1,0,0:0:0:0:
140,192,163743,1,0,0:0:0:0:
140,192,164227,1,0,0:0:0:0:
140,192,164711,1,0,0:0:0:0:
140,192,165195,1,0,0:0:0:0:
140,192,165679,1,0,0:0:0:0:
212,192,166162,5,0,0:0:0:0:
212,192,166646,1,0,0:0:0:0:
212,192,167130,1,0,0:0:0:0:
212,192,167614,1,0,0:0:0:0:
212,192,168098,1,0,0:0:0:0:
212,192,168582,1,0,0:0:0:0:
212,192,169066,1,0,0:0:0:0:
212,192,169549,1,0,0:0:0:0:
212,192,170033,1,0,0:0:0:0:
212,192,170517,1,0,0:0:0:0:
436,308,171001,5,0,0:0:0:0:
352,244,171243,1,0,0:0:0:0:
404,336,171485,1,0,0:0:0:0:
392,232,171727,2,0,P|384:128|352:120,1,140
164,80,172695,5,0,0:0:0:0:
260,124,172937,1,0,0:0:0:0:
196,40,173179,1,0,0:0:0:0:
212,144,173420,1,0,0:0:0:0:
268,56,173662,1,0,0:0:0:0:
76,140,174146,1,0,0:0:0:0:
352,292,174872,5,0,0:0:0:0:
276,220,175114,1,0,0:0:0:0:
292,324,175356,1,0,0:0:0:0:
336,228,175598,1,0,0:0:0:0:
144,312,176082,1,0,0:0:0:0:
272,144,176566,1,0,0:0:0:0:
272,144,176687,1,0,0:0:0:0:
272,144,176808,1,0,0:0:0:0:
364,92,177049,6,0,P|288:40|284:40,1,70
384,124,177533,1,0,0:0:0:0:
148,240,178743,5,0,0:0:0:0:
164,252,178864,1,0,0:0:0:0:
180,264,178985,1,0,0:0:0:0:
180,264,179106,1,0,0:0:0:0:
196,272,179227,2,0,L|268:312,1,70
340,204,179953,6,0,L|300:172,1,35
304,112,180437,2,0,L|336:132,1,35
276,92,180920,1,0,0:0:0:0:
276,92,181404,1,0,0:0:0:0:
64,56,182614,5,0,0:0:0:0:
120,144,182856,1,0,0:0:0:0:
136,40,183098,1,0,0:0:0:0:
192,128,183340,1,0,0:0:0:0:
396,72,183824,1,0,0:0:0:0:
396,72,184308,5,0,0:0:0:0:
396,72,184429,1,0,0:0:0:0:
396,72,184549,1,0,0:0:0:0:
292,52,184791,1,0,0:0:0:0:
188,36,185033,1,0,0:0:0:0:
84,28,185275,1,0,0:0:0:0:
308,284,186848,6,0,P|348:248|356:236,1,52.5
396,156,187695,2,0,L|320:184,1,70
228,212,188662,1,0,0:0:0:0:
228,212,189146,1,0,0:0:0:0:
88,92,190840,6,0,L|128:120,1,35
180,144,191324,1,0,0:0:0:0:
232,100,191566,2,0,L|196:76,1,35
144,44,192049,1,0,0:0:0:0:
280,72,192533,1,0,0:0:0:0:
392,156,193017,1,0,0:0:0:0:
108,92,194227,6,0,P|72:168|68:192,1,105.000004005432
256,284,195195,2,0,P|292:192|292:184,1,105.000004005432
188,72,196162,2,0,P|68:176|60:192,1,157.500006008148
256,328,197130,2,0,P|356:276|360:268,1,105.000004005432
432,112,197856,2,0,P|264:48|248:64,1,236.250009012223
296,88,200759,6,0,L|228:92,2,52.5000020027161
316,164,201485,1,0,0:0:0:0:
368,108,201727,1,0,0:0:0:0:
292,84,201969,2,0,P|184:72|164:72,1,105.000004005432
132,128,202695,6,0,P|144:184|172:236,1,105.000004005432
120,324,203420,1,0,0:0:0:0:
120,324,203662,1,0,0:0:0:0:
428,252,204630,1,0,0:0:0:0:
368,200,204872,1,0,0:0:0:0:
304,156,205114,2,0,L|236:124,2,52.5000020027161
268,228,205840,6,0,P|196:176|184:152,1,105.000004005432
160,92,206566,1,0,0:0:0:0:
312,48,207049,1,0,0:0:0:0:
388,72,207291,2,0,P|436:216|432:224,1,157.500006008148
48,300,208501,6,0,P|104:296|120:300,1,52.5000020027161
236,348,209227,1,0,0:0:0:0:
392,348,209711,2,0,P|468:288|472:280,1,105.000004005432
448,76,210679,2,0,P|324:156|320:168,1,157.500006008148
128,304,211646,2,0,P|268:292|272:284,1,157.500006008148
304,64,212614,2,0,P|196:64|188:72,1,105.000004005432
128,108,213340,1,0,0:0:0:0:
360,64,216243,5,0,0:0:0:0:
296,108,216485,1,0,0:0:0:0:
288,32,216727,1,0,0:0:0:0:
224,80,216969,2,0,L|168:108,2,52.5000020027161
52,244,218179,6,0,L|104:216,1,52.5000020027161
240,156,218904,1,0,0:0:0:0:
320,156,219146,1,0,0:0:0:0:
448,252,220114,6,0,L|404:300,1,52.5000020027161
336,300,220598,1,0,0:0:0:0:
96,96,221324,5,0,0:0:0:0:
96,96,221445,1,0,0:0:0:0:
96,96,221566,1,0,0:0:0:0:
200,72,221808,1,0,0:0:0:0:
304,68,222049,1,0,0:0:0:0:
304,68,222170,1,0,0:0:0:0:
304,68,222291,2,0,P|424:192|420:228,1,210.000008010865
456,180,267775,5,0,0:0:0:0:
456,180,268259,1,0,0:0:0:0:
360,224,268501,1,0,0:0:0:0:
256,204,268743,2,0,L|216:140,1,70
36,44,269469,1,0,0:0:0:0:
52,200,269953,5,0,0:0:0:0:
116,284,270195,2,0,L|216:296,1,70
384,220,270920,1,0,0:0:0:0:
384,220,271646,1,0,0:0:0:0:
352,120,271888,2,0,L|320:68,2,35
252,44,272372,5,0,0:0:0:0:
148,40,272614,1,0,0:0:0:0:
44,56,272856,1,0,0:0:0:0:
44,56,273340,1,0,0:0:0:0:
108,140,273582,5,0,0:0:0:0:
176,220,273824,1,0,0:0:0:0:
160,116,274066,1,0,0:0:0:0:
176,220,274308,1,0,0:0:0:0:
200,280,274791,1,0,0:0:0:0:
396,204,275275,1,0,0:0:0:0:
348,108,275517,5,0,0:0:0:0:
296,200,275759,1,0,0:0:0:0:
260,100,276001,1,0,0:0:0:0:
296,200,276243,1,0,0:0:0:0:
240,156,276727,1,0,0:0:0:0:
172,144,277211,1,0,0:0:0:0:
60,296,278510,5,0,0:0:0:0:
200,308,278838,1,0,0:0:0:0:
424,252,279372,1,0,0:0:0:0:
256,192,279734,12,0,287113,0:0:0:0:
