osu file format v14

[General]
AudioFilename: 01 - happy endings.mp3
AudioLeadIn: 0
PreviewTime: -1
Countdown: 0
SampleSet: Soft
StackLeniency: 0.7
Mode: 2
LetterboxInBreaks: 1
WidescreenStoryboard: 1

[Editor]
DistanceSpacing: 1
BeatDivisor: 4
GridSize: 4
TimelineZoom: 3.799999

[Metadata]
Title:Happy Endings
TitleUnicode:Happy Endings
Artist:Hanazawa Kana
ArtistUnicode:Hanazawa Kana
Creator:Sovyat
Version:X
Source:Zetsuen no Tempest
Tags:zetsuen no tempest first ending complete song kana hanazawa
BeatmapID:618999
BeatmapSetID:272317

[Difficulty]
HPDrainRate:6
CircleSize:4
OverallDifficulty:9
ApproachRate:9
SliderMultiplier:1.4
SliderTickRate:2

[Events]
//Background and Video events
0,0,"zetsuen_no_tempest_by_akanosora01-d5vc9gw.jpg",0,0
//Break Periods
2,91477,95062
//Storyboard Layer 0 (Background)
//Storyboard Layer 1 (Fail)
//Storyboard Layer 2 (Pass)
//Storyboard Layer 3 (Foreground)
//Storyboard Sound Samples

[TimingPoints]
356,461.531361055984,4,2,0,100,1,0
59432,461.531361055984,4,2,0,100,1,1
91277,-100,4,2,0,100,0,0

[Colours]
Combo1 : 255,255,164
Combo2 : 255,128,192
Combo3 : 255,255,0
Combo4 : 255,0,128
Combo5 : 255,255,102
Combo6 : 255,0,51

[HitObjects]
0,208,2202,6,0,P|40:256|112:240,1,140,0|0,0:0|0:0,0:0:0:0:
316,112,2894,1,0,0:0:0:0:
72,64,3125,1,0,0:0:0:0:
192,136,3355,1,0,0:0:0:0:
112,268,3586,1,0,0:0:0:0:
300,208,3817,1,0,0:0:0:0:
200,328,4048,1,0,0:0:0:0:
344,324,4279,1,0,0:0:0:0:
96,228,4509,1,0,0:0:0:0:
480,100,4740,2,0,B|424:44|336:64|336:64,1,140,0|0,0:0|0:0,0:0:0:0:
156,52,5432,1,0,0:0:0:0:
316,168,5663,1,0,0:0:0:0:
40,136,6355,5,0,0:0:0:0:
88,268,6586,1,0,0:0:0:0:
288,184,6817,1,0,0:0:0:0:
56,76,7048,1,0,0:0:0:0:
208,256,7278,1,0,0:0:0:0:
340,316,7509,2,0,P|400:268|416:208,1,140,0|0,0:0|0:0,0:0:0:0:
128,264,8432,1,0,0:0:0:0:
380,156,8894,5,0,0:0:0:0:
44,72,9125,1,0,0:0:0:0:
216,300,9586,2,0,B|272:272|324:196|324:196,1,140
104,164,10278,2,0,L|84:92,1,70
320,60,10740,1,0,0:0:0:0:
328,256,10971,2,0,L|384:212,1,70
120,124,11432,2,0,L|64:168,1,70
276,120,11894,1,0,0:0:0:0:
148,272,12125,2,0,P|184:304|268:284,1,140
68,52,12817,1,0,0:0:0:0:
152,80,13048,1,0,0:0:0:0:
384,336,13740,5,0,0:0:0:0:
284,224,13971,1,0,0:0:0:0:
140,316,14201,1,0,0:0:0:0:
412,128,14432,1,0,0:0:0:0:
256,192,14663,1,0,0:0:0:0:
256,192,14894,12,0,16048,0:0:0:0:
296,332,16278,6,0,L|368:312,1,70
100,184,16740,2,0,P|128:204|232:228,1,140
60,116,17432,1,0,0:0:0:0:
256,200,17663,2,0,L|256:128,1,70
284,304,18124,2,0,L|340:256,1,70,0|0,0:0|0:0,0:0:0:0:
144,304,18586,1,0,0:0:0:0:
472,144,19048,2,0,L|408:112,1,70
92,120,19509,2,0,L|156:152,1,70
372,304,19971,5,0,0:0:0:0:
216,216,20201,1,0,0:0:0:0:
416,136,20432,2,0,P|356:88|296:76,1,140
340,216,21124,1,0,0:0:0:0:
208,92,21355,1,0,0:0:0:0:
340,216,21586,1,0,0:0:0:0:
448,348,21817,1,0,0:0:0:0:
276,324,22047,2,0,P|232:304|212:220,1,140
44,204,22971,2,0,L|76:188,2,35
372,296,23432,5,0,0:0:0:0:
272,220,23663,1,0,0:0:0:0:
96,288,23894,1,0,0:0:0:0:
84,96,24124,2,0,P|132:56|204:72,1,140
316,176,24817,2,0,L|240:176,1,70,0|0,0:0|0:0,0:0:0:0:
436,176,25278,1,0,0:0:0:0:
380,304,25509,1,0,0:0:0:0:
64,52,25740,2,0,L|120:100,1,70
256,52,26201,1,0,0:0:0:0:
72,328,26663,6,0,L|132:280,1,70
372,128,27124,1,0,0:0:0:0:
184,280,27355,1,0,0:0:0:0:
176,120,27586,1,0,0:0:0:0:
376,288,27817,1,0,0:0:0:0:
104,200,28047,2,0,P|104:168|80:140,1,70
440,196,28509,2,0,P|440:176|476:144,1,70
88,200,28970,1,0,0:0:0:0:
420,200,29201,1,0,0:0:0:0:
256,140,29432,1,0,0:0:0:0:
256,248,29663,1,0,0:0:0:0:
256,192,29894,12,0,30354,0:0:0:0:
112,304,31047,6,0,L|160:244,1,70
436,296,31509,2,0,L|388:244,1,70
188,92,32201,1,0,0:0:0:0:
388,164,32432,2,0,L|336:112,1,70
116,296,32893,2,0,P|128:260|140:228,1,70
352,304,33355,1,0,0:0:0:0:
104,196,33817,2,0,L|124:164,3,23.3333333333333
364,208,34278,2,0,L|440:208,1,70
64,344,34740,5,0,0:0:0:0:
256,192,34970,1,0,0:0:0:0:
468,44,35201,1,0,0:0:0:0:
260,200,35432,1,0,0:0:0:0:
40,176,35663,2,0,P|48:152|72:108,1,70
248,336,36124,1,0,0:0:0:0:
384,296,36355,1,0,0:0:0:0:
184,200,36586,2,0,L|236:148,1,70
104,104,37047,2,0,L|56:48,1,70
368,164,37509,1,0,0:0:0:0:
420,124,37624,1,0,0:0:0:0:
476,92,37740,1,0,0:0:0:0:
248,320,37970,5,0,0:0:0:0:
108,320,38201,1,0,0:0:0:0:
336,224,38432,2,0,L|408:196,1,70
112,132,38893,2,0,L|180:108,1,70
428,168,39355,2,0,P|448:152|456:148,2,35
220,148,39816,1,0,0:0:0:0:
312,104,40047,2,0,L|344:80,1,35
240,108,40278,2,0,L|208:80,1,35
232,60,40509,6,0,L|264:48,1,35
160,64,40739,2,0,L|124:48,1,35
220,236,40970,2,0,P|280:260|348:228,1,140
332,136,41893,1,0,0:0:0:0:
484,80,42124,1,0,0:0:0:0:
396,188,42355,1,0,0:0:0:0:
240,308,42586,2,0,B|-16:280|364:152|312:92|268:80,1,350
336,204,43855,1,0,0:0:0:0:
336,152,43970,1,0,0:0:0:0:
408,152,44086,1,0,0:0:0:0:
408,204,44201,1,0,0:0:0:0:
264,92,44316,1,0,0:0:0:0:
264,36,44432,1,0,0:0:0:0:
376,32,44547,1,0,0:0:0:0:
88,32,44663,1,0,0:0:0:0:
272,244,45124,6,0,L|340:224,1,70
136,148,45586,1,0,0:0:0:0:
228,96,45816,1,0,0:0:0:0:
124,292,46047,1,0,0:0:0:0:
464,196,46278,2,0,L|360:92,1,140
152,152,46970,1,0,0:0:0:0:
360,80,47201,1,0,0:0:0:0:
220,40,47432,1,0,0:0:0:0:
88,300,47662,2,0,L|160:292,1,70
412,280,48124,2,0,L|344:252,1,70
88,144,48586,1,0,0:0:0:0:
312,140,48816,2,0,L|448:104,1,140
200,180,49393,5,0,0:0:0:0:
116,112,49509,1,0,0:0:0:0:
316,180,49624,1,0,0:0:0:0:
392,112,49739,1,0,0:0:0:0:
216,312,49970,2,0,P|280:276|244:244,2,140
68,128,51124,1,0,0:0:0:0:
208,276,51585,1,0,0:0:0:0:
288,240,51701,1,0,0:0:0:0:
360,200,51816,1,0,0:0:0:0:
164,168,51932,2,0,L|128:160,1,35
288,240,52509,6,0,L|352:200,1,70
200,128,52970,2,0,L|140:88,1,70
332,176,53432,1,0,0:0:0:0:
140,120,53662,1,0,0:0:0:0:
344,336,53893,2,0,L|280:308,1,70
92,328,54355,2,0,L|152:288,1,70
60,184,54816,1,0,0:0:0:0:
268,184,55047,2,0,L|336:152,1,70
256,192,55739,12,0,57585,0:0:0:0:
220,304,58047,5,0,0:0:0:0:
316,224,58393,2,0,L|344:200,1,35
140,152,58739,1,0,0:0:0:0:
304,128,58970,2,0,L|336:112,2,35
92,296,59432,6,0,L|168:296,2,70
276,256,60124,1,0,0:0:0:0:
448,228,60355,2,0,L|372:228,2,70
264,180,61047,1,0,0:0:0:0:
60,152,61278,1,0,0:0:0:0:
276,112,61508,2,0,L|204:104,1,70
464,80,61970,2,0,L|396:60,1,70
56,80,62431,2,0,L|128:68,1,70
396,248,62893,5,0,0:0:0:0:
404,216,63008,1,0,0:0:0:0:
272,200,63124,2,0,B|228:196|184:164|176:148|160:120,1,140
56,320,63816,2,0,L|56:280,1,35
208,304,64047,2,0,B|232:300|264:284|280:272|308:212,1,140
48,168,64739,2,0,L|56:96,1,70
260,168,65201,2,0,L|276:92,1,70
468,156,65662,2,0,L|440:88,1,70
244,144,66124,2,0,L|224:72,1,70
264,48,66585,5,0,0:0:0:0:
48,132,66816,1,0,0:0:0:0:
220,124,67047,1,0,0:0:0:0:
12,52,67278,1,0,0:0:0:0:
208,48,67508,1,0,0:0:0:0:
408,48,67739,1,0,0:0:0:0:
436,156,68201,1,0,0:0:0:0:
272,148,68431,1,0,0:0:0:0:
488,80,68662,1,0,0:0:0:0:
260,56,68893,1,0,0:0:0:0:
60,48,69124,1,0,0:0:0:0:
228,272,69354,5,0,0:0:0:0:
436,268,69585,2,0,L|364:264,1,70
108,280,70047,2,0,L|176:252,1,70
376,248,70508,1,0,0:0:0:0:
280,180,70739,1,0,0:0:0:0:
72,332,70970,2,0,B|92:280|184:272|244:228|108:188|56:156|48:136|48:104|208:68,1,420
256,192,72585,12,0,73739,0:0:0:0:
400,328,74201,5,0,0:0:0:0:
216,292,74431,1,0,0:0:0:0:
400,188,74662,2,0,L|332:172,1,70
124,172,75124,2,0,L|56:144,1,70
328,152,75585,1,0,0:0:0:0:
76,296,75816,2,0,L|144:264,1,70
384,300,76277,2,0,L|312:276,1,70
88,216,76739,1,0,0:0:0:0:
408,156,76970,1,0,0:0:0:0:
44,116,77431,1,0,0:0:0:0:
332,100,77893,5,0,0:0:0:0:
168,100,78124,1,0,0:0:0:0:
288,220,78354,1,0,0:0:0:0:
96,208,78585,1,0,0:0:0:0:
256,328,78816,2,0,L|324:296,1,70
472,272,79277,1,0,0:0:0:0:
304,356,79508,2,0,B|308:304|220:284|152:236|144:216|152:188|288:184|392:184|396:40,1,490
132,168,81585,6,0,L|56:168,1,70
236,104,82047,1,0,0:0:0:0:
24,76,82277,1,0,0:0:0:0:
304,176,82508,2,0,L|380:176,1,70
224,108,82970,1,0,0:0:0:0:
432,96,83200,1,0,0:0:0:0:
264,208,83431,2,0,B|264:168|192:148|152:120,1,140
420,172,84354,1,0,0:0:0:0:
48,124,84816,1,0,0:0:0:0:
196,248,85277,6,0,P|140:252|124:244,1,70
340,232,85739,2,0,P|368:208|400:200,1,70
168,156,86200,1,0,0:0:0:0:
388,128,86431,1,0,0:0:0:0:
164,64,86662,2,0,L|164:136,2,70
340,320,87354,1,0,0:0:0:0:
128,292,87585,1,0,0:0:0:0:
312,228,87816,2,0,L|236:232,1,70
440,160,88277,1,0,0:0:0:0:
276,216,88508,5,0,0:0:0:0:
220,196,88623,1,0,0:0:0:0:
156,168,88739,1,0,0:0:0:0:
136,92,88854,1,0,0:0:0:0:
196,340,88970,2,0,B|236:336|288:336|328:320|388:288|376:252|340:264|264:248|156:224|128:196|96:180|56:136|48:76|68:52|176:40|248:36|312:40|316:56,1,700
176,336,95662,6,0,P|132:328|112:304,1,70
380,280,96123,2,0,P|376:240|352:232,1,70
196,216,96585,1,0,0:0:0:0:
428,156,96816,2,0,L|356:148,1,70
204,136,97277,1,0,0:0:0:0:
396,304,97508,2,0,L|320:304,2,70
160,280,98200,1,0,0:0:0:0:
336,288,98431,1,0,0:0:0:0:
476,224,98662,1,0,0:0:0:0:
252,192,98892,1,0,0:0:0:0:
36,176,99123,1,0,0:0:0:0:
324,140,99354,6,0,L|396:128,2,70
112,104,100046,1,0,0:0:0:0:
312,108,100277,1,0,0:0:0:0:
112,168,100508,1,0,0:0:0:0:
316,172,100739,1,0,0:0:0:0:
184,292,100969,2,0,L|108:296,1,70
312,288,101431,2,0,L|384:284,1,70
212,224,101892,1,0,0:0:0:0:
412,176,102123,1,0,0:0:0:0:
216,136,102354,2,0,L|256:136,2,35
376,280,102815,5,0,0:0:0:0:
168,344,103046,2,0,P|128:328|120:284,1,70
300,252,103508,1,0,0:0:0:0:
408,176,103739,2,0,P|420:156|388:132,1,70
272,336,104200,1,0,0:0:0:0:
176,260,104431,2,0,P|236:248|248:232,1,70
68,220,104892,1,0,0:0:0:0:
180,140,105123,1,0,0:0:0:0:
52,112,105354,2,0,L|136:80,1,70
276,324,105931,5,0,0:0:0:0:
412,320,106046,2,0,L|360:268,1,70
248,232,106508,2,0,L|240:144,1,70
120,156,106854,1,0,0:0:0:0:
196,120,106969,2,0,L|228:40,1,70
440,168,107431,1,0,0:0:0:0:
288,160,107662,2,0,L|232:88,1,70
44,80,108123,1,0,0:0:0:0:
272,64,108354,1,0,0:0:0:0:
472,56,108585,1,0,0:0:0:0:
280,216,108815,6,0,L|272:136,1,70
120,144,109248,1,0,0:0:0:0:
408,144,109738,1,0,0:0:0:0:
176,144,110200,1,0,0:0:0:0:
420,304,111123,6,0,B|372:300|332:276|324:212,1,140
128,172,111815,1,0,0:0:0:0:
352,144,112046,2,0,P|404:112|424:80,1,70
176,88,112508,1,0,0:0:0:0:
104,28,112738,1,0,0:0:0:0:
296,288,112969,2,0,L|384:248,1,70
104,248,113431,2,0,L|192:208,1,70
52,160,113892,5,0,0:0:0:0:
136,128,114123,1,0,0:0:0:0:
200,96,114354,2,0,P|268:80|236:32,1,140
392,320,115046,2,0,L|320:288,1,70
96,296,115508,2,0,L|144:212,1,70
368,208,115969,1,0,0:0:0:0:
148,200,116200,1,0,0:0:0:0:
360,140,116431,1,0,0:0:0:0:
