osu file format v12

[General]
AudioFilename: it's fucking nothing.mp3
AudioLeadIn: 0
PreviewTime: 9345
Countdown: 0
SampleSet: None
StackLeniency: 0.3
Mode: 0
LetterboxInBreaks: 0
EpilepsyWarning: 1
WidescreenStoryboard: 0

[Editor]
Bookmarks: 2916,66141,95071,135349,181332,224673,275628,308932,338864,370806,417929,464733,508575,540675,567030,625343
DistanceSpacing: 1.3
BeatDivisor: 4
GridSize: 4
TimelineZoom: 1.9

[Metadata]
Title:Songs Compilation
TitleUnicode:Songs Compilation
Artist:Hanatan, yuikonnu & Mitani Nana
ArtistUnicode:花たん, ゆいこんぬ & 実谷なな
Creator:Amamiya Yuko
Version:Rabbit Face
Source:
Tags:Vocaloid Uta ni Katachi wa nai Keredo 歌に形はないけれど Monochroact モノクロアクト Route Sphere ルートスフィア drop ドロップ Cat Food キャットフード Hyakunen Yakou 百年夜行 Souzou Forest 想像フォレスト Nijigen Dream Fever 二次元ドリームフィーバー Aquarium of Sky 空中アクアリウム Hatsukoi no Ehon 初恋の絵本 Chikyuu Saigo no Kokuhaku wo 地球最後の告白を Kakushigoto かくしごと Shiroi Yuki no Princess ha ... 白い雪のプリンセスは Houkago Stride 放課後ストライド Tengaku 天樂 Kagerou Variation 影炎≒Variation doriko Last Note. PolyphonicBranch Jin 40mP HoneyWorks Kemu mafumafu Noboru-p Yuuyu Yairi keeno Skystar
BeatmapID:343741
BeatmapSetID:135876

[Difficulty]
HPDrainRate:5
CircleSize:4
OverallDifficulty:7
ApproachRate:9
SliderMultiplier:2
SliderTickRate:1

[Events]
//Background and Video events
0,0,"BG.jpg",0,0
//Break Periods
2,59443,65541
2,92322,94471
2,128174,134644
2,172960,179953
2,217394,223325
2,269367,274295
2,301161,307599
2,331799,337601
2,364327,368912
2,410596,414780
2,456656,461733
2,501532,506175
2,530225,538809
2,563542,564962
2,622058,623130
//Storyboard Layer 0 (Background)
//Storyboard Layer 1 (Fail)
//Storyboard Layer 2 (Pass)
//Storyboard Layer 3 (Foreground)
Sprite,Foreground,Centre,"SB\TB.jpg",320,240 M,0,0,,320,240 F,0,0,468,1
Sprite,Foreground,Centre,"SB\BG\Track 01.jpg",320,240 F,0,-144,468,0,1 M,0,-144,64447,349,178,289,289 F,0,468,64447,1,0.9934952
Sprite,Foreground,Centre,"SB\TB.jpg",320,240 F,0,62304,64447,0,1 F,0,64447,66131,1 F,0,66131,68322,1
Sprite,Foreground,Centre,"SB\BG\Track 02.jpg",320,240 F,0,66141,68322,0,1 M,0,66141,94504,395,262,295,219 F,0,68322,94504,1
Sprite,Foreground,Centre,"SB\TB.jpg",320,240 F,0,92322,94504,0,1 F,0,94504,96522,1,0.9986251
Sprite,Foreground,Centre,"SB\BG\Track 03.jpg",320,240 F,0,95554,96522,0,1 M,0,95554,133296,316,166,320,270 S,0,95554,133296,1.222968,0.9174195 F,0,96522,133296,1,0.9938017 V,0,134789,,0.9834838,1
Sprite,Foreground,Centre,"SB\TB.jpg",320,240 F,0,131361,133296,0,1 F,0,133296,136938,1
Sprite,Foreground,Centre,"SB\BG\Track 04.jpg",320,240 F,0,135349,136938,0,1 M,0,135349,178055,290,261,348,292 F,0,136938,178055,1,0.9955947
Sprite,Foreground,Centre,"SB\TB.jpg",320,240 F,0,175585,178055,0,1 F,0,178055,183401,1,0.9987854
Sprite,Foreground,Centre,"SB\BG\Track 05.jpg",320,240 M,0,176062,180297,313,258,291,298 F,0,180297,182539,0,1 M,0,180297,221677,291,298,338,216 F,0,182539,221677,1 M,0,221677,269418,338,216,323,245
Sprite,Foreground,Centre,"SB\TB.jpg",320,240 F,0,218746,221677,0,1 F,0,221677,226021,1
Sprite,Foreground,Centre,"SB\BG\Track 06.jpg",320,240 F,0,223325,224673,0,1 M,0,224673,272538,272,292,367,235 F,0,224673,272538,1
Sprite,Foreground,Centre,"SB\TB.jpg",320,240 M,0,244560,,320,240 F,0,244560,244898,0,0.5 F,0,244898,247426,0.5 F,0,247594,,0
Sprite,Foreground,Centre,"SB\TB.jpg",320,240 M,0,270516,,320,240 F,0,270516,272538,0,1 F,0,272538,277128,1,0.9203759
Sprite,Foreground,Centre,"SB\BG\Track 07.jpg",320,240 F,0,274295,275628,0,1 M,0,274295,306294,364,242,272,249 F,0,275628,306294,1
Sprite,Foreground,Centre,"SB\TB.jpg",320,240 F,0,303961,306294,0,1 F,0,306294,308932,1,0.9982855
Sprite,Foreground,Centre,"SB\BG\Track 08.jpg",320,240 F,0,307599,308932,0,1 M,0,307599,335599,320,248,342,289 S,0,307599,335599,0.8513548,1.057806 F,0,308932,335599,1
Sprite,Foreground,Centre,"SB\TB.jpg",320,240 F,0,320932,321265,1 F,0,321265,,0 M,0,333265,,320,240 F,0,333265,335599,0,1 F,0,335599,338864,1,0.9978577
Sprite,Foreground,Centre,"SB\BG\Track 09.jpg",320,240 F,0,338232,338943,0,1 M,0,338232,367285,320,240,318,266 S,0,338232,367285,1.140387,0.9174194 F,0,338943,367285,1 M,0,367285,420957,318,266,319,247
Sprite,Foreground,Centre,"SB\TB.jpg",320,240 F,0,365706,367285,0,1 F,0,367285,371438,1,0.9955668
Sprite,Foreground,Centre,"SB\BG\Track 11.jpg",320,240 S,0,370806,,0.9174196 F,0,370806,371438,0,1 M,0,370806,412490,319,154,319,318 F,0,371438,412490,1
Sprite,Foreground,Centre,"SB\TB.jpg",320,240 F,0,411069,412490,0,1 F,0,412490,418561,1
Sprite,Foreground,Centre,"SB\BG\Track 12.jpg",320,240 F,0,417929,418561,0,1 M,0,417929,461193,320,382,318,245 F,0,418561,461193,1
Sprite,Foreground,Centre,"SB\TB.jpg",320,240 F,0,417929,422982,0.6 F,0,422982,423614,0.6,1 F,0,423614,425824,1 F,0,425824,426140,1,0.4 F,0,426140,428508,0.4,0.6 F,0,428508,428903,0.6,1 F,0,428903,429929,1 F,0,429929,,0 F,0,459614,461193,0,1 F,0,461193,466533,1,0.9993667
Sprite,Foreground,Centre,"SB\BG\Track 13.jpg",320,240 F,0,466233,466533,0,1 M,0,466233,505233,315,263,319,238 S,0,466233,505233,1.132129,0.9174193 F,0,466533,505233,1
Sprite,Foreground,Centre,"SB\TB.jpg",320,240 F,0,481533,482133,0,1 F,0,482133,482433,1 F,0,482433,,0 F,0,503733,505233,0,1 F,0,505233,510975,1,0.9986666
Sprite,Foreground,Centre,"SB\BG\Track 14.jpg",320,240 F,0,509175,509775,0,1 M,0,509175,537975,368,164,319,203 S,0,509175,537975,1.239484,0.9174194 F,0,509775,537975,1
Sprite,Foreground,Centre,"SB\TB.jpg",320,240 M,0,536475,,320,240 F,0,536475,537975,0,1 F,0,537975,540942,1,0.996
Sprite,Foreground,Centre,"SB\BG\Track 15.jpg",320,240 F,0,540409,540942,0,0.9091614 S,0,540409,563742,1.222968,0.7935484 F,0,540942,563742,0.9091614
Sprite,Foreground,Centre,"SB\TB.jpg",320,240 F,0,563609,563742,0,1 F,0,563742,569099,1,0.9624216
Sprite,Foreground,Centre,"SB\BG\Track 16.jpg",320,240 F,0,566901,566966,0,0.255904 S,0,566901,569099,0.9091613 F,0,566966,567030,0.255904,0.507871 F,0,567030,567095,0.507871,0 F,0,567095,567160,0,1 F,0,567160,567224,1,0.2065672 F,0,567224,567289,0.2065672,0.6193548 F,0,567289,567354,0.6193548,0 F,0,567354,567418,0,0.752258 F,0,567418,567483,0.752258,0.384 F,0,567483,567548,0.384,0.7019355 F,0,567548,567612,0.7019355,0 F,0,567612,567677,0,1 F,0,567677,567742,1,0 F,0,567742,567806,0,0.5202581 F,0,567806,567871,0.5202581,0 F,0,567871,567936,0,1 F,0,567936,568065,1,0 F,0,568065,568582,0 F,0,569035,569099,0,1 S,0,569099,,0.9091613 F,0,569099,621858,1
Sprite,Foreground,Centre,"SB\TB.jpg",320,240 F,0,621729,621858,0,1 F,0,621858,631982,1,0.9612442
Sprite,Foreground,Centre,"SB\BG\Track 17.jpg",320,240 M,0,626019,,498,250 F,0,626019,626080,0,1 F,0,626080,626142,1,0 M,0,627494,,139,-26 F,0,627494,627556,0,0.7150968 F,0,627556,627617,0.7150968,0.09677422 M,0,627740,,501,26 F,0,627740,627802,0,1 F,0,627802,627863,1,0 M,0,627986,,139,284 F,0,627986,628048,0,1 F,0,628048,628109,1,0 M,0,629461,,139,284 F,0,629461,629523,0,0.5870967 F,0,629523,629584,0.5870967,0.01639342 M,0,629707,,500,308 F,0,629707,629769,0,0.6976837 F,0,629769,629830,0.6976837,0.01639342 M,0,629953,,139,477 F,0,629953,630015,0,1 F,0,630015,630076,1,0.01639342 F,0,631859,631982,0,1 M,0,631920,682637,318,353,317,265 S,0,631920,682637,1,0.6449032 F,0,631982,,1 F,0,631982,682637,1
Sprite,Foreground,Centre,"SB\Black.png",320,240 M,0,8,,320,240 F,0,8,487983,1 S,0,93413,,1 F,0,487983,488133,1 F,0,488133,569099,1 F,0,569099,569485,1 F,0,569485,600910,1 F,0,600910,631859,1 F,0,631859,682576,1 F,0,682576,682637,1,0
Sprite,Foreground,Centre,"SB\TB.jpg",320,240 F,0,682576,682637,0,1 M,0,682637,,320,240 F,0,682637,689891,1
Sprite,Foreground,Centre,"SB\Lyrics\A01.png",320,240 M,0,9039,,114,204 F,0,9039,9345,0,1 F,0,9345,19141,1,0.9936621 F,0,19141,19447,0.9936621,0
Sprite,Foreground,Centre,"SB\Lyrics\A02.png",320,240 M,0,12100,,214,246 F,0,12100,12406,0,1 F,0,12406,19141,1,0.9781184 F,0,19141,19447,0.9781184,0
Sprite,Foreground,Centre,"SB\Lyrics\A03.png",320,240 M,0,19447,,186,221 F,0,19447,19753,0,1 F,0,19753,24039,1,0.9877992 F,0,24039,24345,0.9877992,0
Sprite,Foreground,Centre,"SB\Lyrics\A04.png",320,240 M,0,24345,,155,211 F,0,24345,24651,0,1 F,0,24651,31386,1,0.9812443 F,0,31386,31692,0.9812443,0
Sprite,Foreground,Centre,"SB\Lyrics\A05.png",320,240 M,0,28631,,215,247 F,0,28631,28937,0,1 F,0,28937,31386,1,0.98838 F,0,31386,31692,0.98838,0
Sprite,Foreground,Centre,"SB\Lyrics\A06.png",320,240 M,0,31692,,200,241 F,0,31692,31998,0,1 F,0,31998,38733,1,0.9874962 F,0,38733,39039,0.9874962,0
Sprite,Foreground,Centre,"SB\Lyrics\A07.png",320,240 M,0,39039,,177,221 F,0,39039,39345,0,1 F,0,39345,48835,1,0.97851 F,0,48835,49447,0.97851,0
Sprite,Foreground,Centre,"SB\Lyrics\A08.png",320,240 M,0,43937,,227,254 F,0,43937,44243,0,1 F,0,44243,48835,1,0.9934641 F,0,48835,49447,0.9934641,0
Sprite,Foreground,Centre,"SB\Lyrics\A09.png",320,240 M,0,49447,,180,221 F,0,49447,49753,0,1 F,0,49753,57712,1,0.9794921 F,0,57712,58631,0.9794921,0
Sprite,Foreground,Centre,"SB\Lyrics\A11.png",320,240 M,0,53733,,215,255 F,0,53733,54039,0,1 F,0,54039,57712,1,0.9817023 F,0,57712,58631,0.9817023,0
Sprite,Foreground,Centre,"SB\Lyrics\B01.png",320,240 M,0,68731,,483,257 F,0,68731,68868,0,1 F,0,68868,72550,1,0.9648037 F,0,72550,72686,0.9648037,0
Sprite,Foreground,Centre,"SB\Lyrics\B02.png",320,240 M,0,72822,,451,253 F,0,72822,72959,0,1 F,0,72959,76913,1 F,0,76913,77050,1,0
Sprite,Foreground,Centre,"SB\Lyrics\B03.png",320,240 M,0,77186,,464,246 F,0,77186,77322,0,1 F,0,77322,81277,1,0.971566 F,0,81277,81413,0.971566,0
Sprite,Foreground,Centre,"SB\Lyrics\B04.png",320,240 M,0,81550,,429,243 F,0,81550,81686,0,1 F,0,81686,86868,1,0.9534276 F,0,86868,87413,0.9534276,0
Sprite,Foreground,Centre,"SB\Lyrics\B05.png",320,240 M,0,87550,,471,244 F,0,87550,87686,0,1 S,0,87550,93413,1,1.090839 F,0,87686,91777,1 F,0,91777,93413,1,0
Sprite,Foreground,Centre,"SB\Lyrics\C01-1.png",320,240 F,0,96159,96522,0,1 F,0,96522,100151,1,0.987087 F,0,100151,100393,0.987087,0
Sprite,Foreground,Centre,"SB\Lyrics\C01-2.png",320,240 F,0,100151,100393,0,1 F,0,100393,104990,1,0.9960744 F,0,104990,105232,0.9960744,0
Sprite,Foreground,Centre,"SB\Lyrics\C02-1.png",320,240 F,0,105232,105474,0,1 F,0,105474,108861,1,0.97686 F,0,108861,109103,0.97686,0
Sprite,Foreground,Centre,"SB\Lyrics\C02-2.png",320,240 F,0,109103,109345,0,1 F,0,109345,111764,1,0.973705 F,0,111764,112006,0.973705,0
Sprite,Foreground,Centre,"SB\Lyrics\C03-1.png",320,240 F,0,111764,112006,0,1 F,0,112006,115635,1,0.9767566 F,0,115635,115877,0.9767566,0
Sprite,Foreground,Centre,"SB\Lyrics\C03-2.png",320,240 F,0,115635,115877,0,1 F,0,115877,120474,1,0.9882233 F,0,120474,120716,0.9882233,0
Sprite,Foreground,Centre,"SB\Lyrics\C04-1.png",320,240 F,0,120716,120958,0,1 F,0,120958,123619,1,0.9734857 F,0,123619,123861,0.9734857,0
Sprite,Foreground,Centre,"SB\Lyrics\C04-2.png",320,240 F,0,123619,123861,0,1 F,0,123861,129425,1 F,0,129425,129667,1,0
Sprite,Foreground,Centre,"SB\Lyrics\D01-1.png",320,240 F,0,138526,138879,0,1 M,0,138702,,413,230 F,0,138879,144879,1,0.9786568 F,0,144879,145232,0.9786568,0
Sprite,Foreground,Centre,"SB\Lyrics\D01-2.png",320,240 M,0,140820,,471,266 F,0,140820,141173,0,1 F,0,141173,144879,1,0.994827 F,0,144879,145232,0.994827,0
Sprite,Foreground,Centre,"SB\Lyrics\D02-1.png",320,240 M,0,145055,,407,232 F,0,145055,145408,0,1 F,0,145408,149820,1,0.989508 F,0,149820,150173,0.989508,0
Sprite,Foreground,Centre,"SB\Lyrics\D02-2.png",320,240 M,0,147879,,481,265 F,0,147879,148232,0,1 F,0,148232,149820,1,0.9884117 F,0,149820,150173,0.9884117,0
Sprite,Foreground,Centre,"SB\Lyrics\D03.png",320,240 M,0,149820,,445,250 F,0,149820,150173,0,1 F,0,150173,155114,1,0.9947121 F,0,155114,155467,0.9947121,0
Sprite,Foreground,Centre,"SB\Lyrics\D04.png",320,240 M,0,155114,,448,249 F,0,155114,155467,0,1 F,0,155467,160761,1,0.9893769 F,0,160761,161114,0.9893769,0
Sprite,Foreground,Centre,"SB\Lyrics\D05.png",320,240 M,0,160761,,452,249 F,0,160761,161114,0,1 F,0,161114,167467,1 F,0,167467,167820,1,0
Sprite,Foreground,Centre,"SB\Lyrics\D06.png",320,240 M,0,167467,,444,250 F,0,167467,167820,0,1 F,0,167820,174173,1,0.9902875 F,0,174173,175232,0.9902875,0
Sprite,Foreground,Centre,"SB\Lyrics\E01.png",320,240 M,0,183918,,391,122 R,0,183918,,-0.1321289 F,0,183918,184090,0,1 F,0,184090,189435,1,0.9887366 F,0,189435,189608,0.9887366,0
Sprite,Foreground,Centre,"SB\Lyrics\E02.png",320,240 F,0,186504,186677,0,1 M,0,186677,,421,155 R,0,186677,,-0.1156128 F,0,186677,189435,1,0.9836825 F,0,189435,189608,0.9836825,0
Sprite,Foreground,Centre,"SB\Lyrics\E03-1.png",320,240 M,0,189780,,391,124 R,0,189780,,-0.148645 F,0,189780,189953,0,1 F,0,189953,194780,1,0.9676314 F,0,194780,194953,0.9676314,0
Sprite,Foreground,Centre,"SB\Lyrics\E03-2.png",320,240 M,0,191677,,455,152 R,0,191677,,-0.148645 F,0,191677,191849,0,1 F,0,191849,194780,1,0.9725504 F,0,194780,194953,0.9725504,0
Sprite,Foreground,Centre,"SB\Lyrics\E04.png",320,240 M,0,194953,,417,108 R,0,194953,,-0.1486453 F,0,194953,195125,0,1 F,0,195125,200470,1,0.9831019 F,0,200470,200642,0.9831019,0
Sprite,Foreground,Centre,"SB\Lyrics\E05.png",320,240 M,0,197711,,443,141 R,0,197711,,-0.1321292 F,0,197711,197884,0,1 F,0,197884,200470,1,0.9891603 F,0,200470,200642,0.9891603,0
Sprite,Foreground,Centre,"SB\Lyrics\E06-1.png",320,240 M,0,200815,,390,103 R,0,200815,,-0.148645 F,0,200815,200987,0,1 F,0,200987,205987,1,0.9718969 F,0,205987,206159,0.9718969,0
Sprite,Foreground,Centre,"SB\Lyrics\E06-2.png",320,240 M,0,202711,,434,135 R,0,202711,,-0.148645 F,0,202711,202884,0,1 F,0,202884,205987,1 F,0,205987,206159,1,0
Sprite,Foreground,Centre,"SB\Lyrics\E07-1.png",320,240 M,0,206332,,404,108 R,0,206332,,-0.1651613 F,0,206332,206504,0,1 F,0,206504,212366,1,0.9943527 F,0,212366,212539,0.9943527,0
Sprite,Foreground,Centre,"SB\Lyrics\E07-2.png",320,240 M,0,209090,,452,142 R,0,209090,,-0.148645 F,0,209090,209263,0,1 F,0,209263,212366,1,0.9671494 F,0,212366,212539,0.9671494,0
Sprite,Foreground,Centre,"SB\Lyrics\E08-1.png",320,240 M,0,212884,,400,97 R,0,212884,,-0.1651611 F,0,212884,213056,0,1 F,0,213056,217108,1 F,0,217108,217194,1,0
Sprite,Foreground,Centre,"SB\Lyrics\E08-2.png",320,240 M,0,215642,,464,117 R,0,215642,,-0.2147098 F,0,215642,215815,0,1 F,0,215815,217108,1,0.9710982 F,0,217108,217194,0.9710982,0
Sprite,Foreground,Centre,"SB\Lyrics\F01-1.png",320,240 M,0,225853,,339,159 F,0,225853,226021,0,1 V,0,225853,226021,1.016516,1.231226,1,1 F,0,226021,230572,1,0.9821429 F,0,230572,230740,0.9821429,0 V,0,230572,230740,1,1,0.9752258,1.189935
Sprite,Foreground,Centre,"SB\Lyrics\F01-2.png",320,240 M,0,227875,,426,193 F,0,227875,228044,0,1 V,0,227875,228044,1,1.239484,1,1.008258 F,0,228044,230572,1,0.9940829 F,0,230572,230740,0.9940829,0 V,0,230572,230740,1,1.008258,1,1.289032
Sprite,Foreground,Centre,"SB\Lyrics\F02-1.png",320,240 M,0,230909,,337,159 F,0,230909,231077,0,1 V,0,230909,231077,1.033032,1.429419,1,1 F,0,231077,236302,1,0.9702381 V,0,231077,236302,1,1 F,0,236302,236471,0.9702381,0 V,0,236302,236471,1,1,1.033032,1.404645
Sprite,Foreground,Centre,"SB\Lyrics\F02-2.png",320,240 M,0,233605,,407,192 F,0,233605,233774,0,1 V,0,233605,233774,1.016516,1.272516,1,1 F,0,233774,236302,1,0.9940829 V,0,233774,236302,1,1 F,0,236302,236471,0.9940829,0 V,0,236302,236471,1,1,1,1.289032
Sprite,Foreground,Centre,"SB\Lyrics\F03-1.png",320,240 M,0,236639,,339,162 F,0,236639,236808,0,1 V,0,236639,236808,1.024774,1.503742,1,1 F,0,236808,241358,1 V,0,236808,241358,1,1 F,0,241358,241527,1,0 V,0,241358,241527,1,1,1,1.42942
Sprite,Foreground,Centre,"SB\Lyrics\F03-2.png",320,240 M,0,238662,,400,198 F,0,238662,238830,0,1 V,0,238662,238830,0.9752258,1.388129,1,1 F,0,238830,241358,1,0.9944206 V,0,238830,241358,1,1 F,0,241358,241527,0.9944206,0 V,0,241358,241527,1,1,1.016516,1.619355
Sprite,Foreground,Centre,"SB\Lyrics\F04-1.png",320,240 M,0,241695,,336,161 F,0,241695,241864,0,1 V,0,241695,241864,1.033032,1.668903,1,1 F,0,241864,247089,1,0.9885343 V,0,241864,247089,1,1 F,0,247089,247257,0.9885343,0 V,0,247089,247257,1,1,1.016516,1.487226
Sprite,Foreground,Centre,"SB\Lyrics\F04-2.png",320,240 M,0,244392,,416,194 F,0,244392,244560,0,1 V,0,244392,244560,0.991742,1.396387,1,1 F,0,244560,247089,1,0.9776736 V,0,244560,247089,1,1 F,0,247089,247257,0.9776736,0 V,0,247089,247257,1,1,1.024774,1.47071
Sprite,Foreground,Centre,"SB\Lyrics\F05-1.png",320,240 M,0,247426,,335,162 F,0,247426,247594,0,1 V,0,247426,247594,1.008258,1.404645,1,1 F,0,247594,252145,1,0.9712976 V,0,247594,252145,1,1 F,0,252145,252313,0.9712976,0 V,0,252145,252313,1,1,1.008258,1.388129
Sprite,Foreground,Centre,"SB\Lyrics\F05-2.png",320,240 M,0,249448,,429,198 F,0,249448,249617,0,1 V,0,249448,249617,1.008258,1.462452,1,1 F,0,249617,252145,1,0.9889031 V,0,249617,252145,1,1 F,0,252145,252313,0.9889031,0 V,0,252145,252313,1,1,1,1.495484
Sprite,Foreground,Centre,"SB\Lyrics\F06-1.png",320,240 M,0,252482,,332,165 F,0,252482,252650,0,1 V,0,252482,252650,1.008258,1.47071,1,1 F,0,252650,257875,1 V,0,252650,257875,1,1 F,0,257875,258044,1,0 V,0,257875,258044,1,1,1,1.528516
Sprite,Foreground,Centre,"SB\Lyrics\F06-2.png",320,240 M,0,254167,,429,197 F,0,254167,254336,0,1 V,0,254167,254336,0.9587097,1.578065,1,1 F,0,254336,257875,1,0.9943526 V,0,254336,257875,1,1 F,0,257875,258044,0.9943526,0 V,0,257875,258044,1,1,1.033032,1.834065
Sprite,Foreground,Centre,"SB\Lyrics\F07-1.png",320,240 M,0,258212,,339,166 F,0,258212,258381,0,1 V,0,258212,258381,1.008258,1.520258,1,1 F,0,258381,263100,1,0.9942863 V,0,258381,263100,1,1 F,0,263100,263268,0.9942863,0 V,0,263100,263268,1,1,1.008258,1.462452
Sprite,Foreground,Centre,"SB\Lyrics\F07-2.png",320,240 M,0,260235,,420,201 F,0,260235,260403,0,1 V,0,260235,260403,1,1.512,1,1 F,0,260403,263100,1,0.9821429 V,0,260403,263100,1,1 F,0,263100,263268,0.9821429,0 V,0,263100,263268,1,1,0.991742,1.751484
Sprite,Foreground,Centre,"SB\Lyrics\F08-1.png",320,240 M,0,263268,,345,168 F,0,263268,263437,0,1 V,0,263268,263437,1,1.388129,1,1 F,0,263437,268999,1,0.9712816 V,0,263437,268999,1,1 F,0,268999,269167,0.9712816,0 V,0,268999,269167,1,1,1.008258,1.602839
Sprite,Foreground,Centre,"SB\Lyrics\F08-2.png",320,240 M,0,264617,,426,199 F,0,264617,264785,0,1 V,0,264617,264785,0.9504517,1.602839,1,1 F,0,264785,268999,1,0.9761904 V,0,264785,268999,1,1 F,0,268999,269167,0.9761904,0 V,0,268999,269167,1,1,1.016516,1.858839
Sprite,Foreground,Centre,"SB\Lyrics\G01.png",320,240 M,0,279461,,441,281 F,0,279461,279628,0,1 V,0,279461,279628,0.9421936,0.1,1,1 F,0,279628,281628,1,0.9700599 V,0,279628,281628,1,1 F,0,281628,281795,0.9700599,0 V,0,281628,281795,1,1,0.991742,0.1
Sprite,Foreground,Centre,"SB\Lyrics\G02.png",320,240 M,0,281628,,443,281 F,0,281628,281795,0,1 V,0,281628,281795,1.008258,0.1,1,1 F,0,281795,284795,1,0.9760479 V,0,281795,284795,1,1 F,0,284795,284961,0.9760479,0 V,0,284795,284961,1,1,1,0.1
Sprite,Foreground,Centre,"SB\Lyrics\G03.png",320,240 M,0,284795,,443,282 F,0,284795,284961,0,1 V,0,284795,284961,1.057806,0.1,1,1 F,0,284961,289961,1,0.970853 V,0,284961,289961,1,1 F,0,289961,290128,0.970853,0 V,0,289961,290128,1,1,1.066065,0.1
Sprite,Foreground,Centre,"SB\Lyrics\G04.png",320,240 M,0,290128,,436,281 F,0,290128,290295,0,1 V,0,290128,290295,1.04129,0.1,1,1 F,0,290295,294128,1,0.9655719 V,0,290295,294128,1,1 F,0,294128,294295,0.9655719,0 V,0,294128,294295,1,1,1.107355,0.1
Sprite,Foreground,Centre,"SB\Lyrics\G05.png",320,240 M,0,294128,,443,282 F,0,294128,294295,0,1 V,0,294128,294295,1,0.1,1,1 F,0,294295,298128,1,0.9770479 V,0,294295,298128,1,1 F,0,298128,298295,0.9770479,0 V,0,298128,298295,1,1,1.016516,0.1
Sprite,Foreground,Centre,"SB\Lyrics\G06.png",320,240 M,0,298628,,430,282 F,0,298628,298795,0,1 V,0,298628,298795,1.074322,0.1,1,1 F,0,298795,302128,1,0.9836677 V,0,298795,302128,1,1 F,0,302128,302461,0.9836677,0 V,0,302128,302461,1,1
Sprite,Foreground,Centre,"SB\Lyrics\H01-1.png",320,240 M,0,310099,310265,470,224,546,224 F,0,310099,310265,0,1 V,0,310099,310265,1,0.1246454,1,1 M,0,310265,312765,546,224 F,0,310265,312765,1,0.9887062 M,0,312765,312932,546,224,552,421 F,0,312765,312932,0.9887062,0
Sprite,Foreground,Centre,"SB\Lyrics\H01-2.png",320,240 M,0,311432,311599,457,267,549,264 F,0,311432,311599,0,1 V,0,311432,311599,1.016516,0.1,1,1 M,0,311599,312765,549,264 F,0,311599,312765,1 M,0,312765,312932,549,264,554,421 F,0,312765,312932,1,0
Sprite,Foreground,Centre,"SB\Lyrics\H02.png",320,240 M,0,312765,312932,363,244,488,244 F,0,312765,312932,0,1 V,0,312765,312932,0.9587097,0.1,1,1 M,0,312932,314765,488,244 F,0,312932,314765,1,0.9890239 M,0,314765,314932,488,244,495,422 F,0,314765,314932,0.9890239,0
Sprite,Foreground,Centre,"SB\Lyrics\H03.png",320,240 M,0,315099,315265,378,249,483,248 F,0,315099,315265,0,1 V,0,315099,315265,1.033032,0.1,1,1 M,0,315265,317599,483,248 F,0,315265,317599,1,0.9718795 M,0,317599,317765,483,248,482,421 F,0,317599,317765,0.9718795,0
Sprite,Foreground,Centre,"SB\Lyrics\H04-1.png",320,240 M,0,317765,317932,400,225,545,228 F,0,317765,317932,0,1 V,0,317765,317932,0.9174194,0.1,1,1 M,0,317932,320432,545,228 F,0,317932,320432,1,0.9735791 M,0,320432,320599,545,228,543,421 F,0,320432,320599,0.9735791,0
Sprite,Foreground,Centre,"SB\Lyrics\H04-2.png",320,240 M,0,319265,319432,386,269,571,270 F,0,319265,319432,0,1 V,0,319265,319432,0.9834839,0.1,1,1 M,0,319432,320432,571,270 F,0,319432,320432,1,0.9846066 M,0,320432,320599,571,270,576,420 F,0,320432,320599,0.9846066,0
Sprite,Foreground,Centre,"SB\Lyrics\H05-1.png",320,240 M,0,320765,320932,410,232,548,231 F,0,320765,320932,0,1 V,0,320765,320932,0.9174194,0.1,1,1 M,0,320932,323432,548,231 F,0,320932,323432,1,0.9775478 M,0,323432,323599,548,231,547,420 F,0,323432,323599,0.9775478,0
Sprite,Foreground,Centre,"SB\Lyrics\H05-2.png",320,240 M,0,321932,322099,398,267,559,267 F,0,321932,322099,0,1 V,0,321932,322099,0.8926452,0.1,1,1 M,0,322099,323432,559,267 F,0,322099,323432,1 M,0,323432,323599,559,267,557,421 F,0,323432,323599,1,0
Sprite,Foreground,Centre,"SB\Lyrics\H06.png",320,240 M,0,323432,323599,328,247,462,249 F,0,323432,323599,0,1 V,0,323432,323599,0.9587097,0.1,1,1 M,0,323599,325599,462,249 F,0,323599,325599,1,0.9889418 M,0,325599,325765,462,249,462,424 F,0,325599,325765,0.9889418,0
Sprite,Foreground,Centre,"SB\Lyrics\H07.png",320,240 M,0,325932,326099,378,232,557,230 F,0,325932,326099,0,1 V,0,325932,326099,1.239484,0.1,1,1 M,0,326099,328265,557,230 F,0,326099,328265,1,0.9833218 M,0,328265,328432,557,230,557,422 F,0,328265,328432,0.9833218,0
Sprite,Foreground,Centre,"SB\Lyrics\H08-1.png",320,240 M,0,328432,328599,377,230,593,227 F,0,328432,328599,0,1 V,0,328432,328599,0.9587097,0.1,1,1 M,0,328599,331265,593,227 F,0,328599,331265,1,0.994365 M,0,331265,331432,593,227,596,423 F,0,331265,331432,0.994365,0
Sprite,Foreground,Centre,"SB\Lyrics\H08-2.png",320,240 M,0,329099,329265,338,268,484,268 F,0,329099,329265,0,1 V,0,329099,329265,0.9339355,0.1,1,1 M,0,329265,331265,484,268 F,0,329265,331265,1,0.9759036 M,0,331265,331432,484,268,484,420 F,0,331265,331432,0.9759036,0
Sprite,Foreground,Centre,"SB\Lyrics\I01.png",320,240 M,0,339732,,22,97 F,0,339732,339811,0,1 F,0,339811,344469,1,0.9751057 F,0,344469,344548,0.9751057,0
Sprite,Foreground,Centre,"SB\Lyrics\I01.png",320,240 M,0,342258,,21,209 F,0,342258,342337,0,1 F,0,342337,344469,1 F,0,344469,344548,1,0
Sprite,Foreground,Centre,"SB\Lyrics\I02.png",320,240 M,0,344785,,22,131 F,0,344785,344864,0,1 F,0,344864,346837,1,0.9756582 F,0,346837,346916,0.9756582,0
Sprite,Foreground,Centre,"SB\Lyrics\I03.png",320,240 M,0,347311,,25,112 F,0,347311,347390,0,1 F,0,347390,349522,1 F,0,349522,349601,1,0
Sprite,Foreground,Centre,"SB\Lyrics\I04.png",320,240 M,0,349837,,24,131 F,0,349837,349916,0,1 F,0,349916,354574,1,0.9751057 F,0,354574,354653,0.9751057,0
Sprite,Foreground,Centre,"SB\Lyrics\I05.png",320,240 M,0,354890,,24,100 F,0,354890,354969,0,1 F,0,354969,363574,1,0.9874569 F,0,363574,363653,0.9874569,0
Sprite,Foreground,Centre,"SB\Lyrics\I06.png",320,240 M,0,356153,,22,204 F,0,356153,356232,0,1 F,0,356232,363574,1 F,0,363574,363653,1,0
Sprite,Foreground,Centre,"SB\Lyrics\J01.png",320,240 F,0,369464,369543,0,1 F,0,369543,370096,1 F,0,370096,370175,1,0
Sprite,Foreground,Centre,"SB\Lyrics\J02.png",320,240 F,0,371280,371438,0,1 F,0,371438,376648,1,0.9631431 F,0,376648,376806,0.9631431,0 V,0,376648,376806,1,1,1.04129,1.371613
Sprite,Foreground,Centre,"SB\Lyrics\J03.png",320,240 F,0,376964,377122,0,1 F,0,377122,380438,1,0.9697937 F,0,380438,380596,0.9697937,0 V,0,380438,380596,1,1,1.049548,1.528516
Sprite,Foreground,Centre,"SB\Lyrics\J04.png",320,240 F,0,380754,380912,0,1 F,0,380912,386754,1 F,0,386754,386912,1,0 V,0,386754,386912,1,1,1,1.445935
Sprite,Foreground,Centre,"SB\Lyrics\J05.png",320,240 F,0,387069,387227,0,1 F,0,387227,391490,1,0.9877942 F,0,391490,391648,0.9877942,0 V,0,391490,391648,1,1,0.991742,1.520258
Sprite,Foreground,Centre,"SB\Lyrics\J06-1.png",320,240 F,0,392122,392280,0,1 F,0,392280,397333,1 F,0,397333,397490,1,0 V,0,397333,397490,1,1,1.132129,1.685419
Sprite,Foreground,Centre,"SB\Lyrics\J06-2.png",320,240 F,0,397648,397806,0,1 F,0,397806,398438,1,0.964557 F,0,398438,398596,0.964557,0 V,0,398438,398596,1,1,1.082581,1.668903
Sprite,Foreground,Centre,"SB\Lyrics\J07-1.png",320,240 F,0,399069,399227,0,1 F,0,399227,401596,1 F,0,401596,401754,1,0 V,0,401596,401754,1,1,1.198194,1.503742
Sprite,Foreground,Centre,"SB\Lyrics\J07-2.png",320,240 F,0,402227,402385,0,1 F,0,402385,406964,1 F,0,406964,407122,1,0 V,0,406964,407122,1,1,1.123871,1.635871
Sprite,Foreground,Centre,"SB\Lyrics\J08.png",320,240 F,0,407280,407438,0,1 F,0,407438,410754,1,0.9818762 F,0,410754,410912,0.9818762,0 V,0,410754,410912,1,1,1.148645,1.668903
Sprite,Foreground,Centre,"SB\Lyrics\K01-1.png",320,240 M,0,418403,,190,271 F,0,418403,418561,0,1 V,0,418403,418561,1.057806,1.305548,1,1 F,0,418561,422508,1,0.9756579 F,0,422508,422666,0.9756579,0
Sprite,Foreground,Centre,"SB\Lyrics\K01-2.png",320,240 M,0,419350,,267,269 F,0,419350,419508,0,1 V,0,419350,419508,1.016516,1.272516,1,1 F,0,419508,422508,1,0.9759501 F,0,422508,422666,0.9759501,0
Sprite,Foreground,Centre,"SB\Lyrics\K01-3.png",320,240 M,0,420614,,416,269 F,0,420614,420772,0,1 V,0,420614,420772,1.04129,1.429419,1,1 F,0,420772,422508,1 F,0,422508,422666,1,0
Sprite,Foreground,Centre,"SB\Lyrics\K02-1.png",320,240 M,0,422666,,245,269 F,0,422666,422824,0,1 V,0,422666,422824,1.049548,1.305548,1,1 F,0,422824,427877,1,0.9877256 F,0,427877,428035,0.9877256,0
Sprite,Foreground,Centre,"SB\Lyrics\K02-2.png",320,240 M,0,425193,,365,271 F,0,425193,425350,0,1 V,0,425193,425350,1.066065,1.404645,1,1 F,0,425350,427877,1 F,0,427877,428035,1,0
Sprite,Foreground,Centre,"SB\Lyrics\K03-1.png",320,240 M,0,429456,,318,270 F,0,429456,429614,0,1 V,0,429456,429614,1.099097,1.487226,1,1 F,0,429614,431982,1 F,0,431982,432140,1,0
Sprite,Foreground,Centre,"SB\Lyrics\K03-2.png",320,240 M,0,431982,,317,272 F,0,431982,432140,0,1 V,0,431982,432140,1.024774,1.346839,1,1 F,0,432140,434508,1,0.976267 F,0,434508,434666,0.976267,0
Sprite,Foreground,Centre,"SB\Lyrics\K04-1.png",320,240 M,0,434508,,316,274 F,0,434508,434666,0,1 V,0,434508,434666,1.074322,1.379871,1,1 F,0,434666,436877,1,0.982279 F,0,436877,437035,0.982279,0
Sprite,Foreground,Centre,"SB\Lyrics\K04-2.png",320,240 M,0,437035,,315,274 F,0,437035,437193,0,1 V,0,437035,437193,1.057806,1.289032,1,1 F,0,437193,439403,1,0.9704659 F,0,439403,439561,0.9704659,0
Sprite,Foreground,Centre,"SB\Lyrics\K05-1.png",320,240 M,0,439403,,247,274 F,0,439403,439561,0,1 V,0,439403,439561,1.082581,1.256,1,1 F,0,439561,441929,1,0.9703338 F,0,441929,442087,0.9703338,0
Sprite,Foreground,Centre,"SB\Lyrics\K05-2.png",320,240 M,0,440193,,363,274 F,0,440193,440350,0,1 V,0,440193,440350,1.099097,1.289032,1,1 F,0,440350,441929,1,0.9768398 F,0,441929,442087,0.9768398,0
Sprite,Foreground,Centre,"SB\Lyrics\K05-3.png",320,240 M,0,442087,,319,274 F,0,442087,442245,0,1 V,0,442087,442245,1.049548,1.355097,1,1 F,0,442245,445877,1 F,0,445877,446035,1,0
Sprite,Foreground,Centre,"SB\Lyrics\K06-1.png",320,240 M,0,446193,,316,273 F,0,446193,446350,0,1 V,0,446193,446350,1.074322,1.371613,1,1 F,0,446350,449035,1,0.9699228 F,0,449035,449193,0.9699228,0
Sprite,Foreground,Centre,"SB\Lyrics\K06-2.png",320,240 M,0,449350,,320,274 F,0,449350,449508,0,1 V,0,449350,449508,1.082581,1.256,1,1 F,0,449508,451403,1 F,0,451403,451561,1,0
Sprite,Foreground,Centre,"SB\Lyrics\K07-1.png",320,240 M,0,451877,,317,277 F,0,451877,452035,0,1 V,0,451877,452035,1.033032,1.396387,1,1 F,0,452035,453929,1,0.9766328 F,0,453929,454087,0.9766328,0
Sprite,Foreground,Centre,"SB\Lyrics\K07-2.png",320,240 M,0,454087,,317,277 F,0,454087,454245,0,1 V,0,454087,454245,1.198194,1.412903,1,1 F,0,454245,456456,1,0.976372 F,0,456456,456614,0.976372,0
Sprite,Foreground,Centre,"SB\Lyrics\L01-1.png",320,240 F,0,464583,464733,0,1 F,0,464733,466083,1 F,0,466083,466233,1,0 V,0,466083,466233,1,1,1.181677,1.404645
Sprite,Foreground,Centre,"SB\Lyrics\L01-2.png",320,240 F,0,466383,466533,0,1 M,0,466533,,411,306 F,0,466533,469083,1 F,0,469083,469233,1,0 V,0,469083,469233,1,1,1.21471,1.561548
Sprite,Foreground,Centre,"SB\Lyrics\L01-3.png",320,240 F,0,467583,467733,0,1 M,0,467733,,471,341 F,0,467733,469083,1,0.988 F,0,469083,469233,0.988,0 V,0,469083,469233,1,1,1.140387,1.379871
Sprite,Foreground,Centre,"SB\Lyrics\L02-1.png",320,240 M,0,469383,,438,304 F,0,469383,469533,0,1 F,0,469533,475083,1,0.9935088 F,0,475083,475233,0.9935088,0 V,0,475083,475233,1,1,1.280774,1.437678
Sprite,Foreground,Centre,"SB\Lyrics\L02-2.png",320,240 M,0,472383,,495,338 F,0,472383,472533,0,1 F,0,472533,475083,1,0.9874074 F,0,475083,475233,0.9874074,0 V,0,475083,475233,1,1,1.231226,1.338581
Sprite,Foreground,Centre,"SB\Lyrics\L03-1.png",320,240 M,0,475383,,443,303 F,0,475383,475533,0,1 F,0,475533,478683,1,0.9872727 F,0,478683,478833,0.9872727,0 V,0,478683,478833,1,1,1.181678,1.338581
Sprite,Foreground,Centre,"SB\Lyrics\L03-2.png",320,240 M,0,477183,,495,339 F,0,477183,477333,0,1 F,0,477333,478683,1,0.994 F,0,478683,478833,0.994,0 V,0,478683,478833,1,1,1.148645,1.305548
Sprite,Foreground,Centre,"SB\Lyrics\L04.png",320,240 M,0,478983,,459,315 F,0,478983,479133,0,1 F,0,479133,481233,1 F,0,481233,481383,1,0 V,0,481233,481383,1,1,1.173419,1.759742
Sprite,Foreground,Centre,"SB\Lyrics\L05-1.png",320,240 M,0,481383,,418,305 F,0,481383,481533,0,1 F,0,481533,485883,1,0.9935555 F,0,485883,486033,0.9935555,0 V,0,485883,486033,1,1,1.074322,1.355097
Sprite,Foreground,Centre,"SB\Lyrics\L05-2.png",320,240 M,0,483183,,438,341 F,0,483183,483333,0,1 F,0,483333,485883,1,0.9874074 F,0,485883,486033,0.9874074,0 V,0,485883,486033,1,1,1.148645,1.189935
Sprite,Foreground,Centre,"SB\Lyrics\L05-3.png",320,240 M,0,484383,,510,340 F,0,484383,484533,0,1 F,0,484533,485883,1,0.9866667 F,0,485883,486033,0.9866667,0 V,0,485883,486033,1,1,1.123871,1.198194
Sprite,Foreground,Centre,"SB\Lyrics\L06-1.png",320,240 M,0,486183,,422,309 F,0,486183,486333,0,1 F,0,486333,491883,1,0.9935088 V,0,491883,,1,1 F,0,491883,492033,0.9935088,0 V,0,491883,492033,1,1,1.156903,1.412903
Sprite,Foreground,Centre,"SB\Lyrics\L06-2.png",320,240 M,0,487983,,495,310 F,0,487983,488133,0,1 F,0,488133,491883,1 F,0,491883,492033,1,0 V,0,491883,492033,1,1,1.21471,1.445935
Sprite,Foreground,Centre,"SB\Lyrics\L06-3.png",320,240 M,0,489783,,475,348 F,0,489783,489933,0,1 F,0,489933,491883,1 F,0,491883,492033,1,0 V,0,491883,492033,1,1,1.198194,1.503742
Sprite,Foreground,Centre,"SB\Lyrics\L07-1.png",320,240 M,0,492183,,433,301 F,0,492183,492333,0,1 F,0,492333,495483,1,0.9681818 F,0,495483,495633,0.9681818,0 V,0,495483,495633,1,1,1.165161,1.346839
Sprite,Foreground,Centre,"SB\Lyrics\L07-2.png",320,240 M,0,493983,,491,341 F,0,493983,494133,0,1 F,0,494133,495483,1,0.9733334 F,0,495483,495633,0.9733334,0 V,0,495483,495633,1,1,1.156903,1.734968
Sprite,Foreground,Centre,"SB\Lyrics\L08-1.png",320,240 M,0,495783,,391,301 F,0,495783,495933,0,1 F,0,495933,503133,1 F,0,503133,504033,1,0
Sprite,Foreground,Centre,"SB\Lyrics\L08-2.png",320,240 M,0,496983,,452,299 F,0,496983,497133,0,1 F,0,497133,503133,1,0.9942029 F,0,503133,504033,0.9942029,0
Sprite,Foreground,Centre,"SB\Lyrics\L08-3.png",320,240 M,0,498183,,425,337 F,0,498183,498333,0,1 F,0,498333,503133,1,0.9866667 F,0,503133,504033,0.9866667,0
Sprite,Foreground,Centre,"SB\Lyrics\L08-4.png",320,240 M,0,499383,,502,339 F,0,499383,499533,0,1 F,0,499533,503133,1,0.9933333 F,0,503133,504033,0.9933333,0
Sprite,Foreground,Centre,"SB\Lyrics\M01-1.png",320,240 M,0,509625,509775,373,323,391,322 F,0,509625,509775,0,1 M,0,509775,514725,391,322,429,322 F,0,509775,514725,1 M,0,514725,514875,429,322,488,321 F,0,514725,514875,1,0
Sprite,Foreground,Centre,"SB\Lyrics\M01-2.png",320,240 M,0,511875,512025,503,364,478,365 F,0,511875,512025,0,1 M,0,512025,514725,478,365,461,364 F,0,512025,514725,1,0.9873684 M,0,514725,514875,461,364,424,364 F,0,514725,514875,0.9873684,0
Sprite,Foreground,Centre,"SB\Lyrics\M02-1.png",320,240 M,0,515025,515175,387,324,407,325 F,0,515025,515175,0,1 M,0,515175,519525,407,325,433,322 F,0,515175,519525,1,0.9871112 M,0,519525,519675,433,322,519,321 F,0,519525,519675,0.9871112,0
Sprite,Foreground,Centre,"SB\Lyrics\M02-2.png",320,240 M,0,517875,518025,504,360,478,362 F,0,517875,518025,0,1 M,0,518025,519525,478,362,453,362 F,0,518025,519525,1,0.9939394 F,0,519525,519675,0.9939394,0 M,0,519525,519686,453,362,368,362
Sprite,Foreground,Centre,"SB\Lyrics\M03-1.png",320,240 M,0,519825,519975,380,320,413,320 F,0,519825,519975,0,1 M,0,519975,525525,413,320,441,320 F,0,519975,525525,1,0.9933333 M,0,525525,525675,441,320,507,320 F,0,525525,525675,0.9933333,0
Sprite,Foreground,Centre,"SB\Lyrics\M03-2.png",320,240 M,0,522825,522975,510,363,464,363 F,0,522825,522975,0,1 M,0,522975,525525,464,363,438,363 F,0,522975,525525,1,0.9733334 M,0,525525,525675,438,363,385,363 F,0,525525,525675,0.9733334,0
Sprite,Foreground,Centre,"SB\Lyrics\M04-1.png",320,240 M,0,525825,525975,355,301,395,301 F,0,525825,525975,0,1 M,0,525975,531525,395,301,437,301 F,0,525975,531525,1,0.9805263 M,0,531525,531675,437,301,481,301 F,0,531525,531675,0.9805263,0
Sprite,Foreground,Centre,"SB\Lyrics\M04-2.png",320,240 M,0,527625,527775,526,338,489,338 F,0,527625,527775,0,1 M,0,527775,531525,489,338,436,336 F,0,527775,531525,1 M,0,531525,531675,436,336,395,336 F,0,531525,531675,1,0
Sprite,Foreground,Centre,"SB\Lyrics\M04-3.png",320,240 M,0,528825,528975,404,376,448,376 F,0,528825,528975,0,1 M,0,528975,531525,448,376,474,375 F,0,528975,531525,1,0.96 M,0,531525,531675,474,375,525,374 F,0,531525,531675,0.96,0
Sprite,Foreground,Centre,"SB\Lyrics\N01-1.png",320,240 M,0,540809,,174,240 F,0,540809,540942,0,1 R,0,540809,540942,1.255226,-0.148645 F,0,540942,542809,1,0.9924812 R,0,540942,542809,-0.148645 F,0,542809,542942,0.9924812,0 R,0,542809,542942,-0.148645,-3.303226
Sprite,Foreground,Centre,"SB\Lyrics\N01-2.png",320,240 M,0,541875,,322,256 F,0,541875,542009,0,1 R,0,541875,542809,0.1981934 F,0,542009,542809,1 F,0,542809,542942,1,0 R,0,542809,542942,0.1981934,-2.593032
Sprite,Foreground,Centre,"SB\Lyrics\N01-3.png",320,240 M,0,542275,,438,249 F,0,542275,542409,0,1 R,0,542275,542409,-0.2312262 F,0,542409,542809,1 R,0,542409,542809,-0.2312262 F,0,542809,542942,1,0 R,0,542809,542942,-0.2312262,-5.879743
Sprite,Foreground,Centre,"SB\Lyrics\N02-1.png",320,240 M,0,542809,,200,233 F,0,542809,542942,0,1 R,0,542809,542942,0.1156128 F,0,542942,545075,1 R,0,542942,545075,0.1156128 F,0,545075,545209,1,0 R,0,545075,545209,0.1156128,-6.540387
Sprite,Foreground,Centre,"SB\Lyrics\N02-2.png",320,240 M,0,543875,,346,291 F,0,543875,544009,0,1 R,0,543875,545075,-0.3468384 F,0,544009,545075,1,0.9925373 F,0,545075,545209,0.9925373,0 R,0,545075,545209,-0.3468384,-6.210065
Sprite,Foreground,Centre,"SB\Lyrics\N02-3.png",320,240 M,0,544142,,419,268 F,0,544142,544275,0,1 R,0,544142,545075,0.1981934 F,0,544275,545075,1 F,0,545075,545209,1,0 R,0,545075,545209,0.1981934,-4.608
Sprite,Foreground,Centre,"SB\Lyrics\N02-4.png",320,240 M,0,544409,,457,311 F,0,544409,544542,0,1 R,0,544409,545075,-0.2147101 F,0,544542,545075,1 F,0,545075,545209,1,0 R,0,545075,545209,-0.2147101,-2.725162
Sprite,Foreground,Centre,"SB\Lyrics\N02-5.png",320,240 M,0,544675,,516,282 F,0,544675,544809,0,1 R,0,544675,545075,0.148645 F,0,544809,545075,1 F,0,545075,545209,1,0 R,0,545075,545209,0.148645,-5.219097
Sprite,Foreground,Centre,"SB\Lyrics\N03-1.png",320,240 M,0,545075,,163,192 R,0,545075,,-0.09909668 F,0,545075,545209,0,1 F,0,545209,546275,1 F,0,546275,546409,1,0
Sprite,Foreground,Centre,"SB\Lyrics\N03-2.png",320,240 M,0,545475,,246,225 R,0,545475,,0.1321289 F,0,545475,545609,0,1 F,0,545609,546275,1,0.9850746 F,0,546275,546409,0.9850746,0
Sprite,Foreground,Centre,"SB\Lyrics\N03-1.png",320,240 M,0,545875,,186,277 R,0,545875,,-0.346839 F,0,545875,546009,0,1 F,0,546009,546275,1 F,0,546275,546409,1,0
Sprite,Foreground,Centre,"SB\Lyrics\N03-4.png",320,240 F,0,546409,546542,0,1 R,0,546409,546542,-2.147097,0 F,0,546542,547209,1 R,0,546542,547209,0 F,0,547209,547342,1,0 R,0,547209,547342,0,2.576516
Sprite,Foreground,Centre,"SB\Lyrics\N03-5.png",320,240 M,0,547209,,503,197 R,0,547209,,0.1816773 F,0,547209,547342,0,1 F,0,547342,548409,1 F,0,548409,548542,1,0
Sprite,Foreground,Centre,"SB\Lyrics\N03-6.png",320,240 M,0,547609,,414,236 R,0,547609,,-0.2972907 F,0,547609,547742,0,1 F,0,547742,548409,1 F,0,548409,548542,1,0
Sprite,Foreground,Centre,"SB\Lyrics\N03-7.png",320,240 M,0,548009,,490,267 R,0,548009,,0.3633545 F,0,548009,548142,0,1 F,0,548142,548409,1 F,0,548409,548542,1,0
Sprite,Foreground,Centre,"SB\Lyrics\N03-8.png",320,240 F,0,548542,548675,0,1 R,0,548542,548675,-5.400774,0 F,0,548675,549075,1 R,0,548675,549075,0 F,0,549075,549209,1,0 R,0,549075,549209,0,3.28671
Sprite,Foreground,Centre,"SB\Lyrics\N04-1.png",320,240 M,0,549342,,179,234 F,0,549342,549475,0,1 R,0,549342,549475,1.354322,-0.3138071 F,0,549475,551342,1,0.9719248 R,0,549475,551342,-0.3138071 F,0,551342,551475,0.9719248,0 R,0,551342,551475,-0.3138071,-7.382711
Sprite,Foreground,Centre,"SB\Lyrics\N04-2.png",320,240 M,0,550275,,315,252 F,0,550275,550409,0,1 R,0,550275,551342,0.1816773 F,0,550409,551342,1,0.977612 F,0,551342,551475,0.977612,0 R,0,551342,551475,0.1816773,4.360258
Sprite,Foreground,Centre,"SB\Lyrics\N04-3.png",320,240 M,0,550542,,373,230 F,0,550542,550675,0,1 R,0,550542,551342,-0.2477417 F,0,550675,551342,1,0.9774436 F,0,551342,551475,0.9774436,0 R,0,551342,551475,-0.2477417,3.716129
Sprite,Foreground,Centre,"SB\Lyrics\N04-4.png",320,240 M,0,550809,,423,265 F,0,550809,550942,0,1 R,0,550809,551342,0.1321289 F,0,550942,551342,1 F,0,551342,551475,1,0 R,0,551342,551475,0.1321289,4.409806
Sprite,Foreground,Centre,"SB\Lyrics\N04-5.png",320,240 M,0,551075,,478,241 F,0,551075,551209,0,1 R,0,551075,551342,-0.3633551 F,0,551209,551342,1 F,0,551342,551475,1,0 R,0,551342,551475,-0.3633551,4.029935
Sprite,Foreground,Centre,"SB\Lyrics\N05-1.png",320,240 M,0,551342,,175,235 F,0,551342,551475,0,1 R,0,551342,551475,-9.612388,0.1321289 F,0,551475,553475,1,0.962406 R,0,551475,553475,0.1321289 F,0,553475,553609,0.962406,0 R,0,553475,553609,0.1321289,4.954838
Sprite,Foreground,Centre,"SB\Lyrics\N05-2.png",320,240 M,0,552409,,328,220 F,0,552409,552542,0,1 R,0,552409,553475,-0.3138061 F,0,552542,553475,1,0.9774436 F,0,553475,553609,0.9774436,0 R,0,553475,553609,-0.3138061,-9.529806
Sprite,Foreground,Centre,"SB\Lyrics\N05-3.png",320,240 M,0,552675,,392,259 F,0,552675,552809,0,1 R,0,552675,553475,0.1651617 F,0,552809,553475,1 F,0,553475,553609,1,0 R,0,553475,553609,0.1651617,-7.002838
Sprite,Foreground,Centre,"SB\Lyrics\N05-3.png",320,240 M,0,552942,,455,228 F,0,552942,553075,0,1 R,0,552942,553475,-0.1651611 F,0,553075,553475,1,0.9774436 F,0,553475,553609,0.9774436,0 R,0,553475,553609,-0.1651611,-10.15742
Sprite,Foreground,Centre,"SB\Lyrics\N05-5.png",320,240 M,0,553209,,513,261 F,0,553209,553342,0,1 R,0,553209,553475,-0.2147095 F,0,553342,553475,1 F,0,553475,553609,1,0 R,0,553475,553609,-0.2147095,-9.926193
Sprite,Foreground,Centre,"SB\Lyrics\N06-1.png",320,240 M,0,553609,,149,203 F,0,553609,553742,0,1 R,0,553609,554809,0.1981934 F,0,553742,554809,1 F,0,554809,554942,1,0 R,0,554809,554942,0.1981934,5.41729
Sprite,Foreground,Centre,"SB\Lyrics\N06-1.png",320,240 M,0,554009,,205,251 F,0,554009,554142,0,1 R,0,554009,554809,-0.1651611 F,0,554142,554809,1 F,0,554809,554942,1,0 R,0,554809,554942,-0.1651611,-7.597419
Sprite,Foreground,Centre,"SB\Lyrics\N06-1.png",320,240 M,0,554409,,299,214 F,0,554409,554542,0,1 R,0,554409,554809,-0.1816773 F,0,554542,554809,1 F,0,554809,554942,1,0 R,0,554809,554942,-0.1816773,-10.45471
Sprite,Foreground,Centre,"SB\Lyrics\N06-2.png",320,240 M,0,554942,,435,248 F,0,554942,555075,0,1 R,0,554942,557742,0.1651611 F,0,555075,557742,1 F,0,557742,557875,1,0 R,0,557742,557875,0.1651611,6.077935
Sprite,Foreground,Centre,"SB\Lyrics\N07-1.png",320,240 M,0,557875,,197,244 R,0,557875,,-0.2147095 F,0,557875,558009,0,1 F,0,558009,563609,1,0.9854318 F,0,563609,563675,0.9854318,0
Sprite,Foreground,Centre,"SB\Lyrics\N07-2.png",320,240 M,0,562142,,343,263 R,0,562142,,0.1651617 F,0,562142,562275,0,1 F,0,562275,563275,1,0.9830912 F,0,563275,563342,0.9830912,0
Sprite,Foreground,Centre,"SB\Lyrics\N07-2.png",320,240 M,0,562542,,378,254 S,0,562542,,1.256 R,0,562542,,-0.1816773 F,0,562542,562675,0,1 F,0,562675,563275,1 F,0,563275,563342,1,0
Sprite,Foreground,Centre,"SB\Lyrics\N07-2.png",320,240 M,0,562942,,428,238 S,0,562942,,1.801032 R,0,562942,,0.148645 F,0,562942,563075,0,1 F,0,563075,,1 F,0,563075,563275,1 F,0,563275,563342,1,0
Sprite,Foreground,Centre,"SB\Lyrics\N07-3.png",320,240 M,0,563209,,450,240 S,0,563209,,2.230452 R,0,563209,,0.148645 F,0,563209,563342,0,1 F,0,563342,563609,1 F,0,563609,563675,1,0
Sprite,Foreground,Centre,"SB\Lyrics\P01-1.png",320,240 M,0,569035,,427,347 F,0,569035,569099,0,1 S,0,569035,569099,3.246194,1 F,0,569099,,1 F,0,569099,576082,1 S,0,569099,576082,1 F,0,576082,576212,1 S,0,576082,576212,1,0.1
Sprite,Foreground,Centre,"SB\Lyrics\P01-2.png",320,240 M,0,569875,,433,383 F,0,569875,570005,0,1 S,0,569875,570005,2.536,1 F,0,570005,576082,1 S,0,570005,576082,1 F,0,576082,576212,1,0 S,0,576082,576212,1,0.1
Sprite,Foreground,Centre,"SB\Lyrics\P01-3.png",320,240 M,0,572462,,429,425 F,0,572462,572591,0,1 S,0,572462,572591,3.254452,1 S,0,572591,,1 F,0,572591,576082,1 S,0,572591,576082,1 F,0,576082,576212,1,0 S,0,576082,576212,1,0.1
Sprite,Foreground,Centre,"SB\Lyrics\P02-1.png",320,240 M,0,577246,,443,339 F,0,577246,577375,0,1 S,0,577246,577375,2.486452,1 F,0,577375,580737,1,0.9844961 S,0,577375,580737,1 F,0,580737,580867,0.9844961,0 S,0,580737,580867,1,0.1
Sprite,Foreground,Centre,"SB\Lyrics\P02-2.png",320,240 M,0,580867,,443,353 F,0,580867,580996,0,1 S,0,580867,580996,2.593807,1 F,0,580996,587979,1 S,0,580996,587979,1 F,0,587979,588108,1,0 S,0,587979,588108,1,0.1
Sprite,Foreground,Centre,"SB\Lyrics\P03.png",320,240 M,0,588367,,455,353 F,0,588367,588496,0,1 S,0,588367,588496,2.874581,1 F,0,588496,592893,1,0.9767442 S,0,588496,592893,1 F,0,592893,593022,0.9767442,0 S,0,592893,593022,1,0.1
Sprite,Foreground,Centre,"SB\Lyrics\P01-1.png",320,240 M,0,593280,,457,315 F,0,593280,593410,0,1 S,0,593280,593410,3.56,1 F,0,593410,600910,1,0.9848755 S,0,593410,600910,1 F,0,600910,601039,0.9848755,0 S,0,600910,601039,1,0.1
Sprite,Foreground,Centre,"SB\Lyrics\P04-1.png",320,240 M,0,594444,,462,353 F,0,594444,594574,0,1 S,0,594444,594574,2.469936,1 F,0,594574,600910,1 S,0,594574,600910,1 F,0,600910,601039,1,0 S,0,600910,601039,1,0.1
Sprite,Foreground,Centre,"SB\Lyrics\P04-2.png",320,240 M,0,597289,,461,398 F,0,597289,597418,0,1 S,0,597289,597418,3.328774,1 F,0,597418,600910,1 S,0,597418,600910,1 F,0,600910,601039,1,0 S,0,600910,601039,1,0.1
Sprite,Foreground,Centre,"SB\Lyrics\P05-1.png",320,240 M,0,601944,,452,329 F,0,601944,602074,0,1 S,0,601944,602074,2.073548,1 F,0,602074,605436,1,0.9851839 S,0,602074,605436,1 F,0,605436,605565,0.9851839,0 S,0,605436,605565,1,0.1
Sprite,Foreground,Centre,"SB\Lyrics\P05-2.png",320,240 M,0,605565,,451,351 F,0,605565,605694,0,1 S,0,605565,605694,2.123097,1 F,0,605694,612806,1 S,0,605694,612806,1 F,0,612806,612936,1,0 S,0,612806,612936,1,0.1
Sprite,Foreground,Centre,"SB\Lyrics\P03.png",320,240 M,0,613194,,454,362 F,0,613194,613324,0,1 S,0,613194,613324,3.138839,1 F,0,613324,621793,1 F,0,621793,621858,1,0
Sprite,Foreground,Centre,"SB\Lyrics\R01-1.png",320,240 F,0,625281,625343,0,1 F,0,625343,627494,1 F,0,627494,627556,1,0 V,0,627494,627556,1,1,1.008258,2.024
Sprite,Foreground,Centre,"SB\Lyrics\R01-2.png",320,240 F,0,627986,628048,0,1 F,0,628048,629461,1,0.9690979 F,0,629461,629523,0.9690979,0 V,0,629461,629523,1,1,0.9587097,1.875355
Sprite,Foreground,Centre,"SB\Lyrics\R01-3.png",320,240 F,0,629953,630015,0,1 F,0,630015,631429,1 F,0,631429,631490,1,0 V,0,631429,631490,1,1,1.016516,2.445161
Sprite,Foreground,Centre,"SB\Lyrics\R01-4.png",320,240 F,0,631429,631490,0,1 F,0,631490,633642,1 F,0,633642,633703,1,0 V,0,633642,633703,1,1,1,2.156129
Sprite,Foreground,Centre,"SB\Lyrics\R02-1.png",320,240 F,0,633888,633949,0,1 F,0,633949,635363,1,0.9373505 F,0,635363,635425,0.9373505,0 V,0,635363,635425,1,1,1.090839,2.23871
Sprite,Foreground,Centre,"SB\Lyrics\R02-2.png",320,240 F,0,635363,635425,0,1 F,0,635425,637269,1,0.9531623 F,0,637269,637330,0.9531623,0 V,0,637269,637330,1,1,0.9504517,2.453419
Sprite,Foreground,Centre,"SB\Lyrics\R02-3.png",320,240 F,0,637269,637330,0,1 F,0,637330,639175,1,0.9206561 F,0,639175,639236,0.9206561,0 V,0,639175,639236,1,1,1.049548,2.172645
Sprite,Foreground,Centre,"SB\Lyrics\R02-4.png",320,240 F,0,639298,639359,0,1 F,0,639359,641511,1,0.9362338 F,0,641511,641572,0.9362338,0 V,0,641511,641572,1,1,0.9587097,2.32129
Sprite,Foreground,Centre,"SB\Lyrics\R03-1.png",320,240 F,0,641757,641818,0,1 F,0,641818,643232,1,0.9371381 F,0,643232,643293,0.9371381,0 V,0,643232,643293,1,1,0.9009033,2.06529
Sprite,Foreground,Centre,"SB\Lyrics\R03-2.png",320,240 F,0,643724,643785,0,1 F,0,643785,645199,1,0.9685903 F,0,645199,645261,0.9685903,0 V,0,645199,645261,1,1,0.9669678,2.965419
Sprite,Foreground,Centre,"SB\Lyrics\R03-3.png",320,240 F,0,645691,645752,0,1 F,0,645752,647043,1,0.9687155 F,0,647043,647105,0.9687155,0 V,0,647043,647105,1,1,1.099097,1.990968
Sprite,Foreground,Centre,"SB\Lyrics\R03-4.png",320,240 F,0,647166,647228,0,1 F,0,647228,649380,1,0.9843156 F,0,649380,649441,0.9843156,0 V,0,649380,649441,1,1,1.057806,2.49471
Sprite,Foreground,Centre,"SB\Lyrics\R05-1.png",320,240 M,0,649625,,320,240 F,0,649625,649687,0,1 F,0,649687,650978,1 F,0,650978,651039,1,0 V,0,650978,651039,1,1,1.181677,2.412129 V,0,651039,651408,1.181677,2.412129
Sprite,Foreground,Centre,"SB\Lyrics\R05-2.png",320,240 F,0,651101,651162,0,1 F,0,651162,652945,1 F,0,652945,653007,1,0 V,0,652945,653007,1,1,1.033032,2.585548
Sprite,Foreground,Centre,"SB\Lyrics\R05-3.png",320,240 F,0,653068,653130,0,1 F,0,653130,654974,1,0.9843875 F,0,654974,655035,0.9843875,0 V,0,654974,655035,1,1,1.008258,2.354323
Sprite,Foreground,Centre,"SB\Lyrics\R02-4.png",320,240 F,0,655035,655097,0,1 F,0,655097,657371,1,0.9842991 F,0,657371,657433,0.9842991,0 V,0,657371,657433,1,1,0.9587097,2.403871
Sprite,Foreground,Centre,"SB\Lyrics\R04-1.png",320,240 F,0,657494,657556,0,1 F,0,657556,657986,1,0.9436139 F,0,657986,658048,0.9436139,0 V,0,657986,658048,1,1,0.9587097,2.758968
Sprite,Foreground,Centre,"SB\Lyrics\R04-2.png",320,240 F,0,658232,658293,0,1 F,0,658293,659093,1,0.939072 F,0,659093,659154,0.939072,0 V,0,659093,659154,1,1,1.156903,2.313032
Sprite,Foreground,Centre,"SB\Lyrics\R04-3.png",320,240 F,0,659461,659523,0,1 F,0,659523,660937,1,0.938152 F,0,660937,660998,0.938152,0 V,0,660937,660998,1,1,1.173419,2.626839
Sprite,Foreground,Centre,"SB\Lyrics\R04-4.png",320,240 F,0,661183,661244,0,1 F,0,661244,664932,1,0.9836066 F,0,664932,664994,0.9836066,0.5624455 F,0,664994,665055,0.5624455,1 F,0,665055,665117,1,0 F,0,665117,665178,0,0.8060594 F,0,665178,665239,0.8060594,0.1743177 F,0,665239,665301,0.1743177,0.7812858 F,0,665301,665362,0.7812858,0.9836087 F,0,665362,665424,0.9836087,0.5583186 F,0,665424,665485,0.5583186,0.009157601 F,0,665485,665547,0.009157601,0.9836095 F,0,665547,665608,0.9836095,0.8101904 F,0,665608,665670,0.8101904,0.4881262 F,0,665670,665731,0.4881262,0.4179328 F,0,665731,665793,0.4179328,0.9836106 F,0,665793,665854,0.9836106,0.005030148 F,0,665854,665916,0.005030148,0.5583209 F,0,665916,665977,0.5583209,0.9836115 F,0,665977,666039,0.9836115,0.3559989 F,0,666039,666100,0.3559989,1 F,0,666100,666162,1,0 F,0,666162,666223,0,0.3321541 F,0,666223,666285,0.3321541,0.8478407 F,0,666285,666346,0.8478407,0.2749592 F,0,666346,666408,0.2749592,1 F,0,666408,667883,1,0.9836199 F,0,667883,667944,0.9836199,0 V,0,667883,667944,1,1,1.057806,3.320516
Sprite,Foreground,Centre,"SB\001.png",320,240 F,0,2610,2916,0,1 V,0,2610,2916,1.049548,0.1,1,1.041419 M,0,2916,,50,461 F,0,2916,61692,1 F,0,61692,64447,1,0
Sprite,Foreground,Centre,"SB\Song Name\TrackName 01.png",320,240 F,0,2610,2916,0,1 V,0,2610,2916,0.991742,0.1,1,1 M,0,2916,,185,463 F,0,2916,61692,1 F,0,61692,64141,1,0
Sprite,Foreground,Centre,"SB\001.png",320,240 M,0,68050,,49,462 F,0,68050,68322,0.3352257,1 V,0,68050,68322,0.9834839,0.1,1,1 F,0,68322,92322,1 F,0,92322,94231,1,0
Sprite,Foreground,Centre,"SB\Song Name\TrackName 02.png",320,240 F,0,68050,68322,1 V,0,68050,68322,0.8843871,0.1,1,1 M,0,68322,,153,463 F,0,68322,92322,1 F,0,92322,94231,1,0.2224033 F,0,92322,94231,1,0.2224033
Sprite,Foreground,Centre,"SB\002.png",320,240 M,0,96280,,82,463 F,0,96280,96522,0,1 V,0,96280,96522,1.04129,0.1,1,1 F,0,96522,131361,1 F,0,131361,132570,1,0.1667815
Sprite,Foreground,Centre,"SB\Song Name\TrackName 03.png",320,240 F,0,96280,96522,0,1 V,0,96280,96522,1,0.1,1,1 M,0,96522,,215,466 F,0,96522,131361,1,0.9876033 F,0,131361,132570,0.9876033,0
Sprite,Foreground,Centre,"SB\002.png",320,240 M,0,137114,,75,460 F,0,137114,137467,0,1 V,0,137114,137467,0.9669677,0.1,1,1 F,0,137467,175585,1 F,0,175585,177526,1,0
Sprite,Foreground,Centre,"SB\Song Name\TrackName 04.png",320,240 F,0,137114,137467,0,1 V,0,137114,137467,0.9174194,0.1,1,1 M,0,137467,,173,462 F,0,137467,175585,1 F,0,175585,177526,1,0
Sprite,Foreground,Centre,"SB\003.png",320,240 M,0,183746,,61,462 F,0,183746,184090,0,1 V,0,183746,184090,0.9669678,0.1,1,1 F,0,184090,218573,1,0.997093 F,0,218573,220987,0.997093,0
Sprite,Foreground,Centre,"SB\Song Name\TrackName 05.png",320,240 V,0,183746,184090,1.04129,0.1,1,1 F,0,183746,184091,0,1 M,0,184090,,178,464 F,0,184091,218573,1,0.9942029 F,0,218573,220987,0.9942029,0
Sprite,Foreground,Centre,"SB\001.png",320,240 M,0,225684,,48,462 F,0,225684,226021,0.1824516,1 V,0,225684,226021,1.016516,0.1,1,1 F,0,226021,270516,1 F,0,270516,272032,1,0
Sprite,Foreground,Centre,"SB\Song Name\TrackName 06.png",320,240 F,0,225684,226021,0,1 V,0,225684,226021,1.04129,0.1,1,1 M,0,226021,,137,466 F,0,226021,270516,1 F,0,270516,272032,1,0
Sprite,Foreground,Centre,"SB\002.png",320,240 M,0,275295,,70,462 F,0,275295,275628,0,1 V,0,275295,275628,0.991742,0.1,1,1 F,0,275628,303628,1 F,0,303628,305628,1,0
Sprite,Foreground,Centre,"SB\Song Name\TrackName 07.png",320,240 F,0,275295,275628,0,1 V,0,275295,275628,0.8348387,0.1,1,1 M,0,275628,,201,464 F,0,275628,303628,1 F,0,303628,305628,1,0
Sprite,Foreground,Centre,"SB\001.png",320,240 M,0,309932,,47,462 F,0,309932,310265,0,1 V,0,309932,310265,0.9834839,0.1,1,1 F,0,310265,332932,1 F,0,332932,334932,1,0
Sprite,Foreground,Centre,"SB\Song Name\TrackName 08.png",320,240 F,0,309932,310265,0,1 V,0,309932,310265,0.8926452,0.1,1,1 M,0,310265,,205,465 F,0,310265,332932,1 F,0,332932,334932,1,0
Sprite,Foreground,Centre,"SB\003.png",320,240 M,0,338548,,60,462 F,0,338548,338864,0,1 V,0,338548,338864,1.04129,0.1,1,1 F,0,338864,365390,1 F,0,365390,366969,1,0
Sprite,Foreground,Centre,"SB\Song Name\TrackName 09.png",320,240 F,0,338548,338864,0,1 V,0,338548,338864,0.9587097,0.1,1,1 M,0,338864,,189,463 F,0,338864,365390,1 F,0,365390,366969,1,0
Sprite,Foreground,Centre,"SB\002.png",320,240 M,0,371122,,70,462 F,0,371122,371438,0,1 V,0,371122,371438,1.008258,0.1,1,1 F,0,371438,410596,1 F,0,410596,412017,1,0
Sprite,Foreground,Centre,"SB\Song Name\TrackName 11.png",320,240 F,0,371122,371438,0,1 V,0,371122,371438,1.049548,0.1,1,1 M,0,371438,,191,464 F,0,371438,410596,1 F,0,410596,412017,1,0
Sprite,Foreground,Centre,"SB\003.png",320,240 M,0,418245,,59,462 F,0,418245,418561,0,1 V,0,418245,418561,0.9339355,0.1,1,1 F,0,418561,458982,1 F,0,458982,460719,1,0
Sprite,Foreground,Centre,"SB\Song Name\TrackName 12.png",320,240 F,0,418245,418561,0,1 V,0,418245,418561,1.008258,0.1,1,1 M,0,418561,,189,463 F,0,418561,458982,1 F,0,458982,460719,1,0
Sprite,Foreground,Centre,"SB\002.png",320,240 M,0,466233,,70,462 F,0,466233,466533,0,1 V,0,466233,466533,1.189935,0.1,1,1 F,0,466533,503433,1 F,0,503433,504933,1,0
Sprite,Foreground,Centre,"SB\Song Name\TrackName 13.png",320,240 F,0,466233,466533,0,1 V,0,466233,466533,0.9421934,0.1,1,1 M,0,466533,,182,464 F,0,466533,503433,1 F,0,503433,504933,1,0
Sprite,Foreground,Centre,"SB\003.png",320,240 M,0,509475,,59,460 F,0,509475,509775,0,1 V,0,509475,509775,1.074323,0.1,1,1 F,0,509775,535575,1 F,0,535575,537375,1,0
Sprite,Foreground,Centre,"SB\Song Name\TrackName 14.png",320,240 F,0,509475,509775,0,1 V,0,509475,509775,0.9587097,0.1,1,1 M,0,509775,,209,462 F,0,509775,535575,1 F,0,535575,537375,1,0
Sprite,Foreground,Centre,"SB\002.png",320,240 M,0,540675,,72,463 F,0,540675,540942,0,1 V,0,540675,540942,1.04129,0.1,1,1 F,0,540942,563475,1 F,0,563475,563742,1,0
Sprite,Foreground,Centre,"SB\Song Name\TrackName 15.png",320,240 F,0,540675,540942,0,0.9091613 V,0,540675,540942,1.115613,0.1,1,1 M,0,540942,,212,466 F,0,540942,563475,0.9091613,1 F,0,563475,563742,1,0
Sprite,Foreground,Centre,"SB\001.png",320,240 M,0,568970,,47,461 F,0,568970,569099,0.05858047,1 V,0,568970,569099,1.066064,0.1,1,1 F,0,569099,621599,1 F,0,621599,621858,1,0
Sprite,Foreground,Centre,"SB\Song Name\TrackName 16.png",320,240 F,0,568970,569099,0,1 V,0,568970,569099,0.6531614,0.8183228,1.024774,1.173419 M,0,569099,,116,464 F,0,569099,621599,1 F,0,621599,621858,1,0
Sprite,Foreground,Centre,"SB\001.png",320,240 M,0,631859,,45,461 F,0,631859,631982,0,1 V,0,631859,631982,1.289032,0.1,1,1 F,0,631982,682514,1 F,0,682514,682637,1,0
Sprite,Foreground,Centre,"SB\Song Name\TrackName 17.png",320,240 F,0,631859,631982,0,1 V,0,631859,631982,1.090839,0.1,1,1 M,0,631982,,173,462 F,0,631982,682514,1 F,0,682514,682637,1,0
Sprite,Foreground,Centre,"SB\CC.png",320,240 M,0,631859,,422,269 F,0,631859,,1 F,0,631859,632843,1,0 S,0,631859,632843,0.3310968,3.77471
Sprite,Foreground,Centre,"SB\CC.png",320,240 M,0,649687,,374,121 F,0,649687,,1 F,0,649687,650425,1,0 S,0,649687,650425,0.1,4.8
Sprite,Foreground,Centre,"SB\CC.png",320,240 M,0,649687,,185,292 F,0,649687,,1 F,0,649687,650425,1,0 S,0,649687,650425,0.1,5.3
Sprite,Foreground,Centre,"SB\CC.png",320,240 M,0,649687,,437,351 F,0,649687,,1 F,0,649687,650425,1,0 S,0,649687,650425,0.1,5.8
Sprite,Foreground,Centre,"SB\CC.png",320,240 M,0,641818,,575,328 F,0,641818,,1 F,0,641818,642802,1,0.08335464 S,0,641818,642802,0.1,5
Sprite,Foreground,Centre,"SB\CC.png",320,240 M,0,641818,,141,90 F,0,641818,,1 F,0,641818,642802,1,0 S,0,641818,642802,0.232,3.667355
//Storyboard Sound Samples
//Background Colour Transformations
3,100,163,162,255

[TimingPoints]
468,612.244897959184,4,1,1,30,1,0
2916,-125,4,1,1,40,0,0
10263,-83.3333333333333,4,1,1,70,0,1
10416,-83.3333333333333,4,1,1,40,0,1
29243,-83.3333333333333,4,1,1,40,0,0
29855,-83.3333333333333,4,1,1,60,0,1
49447,-83.3333333333333,4,1,1,40,0,1
56794,-83.3333333333333,4,1,1,40,0,0
59243,-83.3333333333333,4,1,1,60,0,1
59396,-83.3333333333333,4,1,1,50,0,0
66141,545.454545454546,4,1,2,30,1,0
66686,-100,4,1,2,40,0,0
67231,-100,4,1,2,50,0,0
68322,-100,4,1,2,90,0,1
68459,-100,4,1,2,70,0,1
77050,-100,4,1,2,90,0,1
77186,-100,4,1,2,70,0,1
88504,-117.647058823529,4,1,2,60,0,1
89050,-149.253731343284,4,1,2,50,0,1
89595,-200,4,1,2,40,0,1
90141,-100,4,1,0,30,0,0
95071,483.870967741935,4,1,1,10,1,0
95071,-200,4,1,1,10,0,0
95312,-200,4,1,1,20,0,0
95554,-133.333333333333,4,1,1,30,0,0
95796,-200,4,1,1,35,0,0
96038,-100,4,1,1,40,0,0
96341,-50,4,1,1,40,0,0
96522,-66.6666666666667,4,1,1,40,0,0
97006,-100,4,1,2,80,0,1
97127,-100,4,1,1,70,0,1
112006,-100,4,1,1,70,0,0
112490,-100,4,1,1,80,0,1
112611,-100,4,1,1,70,0,1
127974,-100,4,1,2,60,0,0
134644,352.941176470588,4,1,1,30,1,0
135349,-200,4,2,1,15,0,0
136055,-200,4,2,1,20,0,0
136938,-200,4,2,1,25,0,0
137467,-200,4,2,1,40,0,0
137644,-200,4,2,1,65,0,0
138879,-125,4,2,1,90,0,1
138967,-125,4,2,1,60,0,1
144349,-111.111111111111,4,2,1,70,0,1
148761,-100,4,2,1,80,0,1
150173,-125,4,2,1,80,0,1
150261,-125,4,2,1,70,0,1
155644,-111.111111111111,4,2,1,80,0,1
160055,-100,4,2,1,90,0,1
161467,-125,4,2,1,90,0,1
161555,-125,4,2,1,80,0,1
166938,-111.111111111111,4,2,1,90,0,1
172408,-200,4,2,1,40,0,1
172761,-125,4,1,1,80,0,0
179953,344.827586206897,4,1,2,30,1,0
182539,-100,4,1,2,40,0,0
183401,-133.333333333333,4,1,2,50,0,0
184090,-100,4,1,3,70,0,1
185297,-90.9090909090909,4,1,3,85,0,1
186849,-100,4,1,3,70,0,1
188056,-90.9090909090909,4,1,3,85,0,1
189608,-100,4,1,3,85,0,1
189694,-100,4,1,3,70,0,1
193573,-90.9090909090909,4,1,3,85,0,1
195039,-100,4,1,3,85,0,0
195125,-100,4,1,3,70,0,1
196332,-90.9090909090909,4,1,3,85,0,1
197884,-100,4,1,3,70,0,1
199090,-90.9090909090909,4,1,3,85,0,1
200642,-100,4,1,3,85,0,1
200728,-100,4,1,3,70,0,1
204608,-90.9090909090909,4,1,3,85,0,1
206073,-90.9090909090909,4,1,3,85,0,0
206159,-100,4,1,3,70,0,1
207366,-90.9090909090909,4,1,3,85,0,1
208918,-100,4,1,3,70,0,1
210125,-90.9090909090909,4,1,3,85,0,1
211677,-125,4,1,3,70,0,1
214435,-90.9090909090909,4,1,3,85,0,1
216677,-200,4,2,3,30,0,1
217194,-100,4,1,3,85,0,0
223325,337.078651685393,4,1,10,50,1,0
226021,-100,4,1,10,80,0,1
235459,-100,4,1,10,80,0,0
236808,-100,4,1,10,80,0,1
244898,-100,4,1,10,80,0,0
247594,-100,4,1,10,80,0,1
257032,-100,4,1,10,80,0,0
258381,-100,4,1,10,80,0,1
266471,-100,4,1,10,60,0,0
267819,-200,4,1,10,60,0,0
269167,-100,4,1,10,60,0,1
269251,-100,4,1,10,60,0,0
274295,333.333333333333,4,1,1,30,1,0
275628,-111.111111111111,4,1,1,30,0,0
275961,-111.111111111111,4,1,1,35,0,0
276295,-111.111111111111,4,1,1,40,0,0
276628,-111.111111111111,4,1,1,45,0,0
277128,-111.111111111111,4,1,1,50,0,0
278461,-111.111111111111,4,2,1,30,0,0
279628,-111.111111111111,4,2,2,70,0,1
290211,-111.111111111111,4,2,2,70,0,0
290295,-111.111111111111,4,2,2,70,0,1
300878,-111.111111111111,4,2,2,70,0,0
300961,-111.111111111111,4,2,1,70,0,1
301045,-111.111111111111,4,2,1,70,0,0
307599,333.333333333333,4,1,3,40,1,0
310265,-111.111111111111,4,1,1,70,0,1
310349,-125,4,1,3,70,0,0
312265,-111.111111111111,4,1,3,70,0,0
312932,-100,4,1,4,80,0,1
313099,-100,4,1,3,80,0,1
313432,-100,4,1,3,50,0,1
313599,-100,4,1,3,80,0,1
314765,-100,4,1,3,50,0,1
314932,-100,4,1,3,80,0,1
315599,-100,4,1,1,80,0,1
320932,-200,4,1,3,40,0,0
321265,-100,4,1,1,100,0,1
321432,-100,4,1,3,50,0,1
321599,-100,4,1,3,80,0,1
322765,-100,4,1,3,50,0,1
322932,-100,4,1,3,80,0,1
323599,-100,4,1,4,80,0,1
323765,-100,4,1,3,80,0,1
324099,-100,4,1,3,50,0,1
324265,-100,4,1,3,80,0,1
328932,-111.111111111111,4,1,3,80,0,1
329432,-125,4,1,3,80,0,1
329765,-125,4,2,3,50,0,1
329849,-125,4,1,3,80,0,1
330099,-142.857142857143,4,1,3,80,0,1
330432,-142.857142857143,4,2,3,50,0,1
330515,-142.857142857143,4,1,3,80,0,1
330932,-100,4,1,3,80,0,1
331515,-100,4,1,3,80,0,0
331599,-100,4,1,4,80,0,1
331682,-100,4,1,4,80,0,0
337601,315.789473684211,4,1,3,60,1,0
338864,-100,4,1,4,70,0,1
338943,-100,4,1,3,70,0,1
345653,-100,4,1,3,50,0,0
346285,-100,4,1,4,70,0,1
346364,-100,4,1,3,70,0,1
347864,-100,4,1,3,50,0,0
348811,-100,4,1,4,70,0,1
348890,-100,4,1,3,70,0,1
356548,-200,4,1,3,30,0,0
356706,-200,4,1,3,35,0,0
356864,-200,4,1,3,40,0,0
357022,-200,4,1,3,45,0,0
357179,-133.333333333333,4,1,3,50,0,0
357811,-100,4,1,3,55,0,0
358443,-80,4,1,3,60,0,0
358758,-80,4,1,3,70,0,0
359074,-125,4,1,3,70,0,1
364127,-100,4,1,3,60,0,0
368912,315.789473684211,4,1,3,40,1,0
371122,-200,4,1,3,50,0,0
371438,-125,4,1,3,60,0,1
381464,-125,4,1,3,60,0,0
381543,-125,4,1,3,60,0,1
391569,-125,4,1,3,60,0,0
391648,-125,4,1,3,60,0,1
393859,-125,4,1,3,60,0,0
394175,-125,4,1,3,60,0,1
396701,-100,4,2,4,50,0,0
399227,-125,4,1,3,50,0,0
399543,-125,4,1,3,40,0,0
399701,-125,4,1,3,42,0,0
399859,-125,4,1,3,44,0,0
400017,-125,4,1,3,46,0,0
400175,-125,4,1,3,48,0,0
400333,-125,4,1,3,50,0,0
401754,-125,4,1,3,60,0,1
408385,-125,4,2,3,60,0,1
408701,-125,4,2,3,55,0,1
409017,-125,4,2,3,50,0,0
409096,-125,4,2,3,5,0,0
414772,315.789473684211,4,1,1,30,1,0
417929,-200,4,1,1,30,0,0
418561,-125,4,1,1,50,0,0
427245,-111.111111111111,4,1,1,50,0,0
428508,-100,4,1,3,50,0,0
429929,-100,4,1,4,70,0,1
430008,-100,4,1,3,70,0,1
434982,-100,4,1,4,70,0,1
435061,-100,4,1,3,70,0,1
437508,-100,4,1,4,70,0,1
437587,-100,4,1,3,70,0,1
438772,-100,4,1,4,70,0,1
438929,-100,4,3,1,70,0,1
439087,-100,4,1,3,70,0,1
439245,-100,4,3,1,70,0,1
439403,-100,4,1,3,70,0,1
439877,-100,4,1,3,50,0,0
440350,-100,4,1,4,70,0,1
440429,-100,4,1,3,70,0,1
443666,-100,4,1,4,70,0,1
443745,-100,4,1,3,70,0,1
444298,-100,4,1,4,70,0,1
444929,-200,4,1,3,70,0,1
445324,-100,4,3,1,60,0,1
446982,-100,4,1,3,50,0,1
447614,-125,4,3,1,50,0,1
449035,-125,4,1,1,50,0,1
450140,-100,4,1,1,50,0,1
450377,-100,4,3,1,50,0,1
451245,-100,4,1,4,50,0,1
452824,-100,4,1,4,60,0,1
453772,-100,4,1,4,60,0,0
455193,-200,4,2,1,20,0,0
455508,-200,4,2,1,30,0,0
455824,-200,4,2,1,40,0,0
456140,-200,4,2,1,50,0,0
456456,-125,4,1,4,60,0,1
456535,-125,4,1,4,60,0,0
461733,300,4,1,1,30,1,0
464733,-200,4,2,1,10,0,0
466533,-50,4,1,1,100,0,1
466608,-50,4,1,3,100,0,0
466833,-50,4,1,1,100,0,1
466908,-50,4,1,3,100,0,0
467133,-125,4,1,1,100,0,1
467283,-100,4,1,3,60,0,1
467583,-100,4,1,3,80,0,1
467733,-100,4,1,3,60,0,1
469083,-142.857142857143,4,1,3,80,0,1
469233,-142.857142857143,4,1,3,60,0,1
469383,-142.857142857143,4,1,3,80,0,1
469533,-142.857142857143,4,1,3,60,0,1
469683,-142.857142857143,4,1,3,80,0,1
469833,-100,4,1,3,60,0,1
469983,-100,4,1,3,80,0,1
470133,-100,4,1,1,60,0,1
470208,-100,4,1,3,60,0,1
471483,-142.857142857143,4,1,3,80,0,1
471633,-142.857142857143,4,1,3,60,0,1
471783,-142.857142857143,4,1,3,80,0,1
471933,-142.857142857143,4,1,3,60,0,1
472083,-142.857142857143,4,1,3,80,0,1
472233,-142.857142857143,4,1,3,60,0,1
472383,-142.857142857143,4,1,3,80,0,1
472533,-100,4,1,3,60,0,1
473583,-100,4,1,1,60,0,1
473733,-100,4,1,1,80,0,1
473808,-100,4,1,1,60,0,1
474033,-100,4,1,1,80,0,1
474108,-100,4,1,1,60,0,1
474333,-100,4,1,1,80,0,1
474408,-100,4,1,1,60,0,1
474633,-100,4,1,1,80,0,1
474708,-100,4,1,1,60,0,1
474858,-100,4,1,1,60,0,0
474933,-100,4,1,1,60,0,1
475008,-100,4,1,3,60,0,1
476283,-142.857142857143,4,1,3,80,0,1
476433,-142.857142857143,4,1,3,60,0,1
476583,-142.857142857143,4,1,3,80,0,1
476733,-142.857142857143,4,1,3,60,0,1
476883,-142.857142857143,4,1,3,80,0,1
477033,-142.857142857143,4,1,3,60,0,1
477183,-142.857142857143,4,1,3,80,0,1
477333,-100,4,1,3,60,0,1
478683,-142.857142857143,4,1,3,80,0,1
478833,-142.857142857143,4,1,3,60,0,1
478983,-142.857142857143,4,1,3,80,0,1
479133,-142.857142857143,4,1,3,60,0,1
479283,-142.857142857143,4,1,3,80,0,1
479433,-142.857142857143,4,1,3,60,0,1
479583,-142.857142857143,4,1,3,80,0,1
479733,-100,4,1,1,60,0,1
479808,-100,4,1,3,60,0,1
480408,-100,4,1,3,20,0,1
480633,-100,4,1,3,60,0,1
480708,-100,4,1,3,30,0,1
480933,-100,4,1,1,80,0,1
481008,-100,4,1,3,40,0,1
481233,-100,4,1,3,80,0,1
481308,-100,4,1,3,50,0,1
481533,-100,4,1,3,80,0,1
481608,-100,4,1,3,60,0,1
481833,-100,4,1,3,80,0,1
481908,-100,4,1,3,60,0,1
482133,-200,4,2,3,30,0,0
482433,-100,4,1,1,100,0,1
482583,-100,4,1,3,60,0,1
483483,-142.857142857143,4,1,3,80,0,1
483633,-142.857142857143,4,1,3,60,0,1
483783,-142.857142857143,4,1,3,80,0,1
483933,-142.857142857143,4,1,3,60,0,1
484083,-142.857142857143,4,1,3,80,0,1
484233,-142.857142857143,4,1,3,60,0,1
484383,-142.857142857143,4,1,3,80,0,1
484533,-100,4,1,3,60,0,1
485883,-142.857142857143,4,1,3,80,0,1
486033,-142.857142857143,4,1,3,60,0,1
486183,-142.857142857143,4,1,3,80,0,1
486333,-142.857142857143,4,1,3,60,0,1
486483,-142.857142857143,4,1,3,80,0,1
486633,-142.857142857143,4,1,3,60,0,1
486783,-142.857142857143,4,1,3,80,0,1
486933,-100,4,1,1,60,0,1
487008,-100,4,1,3,60,0,1
488283,-142.857142857143,4,1,3,80,0,1
488433,-142.857142857143,4,1,3,60,0,1
488583,-142.857142857143,4,1,3,80,0,1
488733,-142.857142857143,4,1,3,60,0,1
488883,-142.857142857143,4,1,3,80,0,1
489033,-142.857142857143,4,1,3,60,0,1
489183,-142.857142857143,4,1,3,80,0,1
489333,-100,4,1,3,60,0,1
490383,-100,4,1,1,60,0,1
490533,-100,4,1,1,80,0,1
490608,-100,4,1,1,60,0,1
490833,-100,4,1,1,80,0,1
490908,-100,4,1,1,60,0,1
491133,-100,4,1,1,80,0,1
491208,-100,4,1,1,60,0,1
491433,-100,4,1,1,80,0,1
491508,-100,4,1,1,60,0,1
491658,-200,4,1,1,60,0,0
491733,-100,4,1,1,60,0,1
491808,-100,4,1,3,60,0,1
493083,-142.857142857143,4,1,3,80,0,1
493233,-142.857142857143,4,1,3,60,0,1
493383,-142.857142857143,4,1,3,80,0,1
493533,-142.857142857143,4,1,3,60,0,1
493683,-142.857142857143,4,1,3,80,0,1
493833,-142.857142857143,4,1,3,60,0,1
493983,-142.857142857143,4,1,3,80,0,1
494133,-100,4,1,3,60,0,1
495483,-142.857142857143,4,1,3,80,0,1
495633,-142.857142857143,4,1,3,60,0,1
495783,-142.857142857143,4,1,3,80,0,1
495933,-142.857142857143,4,1,3,60,0,1
496083,-142.857142857143,4,1,3,80,0,1
496233,-142.857142857143,4,1,3,60,0,1
496383,-142.857142857143,4,1,3,80,0,1
496533,-100,4,1,1,60,0,1
496608,-100,4,1,3,60,0,1
497733,-100,4,1,1,60,0,1
497883,-142.857142857143,4,1,3,80,0,1
498033,-142.857142857143,4,1,3,60,0,1
498183,-142.857142857143,4,1,3,80,0,1
498333,-142.857142857143,4,1,3,60,0,1
498483,-142.857142857143,4,1,3,80,0,1
498633,-142.857142857143,4,1,3,60,0,1
498783,-142.857142857143,4,1,3,80,0,1
498933,-100,4,1,1,70,0,1
499008,-100,4,1,3,30,0,1
499233,-100,4,1,3,40,0,1
499533,-100,4,1,3,50,0,1
499833,-100,4,1,3,60,0,1
500133,-100,4,1,3,70,0,1
500433,-100,4,1,3,80,0,1
500733,-100,4,1,3,90,0,1
501033,-200,4,2,3,30,0,0
501333,-200,4,1,1,100,0,1
501408,-200,4,1,1,100,0,0
506175,300,4,1,1,65,1,0
509775,-200,4,1,1,20,0,0
510075,-133.333333333333,4,1,1,30,0,0
510375,-100,4,1,1,40,0,0
510675,-100,4,1,1,50,0,0
510975,-142.857142857143,4,1,1,60,0,1
515175,-100,4,1,1,70,0,1
515775,-142.857142857143,4,1,1,60,0,1
524475,-100,4,1,1,70,0,1
525375,-142.857142857143,4,1,1,60,0,1
529275,-142.857142857143,4,1,1,60,0,0
530025,-100,4,1,1,80,0,1
530100,-100,4,1,1,80,0,0
538809,266.666666666667,4,1,2,30,1,0
540675,-200,4,1,2,60,0,0
540942,-125,4,1,2,60,0,1
549409,-125,4,1,2,60,0,0
549475,-125,4,1,2,60,0,1
557475,-125,4,1,2,60,0,0
557542,-125,4,3,1,60,0,0
557742,-125,4,1,2,60,0,0
557809,-125,4,3,1,60,0,0
558009,-125,4,1,2,60,0,1
558142,-125,4,3,1,60,0,1
558275,-125,4,1,2,60,0,1
558409,-125,4,3,1,60,0,1
558542,-125,4,1,2,60,0,1
558675,-125,4,3,1,60,0,1
558809,-125,4,1,2,60,0,1
558942,-125,4,3,1,60,0,1
559075,-125,4,1,2,60,0,1
559209,-125,4,3,1,60,0,1
559342,-125,4,1,2,60,0,1
559475,-125,4,3,1,60,0,1
559609,-125,4,1,2,60,0,1
559742,-125,4,3,1,60,0,1
559875,-125,4,1,2,60,0,1
560009,-125,4,3,1,60,0,1
560142,-125,4,1,2,60,0,1
560275,-125,4,3,1,60,0,1
560409,-125,4,1,2,60,0,1
560542,-125,4,3,1,60,0,1
560675,-125,4,1,2,60,0,1
560809,-125,4,3,1,60,0,1
560942,-125,4,1,2,60,0,1
561075,-125,4,3,1,60,0,1
561209,-125,4,1,2,60,0,1
561342,-125,4,3,1,60,0,1
561475,-125,4,1,2,60,0,1
561609,-125,4,3,1,60,0,1
561742,-125,4,1,2,60,0,1
562542,-125,4,3,1,60,0,1
562675,-125,4,1,2,60,0,1
562942,-125,4,3,1,60,0,1
563075,-125,4,1,2,60,0,1
563342,-100,4,1,2,60,0,0
564962,258.620689655172,4,1,1,40,1,0
567160,-100,4,1,1,43,0,0
567289,-100,4,1,1,46,0,0
567418,-100,4,1,1,49,0,0
567548,-100,4,1,1,52,0,0
567677,-100,4,1,1,55,0,0
567806,-100,4,1,1,58,0,0
567936,-100,4,1,1,60,0,0
568582,-200,4,2,1,20,0,0
569099,-111.111111111111,4,1,1,90,0,1
569229,-111.111111111111,4,1,3,60,0,1
571168,-111.111111111111,4,1,1,60,0,1
571233,-111.111111111111,4,1,3,60,0,1
573237,-111.111111111111,4,1,1,60,0,1
573302,-111.111111111111,4,1,3,60,0,1
574272,-111.111111111111,4,1,1,50,0,1
574337,-111.111111111111,4,1,3,60,0,1
575306,-111.111111111111,4,1,1,70,0,1
575371,-111.111111111111,4,1,3,60,0,1
576858,-83.3333333333333,4,1,3,80,0,0
577375,-111.111111111111,4,1,1,90,0,1
577440,-111.111111111111,4,1,3,60,0,1
579444,-111.111111111111,4,1,1,60,0,1
579509,-111.111111111111,4,1,3,60,0,1
580996,-111.111111111111,4,1,1,60,0,1
581061,-111.111111111111,4,1,3,60,0,1
581513,-111.111111111111,4,1,1,70,0,1
585134,-100,4,1,1,60,0,0
585651,-100,4,1,1,80,0,1
587591,-200,4,1,1,60,0,1
588496,-200,4,1,1,50,0,1
589530,-100,4,1,3,60,0,1
589789,-142.857142857143,4,1,1,60,0,1
593410,-200,4,2,1,30,0,0
594444,-100,4,1,1,100,0,1
594509,-100,4,1,3,60,0,1
595996,-100,4,1,1,60,0,1
596061,-100,4,1,3,60,0,1
598065,-100,4,1,1,60,0,1
598130,-100,4,1,3,60,0,1
599099,-100,4,1,1,50,0,1
599164,-100,4,1,3,60,0,1
600134,-100,4,1,1,60,0,1
600199,-100,4,1,3,60,0,1
601686,-83.3333333333333,4,1,3,80,0,0
602203,-100,4,1,1,90,0,1
602268,-100,4,1,3,60,0,1
604272,-100,4,1,1,60,0,1
604336,-100,4,1,3,60,0,1
605824,-100,4,1,1,60,0,1
605888,-100,4,1,3,60,0,1
606341,-100,4,1,1,70,0,1
609961,-100,4,1,1,70,0,0
610479,-83.3333333333333,4,1,1,80,0,1
612418,-200,4,1,3,80,0,0
614099,-100,4,1,3,80,0,0
615393,-100,4,1,3,60,0,1
621858,-100,4,2,1,10,0,0
623130,245.901639344262,4,2,1,30,1,0
626080,-100,4,1,3,60,0,1
626142,-125,4,2,1,30,0,0
627556,-125,4,1,1,40,0,0
628048,-125,4,1,3,60,0,1
628109,-125,4,2,1,30,0,0
629523,-125,4,1,1,40,0,0
630015,-200,4,1,3,60,0,1
630076,-200,4,2,1,30,0,0
631490,-200,4,1,1,45,0,0
631736,-200,4,2,1,30,0,0
631859,-125,4,3,1,60,0,1
631920,-125,4,3,1,60,0,0
632228,-125,4,1,2,60,0,0
632289,-125,4,3,1,60,0,0
632474,-125,4,1,2,60,0,0
632597,-125,4,3,1,60,0,0
632720,-125,4,1,2,60,0,0
632843,-125,4,3,1,60,0,0
632966,-125,4,1,2,60,0,0
633048,-125,4,3,1,60,0,0
633457,-125,4,1,2,60,0,0
633580,-125,4,3,1,60,0,0
633949,-111.111111111111,4,3,1,80,0,1
634195,-111.111111111111,4,1,2,80,0,1
634441,-111.111111111111,4,3,1,80,0,1
634810,-111.111111111111,4,1,2,80,0,1
635056,-111.111111111111,4,3,1,80,0,1
635179,-111.111111111111,4,1,2,80,0,1
635302,-111.111111111111,4,3,1,80,0,1
635425,-111.111111111111,4,1,2,80,0,1
635548,-111.111111111111,4,3,1,80,0,1
635670,-111.111111111111,4,1,2,80,0,1
635916,-111.111111111111,4,3,1,80,0,1
636162,-111.111111111111,4,1,2,80,0,1
636408,-111.111111111111,4,3,1,80,0,1
636777,-111.111111111111,4,1,2,80,0,1
637269,-111.111111111111,4,3,1,80,0,1
637392,-111.111111111111,4,1,2,60,0,1
637474,-111.111111111111,4,3,1,80,0,1
637638,-111.111111111111,4,1,2,80,0,1
637699,-111.111111111111,4,3,1,80,0,1
638130,-111.111111111111,4,1,2,80,0,1
638375,-111.111111111111,4,3,1,80,0,1
638744,-111.111111111111,4,1,2,80,0,1
638867,-111.111111111111,4,3,1,80,0,1
639113,-111.111111111111,4,1,2,80,0,1
639236,-111.111111111111,4,3,1,80,0,1
639359,-111.111111111111,4,1,2,80,0,1
639441,-111.111111111111,4,3,1,80,0,1
639605,-111.111111111111,4,1,2,80,0,1
639687,-111.111111111111,4,3,1,80,0,1
640097,-111.111111111111,4,1,2,80,0,1
640343,-111.111111111111,4,3,1,80,0,1
640466,-111.111111111111,4,1,2,80,0,1
640711,-111.111111111111,4,3,1,80,0,1
640834,-111.111111111111,4,1,2,80,0,1
640957,-111.111111111111,4,3,1,80,0,1
641080,-111.111111111111,4,1,2,80,0,1
641203,-111.111111111111,4,3,1,80,0,1
641326,-111.111111111111,4,1,2,80,0,1
641408,-111.111111111111,4,3,1,80,0,1
641572,-111.111111111111,4,1,2,60,0,1
641757,-111.111111111111,4,1,2,60,0,0
641818,-111.111111111111,4,3,1,90,0,1
642064,-111.111111111111,4,1,2,80,0,1
642187,-111.111111111111,4,3,1,80,0,1
642556,-111.111111111111,4,1,2,80,0,1
642679,-111.111111111111,4,3,1,80,0,1
643048,-111.111111111111,4,1,2,80,0,1
643170,-111.111111111111,4,3,1,80,0,1
643539,-111.111111111111,4,1,2,80,0,1
643662,-111.111111111111,4,3,1,80,0,1
644031,-111.111111111111,4,1,2,80,0,1
644154,-111.111111111111,4,3,1,80,0,1
644523,-111.111111111111,4,1,2,80,0,1
644646,-111.111111111111,4,3,1,80,0,1
645015,-111.111111111111,4,1,2,80,0,1
645138,-111.111111111111,4,3,1,80,0,1
645507,-111.111111111111,4,1,2,80,0,1
645630,-111.111111111111,4,3,1,80,0,1
645998,-111.111111111111,4,1,2,80,0,1
646121,-111.111111111111,4,3,1,80,0,1
646490,-111.111111111111,4,1,2,80,0,1
646613,-111.111111111111,4,3,1,80,0,1
646982,-111.111111111111,4,1,2,80,0,1
647105,-111.111111111111,4,3,1,80,0,1
647474,-111.111111111111,4,1,2,80,0,1
647535,-111.111111111111,4,3,1,80,0,1
647966,-111.111111111111,4,1,2,80,0,1
648027,-111.111111111111,4,3,1,80,0,1
648211,-111.111111111111,4,1,2,80,0,1
648273,-111.111111111111,4,3,1,80,0,1
648457,-111.111111111111,4,1,2,80,0,1
648519,-111.111111111111,4,3,1,80,0,1
648703,-111.111111111111,4,1,2,80,0,1
648785,-111.111111111111,4,3,1,80,0,1
649195,-111.111111111111,4,1,2,80,0,1
649625,-100,4,3,1,80,0,0
649687,-100,4,3,1,100,0,1
649933,-100,4,1,2,80,0,1
650056,-100,4,3,1,80,0,1
650179,-100,4,1,2,80,0,1
650302,-100,4,3,1,80,0,1
650425,-100,4,1,2,80,0,1
650548,-100,4,3,1,80,0,1
650670,-100,4,1,2,80,0,1
650732,-100,4,3,1,80,0,1
650916,-100,4,1,2,80,0,1
651039,-100,4,3,1,80,0,1
651162,-100,4,1,2,80,0,1
651285,-100,4,3,1,80,0,1
651408,-100,4,1,2,80,0,1
651531,-100,4,3,1,80,0,1
651900,-100,4,1,2,80,0,1
652023,-100,4,3,1,80,0,1
652146,-100,4,1,2,80,0,1
652269,-100,4,3,1,80,0,1
652392,-100,4,1,2,80,0,1
652515,-100,4,3,1,80,0,1
652638,-100,4,1,2,80,0,1
652761,-100,4,3,1,80,0,1
652884,-100,4,1,2,80,0,1
653007,-100,4,3,1,80,0,1
653130,-100,4,1,2,80,0,1
653252,-100,4,3,1,80,0,1
653375,-100,4,1,2,80,0,1
653498,-100,4,3,1,80,0,1
653867,-100,4,1,2,80,0,1
653990,-100,4,3,1,80,0,1
654113,-100,4,1,2,80,0,1
654236,-100,4,3,1,80,0,1
654359,-100,4,1,2,80,0,1
654482,-100,4,3,1,80,0,1
654605,-100,4,1,2,80,0,1
654728,-100,4,3,1,80,0,1
654851,-100,4,1,2,80,0,1
654974,-100,4,3,1,80,0,1
655097,-100,4,1,2,80,0,1
655220,-100,4,3,1,80,0,1
655343,-100,4,1,2,80,0,1
655466,-100,4,3,1,80,0,1
655834,-100,4,1,2,80,0,1
656080,-100,4,3,1,80,0,1
656203,-100,4,1,2,80,0,1
656449,-100,4,3,1,80,0,1
656818,-100,4,1,2,60,0,1
657064,-100,4,3,1,80,0,1
657310,-100,4,1,2,60,0,1
657494,-100,4,1,2,60,0,0
657556,-100,4,3,1,80,0,1
657802,-100,4,1,2,80,0,1
658048,-100,4,3,1,80,0,1
658293,-100,4,1,2,80,0,1
658416,-100,4,3,1,80,0,1
658785,-100,4,1,2,60,0,1
658908,-100,4,3,1,80,0,1
659031,-100,4,1,2,60,0,1
659154,-100,4,3,1,60,0,0
659523,-142.857142857143,4,3,1,60,0,1
659769,-142.857142857143,4,2,1,30,0,1
660015,-125,4,3,1,80,0,1
660507,-125,4,1,2,60,0,1
660875,-125,4,3,1,80,0,1
661982,-125,4,1,2,60,0,1
662105,-125,4,3,1,80,0,1
662474,-125,4,3,1,80,0,0
663949,245.901639344262,4,1,2,60,1,1
663949,-200,4,1,1,60,0,1
664932,-125,4,1,2,80,0,1
665014,-125,4,1,2,60,0,1
665178,-125,4,3,1,60,0,1
665424,-125,4,1,2,80,0,1
665506,-125,4,1,2,60,0,1
665670,-125,4,3,1,60,0,1
665916,-125,4,1,2,80,0,1
665998,-125,4,1,2,60,0,1
666162,-125,4,3,1,60,0,1
666408,-125,4,1,2,80,0,1
666776,-142.857142857143,4,3,1,60,0,0
667391,-142.857142857143,4,1,2,60,0,0
667514,-142.857142857143,4,3,1,60,0,0
668375,-142.857142857143,4,1,2,60,0,0
668498,-142.857142857143,4,3,1,60,0,0
669358,-142.857142857143,4,1,2,60,0,0
669481,-142.857142857143,4,3,1,60,0,0
669604,-142.857142857143,4,1,2,60,0,0
669850,-142.857142857143,4,3,1,60,0,0
671326,-142.857142857143,4,1,2,60,0,0
671449,-142.857142857143,4,3,1,60,0,0
672309,-142.857142857143,4,1,2,60,0,0
672432,-142.857142857143,4,3,1,60,0,0
672678,-142.857142857143,4,1,2,60,0,0
672739,-142.857142857143,4,3,1,60,0,0
672924,-142.857142857143,4,1,2,60,0,0
673047,-142.857142857143,4,3,1,60,0,0
673293,-142.857142857143,4,1,2,60,0,0
673662,-142.857142857143,4,3,1,60,0,0
674276,-142.857142857143,4,1,2,60,0,0
674645,-142.857142857143,4,3,1,60,0,0
675014,-142.857142857143,4,1,2,60,0,0
675137,-142.857142857143,4,3,1,60,0,0
675506,-142.857142857143,4,1,2,60,0,0
675629,-142.857142857143,4,3,1,60,0,0
675998,-142.857142857143,4,1,2,60,0,0
676121,-142.857142857143,4,3,1,60,0,0
676489,-142.857142857143,4,1,2,60,0,0
676612,-142.857142857143,4,3,1,60,0,0
676981,-142.857142857143,4,1,2,60,0,0
677104,-142.857142857143,4,3,1,60,0,0
677473,-142.857142857143,4,1,2,60,0,0
677596,-142.857142857143,4,3,1,60,0,0
677965,-142.857142857143,4,1,2,60,0,0
678088,-142.857142857143,4,3,1,60,0,0
678211,-142.857142857143,4,1,2,60,0,0
678334,-142.857142857143,4,3,1,60,0,0
678457,-142.857142857143,4,1,2,60,0,0
678580,-142.857142857143,4,3,1,60,0,0
678949,-142.857142857143,4,1,2,60,0,0
679071,-142.857142857143,4,3,1,60,0,0
679440,-142.857142857143,4,1,2,60,0,0
679563,-142.857142857143,4,3,1,60,0,0
679932,-142.857142857143,4,1,2,60,0,0
680055,-142.857142857143,4,3,1,60,0,0
680424,-142.857142857143,4,1,2,60,0,0
680547,-142.857142857143,4,3,1,60,0,0
680916,-142.857142857143,4,1,2,60,0,0
681039,-142.857142857143,4,3,1,60,0,0
681162,-142.857142857143,4,1,2,60,0,0
681285,-142.857142857143,4,3,1,60,0,0
681408,-142.857142857143,4,1,2,60,0,0
681530,-142.857142857143,4,3,1,60,0,0
681653,-142.857142857143,4,1,2,60,0,0
681776,-142.857142857143,4,3,1,60,0,0
681899,-142.857142857143,4,1,2,60,0,0
682022,-142.857142857143,4,3,1,60,0,0
682268,-142.857142857143,4,1,2,60,0,0
682514,-142.857142857143,4,3,1,60,0,0

[Colours]
Combo1 : 255,255,255
Combo2 : 255,128,255
Combo3 : 255,98,98
Combo4 : 154,77,240
Combo5 : 192,192,192
Combo6 : 251,0,157
Combo7 : 211,18,18
Combo8 : 108,26,234

[HitObjects]
76,60,2916,6,0,B|148:56|148:56|168:64|168:64|252:60,1,160,4|8,0:0|0:0,0:0:0:0:
380,120,3835,2,0,L|312:116,1,40,0|0,0:0|0:0,0:0:0:0:
264,136,4141,2,0,L|268:220,1,80
264,335,4753,2,0,L|267:215,1,120,8|0,0:0|0:0,0:0:0:0:
264,136,5365,53,0,0:0:0:0:
264,335,5672,1,0,0:0:0:0:
264,136,5978,2,0,L|268:36,1,80,8|0,0:0|0:0,0:0:0:0:
267,56,6437,1,8,0:0:0:0:
267,56,6590,1,0,0:0:0:0:
328,216,6896,1,0,0:0:0:0:
168,168,7202,1,8,0:0:0:0:
91,192,7355,1,8,0:0:0:0:
91,272,7508,1,2,0:0:0:0:
168,297,7661,1,2,0:0:0:0:
215,232,7814,54,0,L|256:224,2,26.6666666666667,4|0|0,0:0|0:0|0:0,0:0:0:0:
292,296,8121,2,0,L|333:304,2,26.6666666666667
376,192,8427,2,0,L|417:184,2,26.6666666666667
456,328,8733,2,0,L|497:336,2,26.6666666666667
392,272,9039,53,8,0:0:0:0:
392,272,9192,1,8,0:0:0:0:
312,280,9345,54,0,L|240:292,1,40,2|2,0:0|0:0,0:0:0:0:
128,280,9651,2,0,L|153:211,1,40,4|0,0:0|0:0,0:0:0:0:
220,120,9957,2,0,L|266:176,1,40,0|0,0:0|0:0,0:0:0:0:
220,252,10263,54,0,P|168:276|92:224,1,119.999996337891,4|2,0:0|0:0,0:0:0:0:
12,168,10876,1,8,0:0:0:0:
112,255,11182,2,0,P|168:232|184:144,1,119.999996337891,2|0,0:0|0:0,0:0:0:0:
168,36,11794,1,2,0:0:0:0:
190,180,12100,2,0,P|176:160|184:96,1,59.9999981689454,8|8,0:0|0:0,0:0:0:0:
348,72,12406,2,0,P|345:101|329:126,1,59.9999981689454,2|2,0:0|0:0,0:0:0:0:
168,36,12712,53,0,0:0:0:0:
272,184,13019,2,0,P|244:244|148:248,1,119.999996337891,2|8,0:0|0:0,0:0:0:0:
112,124,13631,2,0,P|168:148|280:92,1,179.999994506836,2|8,0:0|0:0,0:0:0:0:
224,48,14243,2,0,L|232:184,2,119.999996337891,2|8|2,0:0|0:0|0:0,0:0:0:0:
384,104,15161,54,0,L|376:292,1,179.999994506836,4|2,0:0|0:0,0:0:0:0:
296,260,15774,1,8,0:0:0:0:
436,176,16080,2,0,P|468:124|432:32,1,119.999996337891,2|0,0:0|0:0,0:0:0:0:
376,283,16692,1,2,0:0:0:0:
384,104,16998,2,0,P|368:88|288:80,1,59.9999981689454,8|8,0:0|0:0,0:0:0:0:
196,196,17304,2,0,P|223:185|246:165,1,59.9999981689454,2|2,0:0|0:0,0:0:0:0:
222,30,17610,53,0,0:0:0:0:
96,160,17916,1,2,0:0:0:0:
60,232,18070,2,0,L|72:324,1,59.9999981689454,0|8,0:0|0:0,0:0:0:0:
284,152,18529,1,2,0:0:0:0:
368,292,18835,2,0,P|420:312|504:288,1,119.999996337891,0|2,0:0|0:0,0:0:0:0:
384,140,19447,2,0,P|412:88|372:0,1,119.999996337891,8|2,0:0|0:0,0:0:0:0:
336,76,19906,1,2,0:0:0:0:
304,148,20059,54,0,L|320:280,1,119.999996337891,4|2,0:0|0:0,0:0:0:0:
460,168,20672,1,8,0:0:0:0:
336,76,20978,1,2,0:0:0:0:
260,84,21131,1,2,0:0:0:0:
304,148,21284,2,0,P|360:152|412:76,1,119.999996337891,0|2,0:0|0:0,0:0:0:0:
216,20,21896,1,8,0:0:0:0:
140,28,22049,1,10,0:0:0:0:
68,60,22202,2,0,P|56:96|76:152,1,59.9999981689454,2|2,0:0|0:0,0:0:0:0:
200,176,22508,54,0,L|348:188,1,119.999996337891,0|2,0:0|0:0,0:0:0:0:
472,216,23121,1,8,0:0:0:0:
319,185,23427,1,2,0:0:0:0:
396,196,23580,2,0,P|460:264|404:348,1,179.999994506836,2|2,0:0|0:0,0:0:0:0:
216,300,24345,1,8,0:0:0:0:
319,185,24651,1,2,0:0:0:0:
396,196,24804,1,2,0:0:0:0:
472,216,24957,53,4,0:0:0:0:
272,356,25263,2,0,P|212:380|140:336,1,119.999996337891,2|8,0:0|0:0,0:0:0:0:
240,184,25876,1,2,0:0:0:0:
399,87,26182,2,0,P|420:142|396:196,1,119.999996337891,0|2,0:0|0:0,0:0:0:0:
184,248,26794,1,8,0:0:0:0:
158,207,26947,1,8,0:0:0:0:
158,160,27100,1,2,0:0:0:0:
183,120,27253,1,2,0:0:0:0:
225,98,27406,54,0,P|264:100|316:136,1,59.9999981689454,0|2,0:0|0:0,0:0:0:0:
256,288,27712,2,0,P|236:316|184:332,1,59.9999981689454,0|2,0:0|0:0,0:0:0:0:
92,252,28019,2,0,P|80:220|88:176,2,59.9999981689454,8|0|2,0:0|0:0|0:0,0:0:0:0:
168,300,28478,1,2,0:0:0:0:
256,288,28631,54,0,L|392:276,1,119.999996337891,8|2,0:0|0:0,0:0:0:0:
444,216,29090,1,2,0:0:0:0:
472,132,29243,1,12,0:0:0:0:
452,44,29396,1,8,0:0:0:0:
372,84,29549,1,2,0:0:0:0:
284,80,29702,1,2,0:0:0:0:
208,36,29855,54,0,P|148:28|88:88,1,119.999996337891,4|2,0:0|0:0,0:0:0:0:
40,188,30468,1,8,0:0:0:0:
274,276,30774,2,0,P|288:219|260:168,1,119.999996337891,2|0,0:0|0:0,0:0:0:0:
128,116,31386,1,2,0:0:0:0:
145,332,31692,2,8,P|175:336|204:328,1,59.9999981689454
360,256,31998,2,0,L|436:264,1,59.9999981689454,2|2,0:0|0:0,0:0:0:0:
484,324,32304,53,0,0:0:0:0:
274,276,32610,2,0,P|248:216|284:144,1,119.999996337891,2|8,0:0|0:0,0:0:0:0:
266,13,33223,2,0,P|305:91|262:166,1,179.999994506836,2|8,0:0|0:0,0:0:0:0:
224,88,33835,2,0,P|288:84|352:144,2,119.999996337891,2|8|2,0:0|0:0|0:0,0:0:0:0:
84,192,34753,54,0,B|56:252|108:308|108:308|184:304,1,179.999994506836,4|2,0:0|0:0,0:0:0:0:
252,300,35365,1,8,0:0:0:0:
184,48,35672,2,0,P|120:36|60:92,1,119.999996337891,2|0,0:0|0:0,0:0:0:0:
141,317,36284,2,0,P|199:327|252:300,1,119.999996337891,2|8,0:0|0:0,0:0:0:0:
292,220,36743,1,8,0:0:0:0:
336,140,36896,2,0,P|364:120|416:120,1,59.9999981689454,2|2,0:0|0:0,0:0:0:0:
484,220,37202,53,0,0:0:0:0:
464,68,37508,1,2,0:0:0:0:
388,115,37661,2,0,P|360:120|296:88,1,59.9999981689454,0|8,0:0|0:0,0:0:0:0:
128,152,38121,1,2,0:0:0:0:
244,288,38427,2,0,P|308:300|376:244,1,119.999996337891,0|2,0:0|0:0,0:0:0:0:
388,116,39039,1,8,0:0:0:0:
216,84,39345,2,0,P|184:88|140:120,1,59.9999981689454,2|2,0:0|0:0,0:0:0:0:
187,274,39651,54,0,P|220:226|212:168,1,119.999996337891,4|2,0:0|0:0,0:0:0:0:
20,36,40263,2,0,P|8:100|68:156,1,119.999996337891,8|2,0:0|0:0,0:0:0:0:
124,172,40723,1,2,0:0:0:0:
212,168,40876,2,0,L|336:160,1,119.999996337891,0|2,0:0|0:0,0:0:0:0:
456,308,41488,2,0,L|344:300,1,59.9999981689454,8|8,0:0|0:0,0:0:0:0:
308,196,41794,2,0,L|419:188,1,59.9999981689454,2|2,0:0|0:0,0:0:0:0:
436,96,42100,53,0,0:0:0:0:
384,252,42406,1,2,0:0:0:0:
268,68,42712,1,8,0:0:0:0:
216,280,43019,2,0,L|120:292,1,59.9999981689454,2|2,0:0|0:0,0:0:0:0:
68,304,43325,1,0,0:0:0:0:
276,340,43631,2,0,P|300:288|260:208,1,119.999996337891,2|8,0:0|0:0,0:0:0:0:
80,180,44243,1,2,0:0:0:0:
140,248,44396,1,2,0:0:0:0:
168,164,44549,54,0,L|160:32,2,119.999996337891,4|2|8,0:0|0:0|0:0,0:0:0:0:
276,340,45468,1,2,0:0:0:0:
376,160,45774,1,0,0:0:0:0:
200,264,46080,1,2,0:0:0:0:
300,84,46386,2,8,P|312:60|312:8,1,59.9999981689454
376,160,46692,2,0,L|384:252,1,59.9999981689454,2|2,0:0|0:0,0:0:0:0:
456,96,46998,53,4,0:0:0:0:
440,276,47304,2,0,P|384:300|308:260,1,119.999996337891,2|8,0:0|0:0,0:0:0:0:
164,308,47916,2,0,L|252:300,1,59.9999981689454,2|2,0:0|0:0,0:0:0:0:
329,283,48223,2,0,P|356:236|316:152,1,119.999996337891,4|2,0:0|0:0,0:0:0:0:
192,80,48835,54,0,P|188:104|200:136,1,39.9999987792969,8|2,0:0|0:0,0:0:0:0:
248,240,49039,2,0,P|270:231|292:205,1,39.9999987792969,2|2,0:0|0:0,0:0:0:0:
358,111,49243,2,0,P|339:95|305:89,1,39.9999987792969,2|2,0:0|0:0,0:0:0:0:
268,144,49447,53,4,0:0:0:0:
268,144,49753,2,0,L|280:288,1,119.999996337891,2|8,0:0|0:0,0:0:0:0:
120,336,50365,1,2,0:0:0:0:
344,312,50672,2,0,P|360:256|333:204,1,119.999996337891,0|2,0:0|0:0,0:0:0:0:
268,144,51131,1,0,0:0:0:0:
248,232,51284,1,8,0:0:0:0:
333,204,51437,1,8,0:0:0:0:
268,144,51590,2,0,L|176:136,1,59.9999981689454,2|0,0:0|0:0,0:0:0:0:
85,83,51896,54,0,P|133:48|192:52,1,119.999996337891,0|2,0:0|0:0,0:0:0:0:
268,312,52508,2,0,P|208:308|164:220,1,119.999996337891,8|2,0:0|0:0,0:0:0:0:
336,76,53121,1,0,0:0:0:0:
384,288,53427,1,2,0:0:0:0:
428,112,53733,2,0,L|284:108,1,119.999996337891,8|2,0:0|0:0,0:0:0:0:
220,120,54192,1,2,0:0:0:0:
304,152,54345,54,0,P|328:208|272:276,1,119.999996337891,4|2,0:0|0:0,0:0:0:0:
132,312,54957,1,8,0:0:0:0:
132,128,55263,1,2,0:0:0:0:
220,120,55416,2,0,L|324:112,1,59.9999981689454
436,292,55876,1,2,0:0:0:0:
348,284,56029,2,0,L|244:276,1,59.9999981689454,0|8,0:0|0:0,0:0:0:0:
232,208,56335,1,8,0:0:0:0:
220,120,56488,2,0,P|220:88|248:40,1,59.9999981689454,2|2,0:0|0:0,0:0:0:0:
312,28,56794,53,4,0:0:0:0:
132,52,57100,1,2,2:0:0:0:
328,56,57406,1,0,0:0:0:0:
116,140,57712,1,2,2:0:0:0:
348,80,58019,1,0,0:0:0:0:
128,228,58325,1,2,2:0:0:0:
368,180,58631,53,8,0:0:0:0:
368,325,58784,1,8,0:0:0:0:
453,207,58937,1,2,0:0:0:0:
315,252,59090,1,2,0:0:0:0:
453,297,59243,1,4,0:0:0:0:
104,24,66141,54,0,B|208:32|208:32|152:76,1,150,0|0,0:0|2:0,0:0:0:0:
128,128,66686,2,0,L|132:292,1,150,0|0,0:0|2:0,0:0:0:0:
136,356,67231,1,8,0:3:0:0:
253,173,67504,54,0,L|204:168,1,50,8|8,0:0|0:0,0:0:0:0:
122,78,67777,2,8,L|128:128,1,50
22,189,68050,2,0,L|72:196,1,50,2|2,0:0|0:0,0:0:0:0:
136,356,68322,54,0,L|300:348,1,150,4|0,0:0|0:0,0:0:0:0:
368,348,68868,2,0,B|444:344|444:344|408:380,1,100,8|0,0:0|0:0,0:0:0:0:
285,348,69277,1,8,0:0:0:0:
324,280,69413,2,0,L|328:156,1,100
196,84,69959,1,8,0:0:0:0:
327,180,70231,2,0,L|328:88,1,50,2|2,0:0|0:0,0:0:0:0:
280,64,70504,54,0,L|156:56,1,100,2|0,0:0|0:0,0:0:0:0:
56,164,71050,2,0,B|52:244|52:244|80:272,1,100,8|0,0:0|0:0,0:0:0:0:
185,211,71459,2,0,L|136:220,1,50,8|0,0:0|0:0,0:0:0:0:
324,284,71868,2,0,L|452:300,1,100,0|8,0:0|0:0,0:0:0:0:
300,140,72413,2,0,L|296:44,1,50,2|2,0:0|0:0,0:0:0:0:
296,12,72686,53,6,0:0:0:0:
264,220,72959,1,0,0:0:0:0:
452,64,73231,2,0,B|378:60|378:60|354:72,1,100,8|0,0:0|0:0,0:0:0:0:
300,140,73641,2,0,L|308:328,1,150,8|0,0:0|0:0,0:0:0:0:
264,220,74322,2,0,B|337:216|337:216|361:228,1,100,8|2,0:0|0:0,0:0:0:0:
320,292,74731,1,2,0:0:0:0:
256,332,74868,54,0,L|128:328,1,100,2|0,0:0|0:0,0:0:0:0:
12,352,75413,1,8,0:0:0:0:
128,340,75686,1,0,0:0:0:0:
128,340,75822,2,0,L|217:342,1,50,8|0,0:0|0:0,0:0:0:0:
320,292,76095,2,0,L|324:224,1,50,8|0,0:0|0:0,0:0:0:0:
68,184,76504,2,0,L|74:283,1,100,8|0,0:0|0:0,0:0:0:0:
128,340,76913,1,2,0:0:0:0:
148,268,77050,54,0,P|248:264|312:320,1,150,4|0,0:0|0:0,0:0:0:0:
352,368,77595,1,8,0:0:0:0:
484,200,77868,2,0,L|432:212,1,50,0|8,0:0|0:0,0:0:0:0:
299,151,78141,2,0,L|348:140,1,50,0|8,0:0|0:0,0:0:0:0:
420,52,78413,1,0,0:0:0:0:
216,88,78686,2,0,P|172:96|96:48,1,100,8|2,0:0|0:0,0:0:0:0:
64,28,79095,1,2,0:0:0:0:
104,92,79231,54,0,P|120:136|80:216,1,100,2|0,0:0|0:0,0:0:0:0:
76,376,79777,2,0,P|52:340|64:268,1,100,8|0,0:0|0:0,0:0:0:0:
120,244,80186,2,0,L|192:236,1,50,8|0,0:0|0:0,0:0:0:0:
244,232,80459,1,8,0:0:0:0:
320,236,80595,2,0,L|448:248,1,100,0|8,0:0|0:0,0:0:0:0:
472,300,81004,2,0,L|476:364,2,50,2|0|2,0:0|0:0|0:0,0:0:0:0:
468,188,81413,53,6,0:0:0:0:
332,320,81686,1,0,0:0:0:0:
228,132,81959,1,8,0:0:0:0:
92,376,82231,1,0,0:0:0:0:
80,300,82368,2,0,L|64:204,1,50,8|0,0:0|0:0,0:0:0:0:
216,208,82641,1,8,0:0:0:0:
228,132,82778,2,0,L|244:36,1,50,0|0,0:0|2:0,0:0:0:0:
408,128,83050,2,0,P|452:164|448:240,1,100,8|2,0:0|0:0,0:0:0:0:
416,264,83459,1,2,0:0:0:0:
344,284,83595,54,0,L|220:280,1,100,2|0,0:0|0:0,0:0:0:0:
60,100,84141,2,0,L|184:104,1,100,8|0,0:0|0:0,0:0:0:0:
228,132,84550,1,8,0:0:0:0:
296,164,84686,1,0,0:0:0:0:
140,284,84959,1,0,0:0:0:0:
251,383,85231,2,0,L|248:284,1,100,8|2,0:0|0:0,0:0:0:0:
236,208,85641,1,2,0:0:0:0:
228,132,85777,53,12,0:0:0:0:
344,244,86050,1,2,2:0:0:0:
168,176,86322,1,8,0:0:0:0:
344,244,86595,1,2,2:0:0:0:
236,208,86868,2,0,L|344:212,1,100,8|2,0:0|0:0,0:0:0:0:
412,212,87277,1,2,0:0:0:0:
344,244,87413,2,0,P|336:288|364:336,1,100,8|0,0:0|0:0,0:0:0:0:
468,160,87959,54,0,P|420:136|348:164,1,100,8|0,0:0|2:0,0:0:0:0:
438,99,88504,2,0,P|396:95|358:112,1,85.0000016212464,8|0,0:0|2:0,0:0:0:0:
391,58,89050,2,0,P|359:67|334:89,1,66.9999968307497,8|0,0:0|2:0,0:0:0:0:
340,38,89595,2,0,P|319:51|305:72,1,50,8|0,0:0|2:0,0:0:0:0:
288,164,90141,53,4,0:0:0:0:
424,224,95071,6,0,L|360:236,1,50,0|0,2:0|2:0,0:0:0:0:
424,95,95554,2,0,L|328:88,1,75.0000028610231,0|0,2:0|2:0,0:0:0:0:
472,160,96038,2,0,L|480:296,1,100,0|0,2:0|0:0,0:0:0:0:
480,292,96341,54,0,L|472:368,2,50
480,292,96522,2,0,P|408:268|316:308,1,150.000005722046
268,328,96885,1,0,0:0:0:0:
200,372,97006,54,0,L|72:364,1,100,6|2,0:0|0:0,0:0:0:0:
188,128,97490,2,0,P|208:168|192:244,1,100,8|2,0:0|0:0,0:0:0:0:
128,188,97853,2,0,P|192:144|280:184,1,150,2|2,0:0|0:0,0:0:0:0:
392,272,98458,1,8,0:0:0:0:
416,120,98700,2,0,L|424:40,1,50,2|2,0:0|0:0,0:0:0:0:
360,20,98941,54,0,P|308:16|252:44,1,100,0|2,0:0|0:0,0:0:0:0:
220,224,99425,1,8,0:0:0:0:
128,44,99667,2,0,L|124:112,1,50,2|2,0:0|0:0,0:0:0:0:
128,209,99909,2,0,P|171:232|220:224,1,100,0|2,0:0|0:0,0:0:0:0:
296,192,100272,1,0,0:0:0:0:
376,176,100393,2,0,P|428:176|480:228,1,100,8|2,0:0|0:0,0:0:0:0:
480,280,100756,1,2,0:0:0:0:
404,256,100877,53,0,0:0:0:0:
488,72,101119,1,2,0:0:0:0:
288,92,101361,1,8,0:0:0:0:
404,256,101603,1,2,0:0:0:0:
480,280,101724,2,0,P|480:228|400:172,1,150,2|2,0:0|0:0,0:0:0:0:
260,300,102329,2,0,P|216:320|156:296,1,100,8|2,0:0|0:0,0:0:0:0:
60,176,102812,53,2,0:0:0:0:
284,160,103054,2,0,L|360:152,2,50,2|0|8,0:0|0:0|0:0,0:0:0:0:
60,176,103538,2,0,L|220:192,1,150,2|8,0:0|0:0,0:0:0:0:
284,160,104022,1,2,0:0:0:0:
124,228,104264,1,8,0:0:0:0:
356,192,104506,1,2,0:0:0:0:
284,160,104627,54,0,P|252:104|288:24,1,150,8|2,0:0|0:0,0:0:0:0:
428,88,105232,2,0,L|312:96,1,100,8|2,0:0|0:0,0:0:0:0:
284,160,105595,1,2,0:0:0:0:
356,192,105716,2,0,P|384:232|348:312,1,100,2|2,0:0|0:0,0:0:0:0:
312,316,106079,1,0,0:0:0:0:
236,328,106200,2,0,L|80:320,1,150,8|2,0:0|0:0,0:0:0:0:
12,316,106683,53,2,0:0:0:0:
160,348,106925,1,2,0:0:0:0:
136,172,107167,2,0,L|124:60,1,100,8|0,0:0|0:0,0:0:0:0:
60,36,107530,1,2,0:0:0:0:
60,36,107651,2,0,P|108:24|180:60,1,100,2|2,0:0|0:0,0:0:0:0:
196,224,108135,1,8,0:0:0:0:
108,100,108377,1,2,0:0:0:0:
176,64,108498,1,8,0:0:0:0:
252,56,108619,54,0,L|408:64,1,150,2|0,0:0|0:0,0:0:0:0:
424,136,109103,2,0,P|372:136|328:88,1,100,8|0,0:0|0:0,0:0:0:0:
332,32,109466,1,2,0:0:0:0:
400,64,109587,2,0,L|412:184,1,100,2|2,0:0|0:0,0:0:0:0:
364,224,109950,2,0,L|372:300,2,50,2|8|2,0:0|0:0|0:0,0:0:0:0:
296,128,110312,1,2,0:0:0:0:
232,288,110554,53,0,0:0:0:0:
448,224,110796,1,2,0:0:0:0:
212,204,111038,1,8,0:0:0:0:
468,140,111280,53,0,0:0:0:0:
448,224,111401,1,2,0:0:0:0:
312,144,111643,1,0,0:0:0:0:
292,228,111764,1,2,0:0:0:0:
156,148,112006,1,8,0:0:0:0:
136,232,112127,1,2,0:0:0:0:
20,72,112369,1,2,0:0:0:0:
92,44,112490,54,0,P|92:104|28:152,1,100,4|2,0:0|0:0,0:0:0:0:
84,300,112974,2,0,P|136:316|192:292,1,100,8|2,0:0|0:0,0:0:0:0:
136,232,113337,2,0,L|288:252,1,150,2|2,0:0|0:0,0:0:0:0:
488,124,113941,2,0,L|351:142,1,100,8|2,0:0|0:0,0:0:0:0:
312,148,114304,1,2,0:0:0:0:
344,80,114425,54,0,P|388:152|316:224,1,200,2|8,0:0|0:0,0:0:0:0:
160,176,115151,1,2,0:0:0:0:
144,104,115272,1,2,0:0:0:0:
88,156,115393,2,0,P|176:172|216:80,1,200,2|8,0:0|0:0,0:0:0:0:
72,84,116119,1,2,0:0:0:0:
88,156,116240,1,2,0:0:0:0:
104,228,116361,53,2,0:0:0:0:
217,84,116603,1,2,0:0:0:0:
284,284,116845,1,8,0:0:0:0:
380,72,117087,2,0,L|316:80,1,50,0|2,0:0|0:0,0:0:0:0:
217,84,117329,2,0,L|224:240,1,150,2|0,0:0|0:0,0:0:0:0:
284,284,117812,2,0,P|336:296|396:256,1,100,8|2,0:0|0:0,0:0:0:0:
436,140,118296,53,2,0:0:0:0:
408,360,118538,1,2,0:0:0:0:
284,204,118780,2,0,B|228:204|204:260|204:260|136:252,1,150,8|8,0:0|0:0,0:0:0:0:
168,180,119264,2,0,L|160:112,2,50,2|8|2,0:0|0:0|0:0,0:0:0:0:
284,284,119748,1,8,0:0:0:0:
392,100,119990,1,2,0:0:0:0:
316,112,120111,54,0,L|124:140,1,150,8|2,0:0|0:0,0:0:0:0:
284,284,120716,2,0,L|150:264,1,100,8|2,0:0|0:0,0:0:0:0:
144,208,121079,1,2,0:0:0:0:
167,133,121200,2,0,L|375:103,1,200,2|8,0:0|0:0,0:0:0:0:
424,308,121925,2,0,L|330:294,1,50,0|2,0:0|0:0,0:0:0:0:
284,284,122167,53,2,0:0:0:0:
464,204,122409,1,2,0:0:0:0:
264,184,122651,2,0,L|248:68,1,100,8|0,0:0|0:0,0:0:0:0:
240,12,123014,1,2,0:0:0:0:
312,36,123135,2,0,L|392:56,1,50,2|0,0:0|0:0,0:0:0:0:
250,84,123377,2,0,P|208:100|120:68,1,100,2|8,0:0|0:0,0:0:0:0:
24,20,123861,2,0,L|104:40,1,50,2|8,0:0|0:0,0:0:0:0:
152,108,124103,54,0,P|189:183|149:271,1,150,2|0,0:0|0:0,0:0:0:0:
108,284,124587,2,0,L|8:291,1,100,8|0,0:0|0:0,0:0:0:0:
184,276,124950,1,2,0:0:0:0:
256,268,125070,1,2,0:0:0:0:
204,48,125312,2,0,P|156:28|88:56,1,100,2|8,0:0|0:0,0:0:0:0:
72,104,125675,1,8,0:0:0:0:
84,180,125796,2,0,L|96:272,1,50,2|2,0:0|0:0,0:0:0:0:
184,276,126038,54,0,L|316:284,1,100,2|2,0:0|0:0,0:0:0:0:
468,232,126522,1,8,0:0:0:0:
312,304,126764,2,0,L|262:300,1,50,2|8,0:0|0:0,0:0:0:0:
216,196,127006,2,0,L|166:192,1,50,2|8,0:0|0:0,0:0:0:0:
112,320,127248,1,2,0:0:0:0:
56,128,127490,1,8,0:0:0:0:
132,120,127611,2,0,L|260:108,1,100,2|8,0:0|0:0,0:0:0:0:
308,104,127974,53,6,0:0:0:0:
452,68,135349,54,0,L|448:168,1,100,2|0,0:0|0:0,0:0:0:0:
408,248,135879,1,2,0:0:0:0:
323,364,136055,54,0,P|303:320|323:276,1,100,2|0,0:0|0:0,0:0:0:0:
408,248,136585,1,2,0:0:0:0:
400,160,136761,1,0,0:0:0:0:
328,104,136938,2,0,P|292:72|296:16,1,100,2|0,0:0|0:0,0:0:0:0:
400,160,137467,1,2,0:0:0:0:
292,23,137644,53,0,1:0:0:0:
168,176,137820,1,12,1:0:0:0:
84,48,137996,1,0,1:0:0:0:
84,48,138085,1,8,1:0:0:0:
84,48,138173,53,0,1:0:0:0:
168,176,138349,1,8,1:0:0:0:
184,16,138526,1,8,1:0:0:0:
112,244,138702,1,8,1:0:0:0:
223,109,138879,54,0,P|304:88|372:144,1,160,6|0,1:0|0:0,0:0:0:0:
424,327,139408,2,0,L|428:248,1,80,2|8,0:0|1:0,0:0:0:0:
363,127,139761,2,0,L|360:28,1,80,2|0,0:0|0:0,0:0:0:0:
148,172,140114,53,8,1:0:0:0:
136,252,140291,2,0,L|120:360,1,80,2|8,0:0|1:0,0:0:0:0:
160,92,140644,1,2,0:0:0:0:
212,219,140820,2,0,P|251:220|284:242,1,80,0|8,0:0|1:0,0:0:0:0:
60,236,141173,2,0,P|32:164|72:72,1,160,2|8,0:0|1:0,0:0:0:0:
304,268,141702,54,0,P|380:292|468:240,1,160,2|0,1:0|0:0,0:0:0:0:
352,92,142232,2,0,P|336:136|352:192,1,80,2|8,0:0|1:0,0:0:0:0:
448,340,142585,2,0,L|450:261,1,80,2|0,0:0|0:0,0:0:0:0:
256,192,142938,1,8,1:0:0:0:
220,320,143114,53,2,0:0:0:0:
352,288,143291,1,8,1:0:0:0:
220,320,143467,2,0,L|120:316,1,80,2|0,0:0|0:0,0:0:0:0:
128,316,143732,1,0,1:0:0:0:
116,316,143820,1,8,1:0:0:0:
88,72,143996,1,8,1:0:0:0:
72,244,144173,54,0,L|88:144,1,80,2|8,0:0|1:0,0:0:0:0:
84,165,144438,1,0,1:2:0:0:
84,165,144526,1,2,1:0:0:0:
204,356,144702,1,2,1:0:0:0:
172,200,145055,1,0,1:2:0:0:
172,200,145144,1,0,1:2:0:0:
172,200,145232,1,8,1:0:0:0:
204,356,145408,2,0,L|300:360,1,89.9999972534181,2|2,1:0|0:0,0:0:0:0:
484,332,145761,1,8,1:0:0:0:
312,344,145938,54,0,L|216:339,1,89.9999972534181,2|8,0:0|1:0,0:0:0:0:
172,200,146291,1,2,0:0:0:0:
148,92,146467,2,0,L|132:4,1,89.9999972534181,2|8,0:0|1:0,0:0:0:0:
328,80,146820,1,2,1:2:0:0:
324,92,146908,1,2,1:2:0:0:
320,104,146996,1,8,1:0:0:0:
352,196,147173,1,8,1:0:0:0:
424,48,147349,54,0,L|232:44,1,179.999994506836,4|0,1:0|0:0,0:0:0:0:
148,92,147879,1,2,0:0:0:0:
320,104,148055,2,0,L|316:216,1,89.9999972534181,8|2,1:0|1:2,0:0:0:0:
316,193,148320,1,2,1:2:0:0:
316,193,148408,1,2,1:2:0:0:
120,176,148585,2,0,L|132:280,1,89.9999972534181,8|2,1:0|0:0,0:0:0:0:
300,320,148938,53,8,1:0:0:0:
317,183,149114,1,8,1:0:0:0:
160,268,149291,1,0,1:0:0:0:
160,268,149379,1,8,1:0:0:0:
160,268,149467,1,8,1:0:0:0:
160,268,149644,2,0,L|52:260,1,100,2|0,0:0|1:0,0:0:0:0:
317,183,149996,1,8,1:0:0:0:
160,268,150173,54,0,B|120:256|120:256|64:292|-8:272,1,160,6|0,1:0|0:0,0:0:0:0:
300,320,150702,2,0,L|392:316,1,80,2|8,0:0|1:0,0:0:0:0:
128,360,151055,1,2,0:0:0:0:
56,184,151232,2,0,L|52:96,1,80,0|8,0:0|1:0,0:0:0:0:
52,104,151496,1,0,1:0:0:0:
52,104,151585,53,2,1:2:0:0:
220,208,151761,2,0,L|212:308,1,80,8|2,1:0|0:0,0:0:0:0:
32,320,152114,1,0,0:0:0:0:
56,184,152291,1,8,1:0:0:0:
56,184,152467,2,0,B|120:180|120:180|164:196|164:196|244:188,1,160,2|8,0:0|1:0,0:0:0:0:
272,136,152996,54,0,L|440:144,1,160,2|0,1:0|0:0,0:0:0:0:
431,143,153526,1,2,0:0:0:0:
212,191,153702,2,0,P|192:152|208:88,1,80,8|2,1:0|0:0,0:0:0:0:
372,56,154055,2,0,L|472:44,1,80,0|8,0:0|1:0,0:0:0:0:
451,46,154320,1,0,1:0:0:0:
451,46,154408,53,2,1:0:0:0:
372,216,154585,1,8,1:0:0:0:
272,116,154761,1,2,0:0:0:0:
272,116,154938,1,0,1:0:0:0:
272,116,155026,1,8,1:0:0:0:
272,116,155114,1,8,1:0:0:0:
180,280,155291,1,8,1:0:0:0:
104,156,155467,54,0,P|96:116|128:60,1,80,2|8,0:0|1:0,0:0:0:0:
108,79,155732,1,0,1:0:0:0:
108,79,155820,1,2,1:0:0:0:
324,296,155996,2,0,B|380:320|432:288|432:288|488:344,1,179.999994506836,2|0,1:0|1:0,0:0:0:0:
479,335,156438,1,0,1:0:0:0:
479,335,156526,1,8,1:0:0:0:
252,184,156702,2,0,P|220:176|164:196,1,89.9999972534181,2|2,1:0|0:0,0:0:0:0:
428,88,157055,1,8,1:0:0:0:
296,52,157232,1,2,0:0:0:0:
356,220,157408,54,0,L|360:332,1,89.9999972534181,8|2,1:0|0:0,0:0:0:0:
240,368,157761,1,2,0:0:0:0:
161,228,157938,2,0,L|72:224,1,89.9999972534181,8|2,1:0|1:2,0:0:0:0:
71,223,158202,1,2,1:2:0:0:
71,223,158291,1,8,1:0:0:0:
24,372,158467,1,8,1:0:0:0:
72,224,158644,54,0,L|257:232,1,179.999994506836,4|0,1:0|0:0,0:0:0:0:
340,156,159173,1,2,0:0:0:0:
224,316,159349,2,0,P|192:300|172:232,1,89.9999972534181,8|2,1:0|1:2,0:0:0:0:
171,239,159614,1,2,1:2:0:0:
175,226,159702,1,2,1:0:0:0:
336,292,159879,1,0,0:0:0:0:
200,88,160055,53,2,0:0:0:0:
68,204,160232,1,8,1:0:0:0:
68,204,160408,1,8,1:0:0:0:
260,236,160585,1,0,1:0:0:0:
260,236,160673,1,8,1:0:0:0:
260,236,160761,1,8,1:0:0:0:
200,88,160938,2,0,L|320:96,1,100,2|8,0:0|1:0,0:0:0:0:
200,304,161291,1,8,1:0:0:0:
104,76,161467,54,0,B|148:60|148:60|200:108|280:84,1,160,4|0,1:0|0:0,0:0:0:0:
440,76,161996,2,0,P|421:39|371:17,1,80,2|8,0:0|1:0,0:0:0:0:
252,90,162349,2,0,P|212:88|168:120,1,80,2|0,0:0|0:0,0:0:0:0:
170,257,162702,1,8,1:0:0:0:
170,257,162791,1,0,1:0:0:0:
170,257,162879,54,0,P|147:291|153:345,1,80,2|8,1:2|1:0,0:0:0:0:
272,212,163232,1,2,0:0:0:0:
384,336,163408,2,0,P|382:296|361:263,1,80,2|8,0:0|1:0,0:0:0:0:
228,312,163761,1,2,0:0:0:0:
384,356,163938,1,2,0:0:0:0:
508,256,164114,1,8,1:0:0:0:
352,212,164291,54,0,B|324:192|280:200|280:200|252:236|200:224,1,160,2|0,1:0|0:0,0:0:0:0:
72,112,164820,1,2,0:0:0:0:
216,148,164996,2,0,P|228:196|192:248,1,80,8|2,1:0|0:0,0:0:0:0:
64,284,165349,1,0,0:0:0:0:
0,144,165526,1,8,1:0:0:0:
0,144,165614,1,0,1:0:0:0:
0,144,165702,53,2,1:2:0:0:
144,188,165879,1,8,1:0:0:0:
120,40,166055,2,0,P|80:24|16:44,1,80,2|0,0:0|1:0,0:0:0:0:
44,27,166320,1,0,1:0:0:0:
44,27,166408,1,8,1:0:0:0:
216,148,166585,1,8,1:0:0:0:
352,16,166761,1,2,0:0:0:0:
448,192,166938,53,8,1:0:0:0:
448,192,167026,1,0,1:0:0:0:
448,192,167114,2,0,L|444:288,1,89.9999972534181,2|2,1:0|0:0,0:0:0:0:
68,312,167643,1,0,1:0:0:0:
68,312,167731,1,0,1:0:0:0:
68,312,167820,2,0,L|64:216,1,89.9999972534181,8|2,1:0|0:0,0:0:0:0:
216,148,168173,1,2,0:0:0:0:
64,196,168349,1,8,1:0:0:0:
224,240,168526,54,0,L|220:348,1,89.9999972534181,2|8,0:0|1:0,0:0:0:0:
144,368,168879,1,2,0:0:0:0:
64,196,169055,1,2,1:2:0:0:
64,196,169143,1,2,1:2:0:0:
64,196,169232,2,0,L|60:104,1,89.9999972534181,8|2,1:0|1:2,0:0:0:0:
60,106,169496,1,2,1:2:0:0:
60,106,169585,1,8,1:0:0:0:
136,264,169761,1,8,1:0:0:0:
16,36,169938,54,0,B|64:24|64:24|112:44|112:44|196:44,1,179.999994506836,4|0,1:0|0:0,0:0:0:0:
216,208,170467,1,2,0:0:0:0:
280,72,170643,2,0,L|376:76,1,89.9999972534181,8|0,1:0|0:0,0:0:0:0:
484,124,170996,1,2,0:0:0:0:
332,168,171173,1,8,1:0:0:0:
448,324,171349,54,0,P|460:280|432:232,1,89.9999972534181,2|8,0:0|1:0,0:0:0:0:
332,168,171702,1,2,0:0:0:0:
484,124,171879,1,2,1:2:0:0:
484,124,171967,1,2,1:2:0:0:
484,124,172055,1,8,1:0:0:0:
280,72,172232,1,8,1:0:0:0:
68,280,172408,54,0,L|76:396,1,100,0|4,0:0|1:0,0:0:0:0:
324,347,182539,6,0,L|324:116,1,200,4|0,0:2|0:0,0:0:0:0:
308,36,183056,1,8,0:0:0:0:
352,252,183228,1,8,0:0:0:0:
308,36,183401,54,0,L|148:32,1,150.000005722046
20,108,183918,2,0,L|88:104,1,37.5000014305115
168,56,184090,54,0,L|164:176,1,100,4|2,0:2|2:0,0:0:0:0:
164,155,184349,1,2,2:0:0:0:
164,155,184435,1,8,0:0:0:0:
267,338,184608,2,0,B|304:348|304:348|375:330,1,100,0|2,2:0|0:2,0:0:0:0:
164,155,184953,2,0,B|128:144|128:144|48:184,1,100,0|2,0:0|0:2,0:0:0:0:
204,384,185297,54,2,B|241:366|241:326|241:326|193:258|240:188,1,220.000006713867,4|2,0:2|0:2,0:0:0:0:
239,189,185728,1,0,0:2:0:0:
239,189,185815,1,10,0:0:0:0:
364,324,185987,2,0,L|348:248,1,55.0000016784668,0|8,0:0|0:0,0:0:0:0:
320,200,186159,2,2,L|324:60,1,110.000003356934,2|2,0:0|0:0,0:0:0:0:
96,0,186504,2,2,L|108:132,1,110.000003356934,8|0,0:0|0:0,0:0:0:0:
105,109,186763,1,8,0:0:0:0:
105,109,186849,53,4,0:2:0:0:
40,264,187021,1,2,2:0:0:0:
40,264,187108,1,2,2:0:0:0:
40,264,187194,1,8,0:0:0:0:
184,160,187366,2,0,B|260:148|260:148|296:192,1,100,2|0,2:0|0:0,0:0:0:0:
364,312,187711,2,0,L|360:372,2,50,2|2|0,0:2|2:2|0:0,0:0:0:0:
493,156,188056,54,2,L|274:165,1,220.000006713867,4|2,0:2|0:2,0:0:0:0:
274,165,188487,1,2,0:2:0:0:
274,165,188573,1,10,0:0:0:0:
196,320,188746,1,2,0:0:0:0:
196,320,188832,1,8,0:0:0:0:
196,320,188918,1,4,0:2:0:0:
80,96,189090,2,2,L|200:104,1,110.000003356934,2|4,0:0|0:2,0:0:0:0:
312,256,189435,2,2,L|257:253,1,55.0000016784668,2|8,0:0|0:0,0:0:0:0:
124,368,189608,54,0,B|108:320|108:320|136:248,1,100,4|2,0:2|2:0,0:0:0:0:
368,324,189953,2,0,B|416:336|416:336|484:316,1,100,8|0,0:0|2:0,0:0:0:0:
344,112,190297,1,2,0:2:0:0:
484,68,190470,2,0,L|476:192,1,100,0|2,2:0|0:2,0:0:0:0:
312,256,190815,1,0,0:0:0:0:
492,200,190987,53,4,0:2:0:0:
344,112,191159,2,0,L|228:108,1,100,2|2,2:1|0:2,0:0:0:0:
88,184,191504,2,0,B|64:216|64:216|76:296,1,100,2|2,2:1|0:2,0:0:0:0:
216,220,191849,1,2,2:1:0:0:
340,336,192021,2,0,L|464:344,1,100,2|0,0:2|0:0,0:0:0:0:
439,342,192280,1,8,0:0:0:0:
439,342,192366,53,2,0:0:0:0:
308,236,192539,1,2,2:0:0:0:
448,156,192711,1,8,0:0:0:0:
448,156,192884,2,2,B|460:88|460:88|432:40,1,100,2|0,2:1|0:0,0:0:0:0:
208,52,193228,2,2,L|128:60,2,50,2|0|0,0:0|2:0|2:0,0:0:0:0:
208,52,193573,54,2,B|200:120|200:120|220:180|220:180|204:268,1,220.000006713867,4|2,0:2|0:2,0:0:0:0:
204,266,194004,1,2,0:2:0:0:
204,266,194090,1,10,0:0:0:0:
324,124,194263,1,8,0:0:0:0:
324,124,194349,1,8,0:0:0:0:
324,124,194435,1,2,0:0:0:0:
204,267,194608,2,8,L|294:277,1,55.0000016784668
430,325,194780,2,8,L|340:334,1,55.0000016784668
222,353,194953,2,8,L|311:362,1,55.0000016784668
447,239,195125,54,0,L|347:248,1,100,4|2,0:2|2:0,0:0:0:0:
347,248,195384,1,2,2:0:0:0:
347,248,195470,1,8,0:0:0:0:
142,325,195642,2,0,L|30:321,1,100,0|2,2:0|0:2,0:0:0:0:
188,92,195987,2,0,B|264:88|264:88|308:128,1,100,0|2,0:0|0:2,0:0:0:0:
347,248,196332,54,2,B|406:341|406:341|454:222,1,220.000006713867,4|2,0:2|0:2,0:0:0:0:
447,239,196763,1,2,0:2:0:0:
447,239,196849,1,10,0:0:0:0:
276,188,197021,2,0,L|196:184,1,55.0000016784668,0|8,0:0|0:0,0:0:0:0:
160,264,197194,2,2,L|44:272,1,110.000003356934,2|2,0:0|0:0,0:0:0:0:
24,84,197539,1,10,0:0:0:0:
24,84,197711,1,0,0:0:0:0:
24,84,197797,1,8,0:0:0:0:
24,84,197884,54,0,L|128:92,1,100,4|2,0:2|2:0,0:0:0:0:
138,93,198142,1,2,2:0:0:0:
152,94,198228,1,8,0:0:0:0:
290,215,198401,2,0,B|280:280|280:280|248:294,1,100,0|0,2:0|0:0,0:0:0:0:
152,94,198746,2,0,L|144:24,2,50,0|0|0,0:0|2:0|0:0,0:0:0:0:
248,294,199090,54,2,B|352:272|352:272|452:324,1,220.000006713867,4|2,0:2|0:2,0:0:0:0:
392,380,199521,2,2,L|308:336,1,55.0000016784668,2|8,0:2|0:0,0:0:0:0:
284,144,199780,2,0,L|200:100,1,55.0000016784668,2|8,0:0|0:0,0:0:0:0:
336,80,199953,2,2,B|364:124|364:124|360:208,1,110.000003356934,4|2,0:2|0:0,0:0:0:0:
188,280,200297,2,2,L|72:288,1,110.000003356934,4|2,0:2|0:0,0:0:0:0:
32,224,200556,1,8,0:0:0:0:
32,224,200642,54,0,L|256:248,2,200,4|8|2,0:2|0:0|0:2,0:0:0:0:
180,112,201504,1,0,2:0:0:0:
180,112,201677,2,0,L|284:104,1,100,2|0,0:2|0:0,0:0:0:0:
279,104,201935,1,0,0:0:0:0:
279,104,202021,53,4,0:2:0:0:
132,204,202194,1,2,2:1:0:0:
279,104,202366,1,2,0:2:0:0:
308,280,202539,2,0,L|204:272,1,100,2|2,2:1|0:2,0:0:0:0:
76,348,202884,1,2,2:1:0:0:
132,204,203056,1,2,0:2:0:0:
232,308,203228,1,0,0:0:0:0:
232,308,203315,1,8,0:0:0:0:
232,308,203401,53,2,0:0:0:0:
124,116,203573,2,0,L|120:40,2,50,2|2|8,2:0|2:0|0:0,0:0:0:0:
144,288,203918,2,2,L|268:292,1,100,2|0,2:1|0:0,0:0:0:0:
384,292,204263,1,0,0:0:0:0:
384,292,204349,1,0,0:0:0:0:
384,292,204435,1,8,0:0:0:0:
472,184,204608,54,2,P|496:96|416:4,1,220.000006713867,4|2,0:2|0:2,0:0:0:0:
418,4,205039,1,2,0:2:0:0:
418,4,205125,1,8,0:0:0:0:
304,248,205297,1,0,0:0:0:0:
236,96,205470,1,8,0:0:0:0:
204,88,205556,1,8,0:0:0:0:
172,84,205642,1,8,0:0:0:0:
140,84,205728,1,8,0:0:0:0:
108,92,205815,2,8,P|88:112|32:112,1,55.0000016784668
108,240,205987,2,8,P|115:267|87:315,1,55.0000016784668
236,314,206159,54,0,P|292:312|340:356,1,100,4|2,0:2|2:0,0:0:0:0:
327,335,206418,1,2,2:0:0:0:
327,335,206504,1,8,0:0:0:0:
452,232,206677,1,0,2:0:0:0:
356,104,206849,1,2,0:2:0:0:
452,232,207021,2,0,L|460:356,1,100,0|2,0:0|0:2,0:0:0:0:
272,236,207366,54,2,B|208:228|208:228|144:256|144:256|56:244,1,220.000006713867,4|2,0:2|0:2,0:0:0:0:
59,244,207797,1,2,0:2:0:0:
59,244,207884,1,10,0:0:0:0:
327,335,208056,2,2,L|456:332,1,110.000003356934,4|0,0:2|2:0,0:0:0:0:
272,112,208401,1,2,0:2:0:0:
272,112,208487,1,2,0:2:0:0:
272,112,208573,2,2,L|260:0,1,110.000003356934,4|0,0:2|0:0,0:0:0:0:
156,292,208918,53,4,0:2:0:0:
344,216,209090,2,0,L|416:212,2,50,2|2|8,2:0|2:0|0:0,0:0:0:0:
128,144,209435,1,2,2:0:0:0:
220,368,209608,1,2,0:2:0:0:
96,228,209780,1,2,0:2:0:0:
264,196,209953,1,0,0:0:0:0:
264,196,210125,54,2,L|488:204,1,220.000006713867,4|2,0:2|0:2,0:0:0:0:
483,203,210556,1,2,0:2:0:0:
483,203,210642,1,10,0:0:0:0:
204,276,210815,1,4,0:3:0:0:
204,276,210901,1,4,0:3:0:0:
204,276,210987,1,4,0:2:0:0:
356,124,211159,1,2,0:0:0:0:
456,328,211332,2,2,L|336:320,1,110.000003356934,4|2,0:2|0:0,0:0:0:0:
268,324,211590,1,0,0:0:0:0:
268,324,211677,54,0,P|176:352|144:224,1,240,4|0,0:2|0:0,0:0:0:0:
133,239,212366,2,0,L|224:248,1,80,8|0,0:0|2:0,0:0:0:0:
448,96,212711,2,0,L|357:104,1,80,2|0,0:2|0:0,0:0:0:0:
300,152,212970,1,0,0:0:0:0:
300,152,213056,54,0,P|392:180|424:52,1,240,4|0,0:2|0:0,0:0:0:0:
434,67,213746,1,8,0:0:0:0:
368,220,213918,1,2,2:0:0:0:
256,76,214090,1,8,0:0:0:0:
384,136,214263,1,2,0:2:0:0:
384,136,214349,1,8,0:0:0:0:
384,136,214435,54,2,L|396:288,1,110.000003356934,4|2,0:2|0:2,0:0:0:0:
132,356,214780,2,2,L|136:216,1,110.000003356934,10|2,0:0|0:2,0:0:0:0:
256,76,215125,2,2,L|252:8,2,55.0000016784668,10|0|0,0:0|2:0|2:0,0:0:0:0:
256,312,215470,1,10,0:0:0:0:
256,312,215556,1,8,0:0:0:0:
256,312,215642,1,8,0:0:0:0:
256,312,215728,1,8,0:0:0:0:
256,312,215815,53,4,0:2:0:0:
256,312,216677,2,0,B|260:292|248:268|248:268|264:248|300:272|304:316|292:344,1,150,0|4,0:0|0:2,0:0:0:0:
404,148,225347,21,8,0:0:0:0:
416,176,225431,1,8,0:0:0:0:
420,204,225516,1,8,0:0:0:0:
416,232,225600,1,8,0:0:0:0:
392,276,225684,53,8,0:0:0:0:
364,276,225768,1,8,0:0:0:0:
332,280,225853,1,8,0:0:0:0:
304,292,225937,1,8,0:0:0:0:
268,328,226021,54,0,L|136:336,1,100,4|2,0:2|0:0,0:0:0:0:
48,180,226358,2,0,L|164:192,1,100,8|10,0:0|0:0,0:0:0:0:
324,148,226695,1,2,0:0:0:0:
184,100,226864,1,0,0:0:0:0:
184,100,226948,1,0,0:0:0:0:
184,100,227032,1,10,0:0:0:0:
200,252,227201,1,2,0:0:0:0:
472,184,227369,54,0,P|480:96|464:8,1,150,6|2,0:0|0:0,0:0:0:0:
471,35,227707,1,8,0:0:0:0:
324,148,227875,1,2,0:0:0:0:
296,152,227959,1,0,0:0:0:0:
264,152,228044,1,0,0:0:0:0:
236,144,228128,1,8,0:0:0:0:
208,128,228212,1,2,0:0:0:0:
180,28,228381,1,10,0:0:0:0:
276,52,228549,1,8,0:0:0:0:
112,104,228718,53,4,0:2:0:0:
216,236,228886,2,0,P|240:280|220:352,1,100,2|8,0:0|0:0,0:0:0:0:
336,228,229223,1,10,0:0:0:0:
336,228,229308,1,2,0:0:0:0:
336,228,229392,1,2,0:0:0:0:
400,376,229560,1,0,0:0:0:0:
280,292,229729,2,0,P|328:312|404:280,1,100,10|2,0:0|0:0,0:0:0:0:
480,188,230066,54,0,P|456:124|468:40,1,150,6|2,0:0|0:0,0:0:0:0:
466,44,230403,1,8,0:0:0:0:
416,256,230572,2,0,P|440:304|416:372,1,100,2|2,0:0|0:0,0:0:0:0:
432,348,230825,1,8,0:0:0:0:
432,348,230909,1,2,0:0:0:0:
328,196,231077,1,10,0:0:0:0:
284,376,231246,1,8,0:0:0:0:
180,272,231414,54,0,L|64:280,1,100,4|2,0:2|0:0,0:0:0:0:
32,128,231751,1,8,0:0:0:0:
148,152,231920,1,2,0:0:0:0:
80,308,232089,1,0,0:0:0:0:
32,128,232257,1,10,0:0:0:0:
220,200,232426,2,0,L|340:200,1,100,10|2,0:0|0:0,0:0:0:0:
320,200,232678,1,0,0:0:0:0:
320,200,232763,53,6,0:0:0:0:
492,260,232931,1,0,0:0:0:0:
340,284,233100,2,0,P|284:280|240:216,1,100,8|2,0:0|0:0,0:0:0:0:
240,224,233353,1,8,0:0:0:0:
236,196,233437,1,0,0:0:0:0:
244,168,233521,1,8,0:0:0:0:
260,144,233605,1,2,0:0:0:0:
492,260,233774,2,0,L|504:368,1,100,10|0,0:0|0:0,0:0:0:0:
503,359,234027,1,8,0:0:0:0:
503,359,234111,53,6,0:0:0:0:
416,200,234280,1,2,0:0:0:0:
272,336,234448,1,8,0:0:0:0:
416,200,234617,1,2,0:0:0:0:
260,144,234785,2,0,L|124:136,1,100,2|0,0:0|0:0,0:0:0:0:
160,138,235038,1,0,0:0:0:0:
160,138,235122,1,10,0:0:0:0:
336,80,235291,1,2,0:0:0:0:
284,240,235459,54,0,P|268:304|292:384,1,150,14|10,0:0|0:0,0:0:0:0:
291,382,235796,1,8,0:0:0:0:
204,212,235965,2,0,P|240:120|136:52,1,200,10|10,0:0|0:0,0:0:0:0:
327,160,236471,2,8,P|352:158|376:151,1,50,10|8,0:0|0:0,0:0:0:0:
279,21,236639,2,8,P|263:40|256:64,1,50,8|8,0:0|0:0,0:0:0:0:
336,80,236808,53,4,0:2:0:0:
188,112,236976,1,2,0:0:0:0:
316,240,237145,1,8,0:0:0:0:
136,176,237313,2,0,P|108:132|120:68,1,100,10|2,0:0|0:0,0:0:0:0:
328,160,237650,1,0,0:0:0:0:
328,160,237735,1,0,0:0:0:0:
328,160,237819,1,10,0:0:0:0:
360,312,237987,1,2,0:0:0:0:
168,256,238156,54,0,L|0:264,1,150,6|2,0:0|0:0,0:0:0:0:
18,263,238493,1,8,0:0:0:0:
136,176,238662,2,0,P|152:132|128:52,1,100,2|0,0:0|0:0,0:0:0:0:
145,80,238914,1,8,0:0:0:0:
145,80,238999,1,2,0:0:0:0:
56,36,239167,1,10,0:0:0:0:
240,72,239336,1,8,0:0:0:0:
136,176,239504,54,0,L|148:292,1,100,4|2,0:2|0:0,0:0:0:0:
316,224,239841,2,0,L|328:340,1,100,8|10,0:0|0:0,0:0:0:0:
156,288,240178,2,0,L|168:172,1,100,2|0,0:0|0:0,0:0:0:0:
346,140,240515,2,0,L|336:240,1,100,10|2,0:0|0:0,0:0:0:0:
120,68,240853,53,6,0:0:0:0:
308,40,241021,1,2,0:0:0:0:
308,40,241105,1,2,0:0:0:0:
308,40,241190,1,8,0:0:0:0:
256,208,241358,1,2,0:0:0:0:
420,304,241527,1,2,0:0:0:0:
346,140,241695,1,8,0:0:0:0:
346,140,241864,1,10,0:0:0:0:
346,140,242032,2,8,L|376:200,1,50,10|8,0:0|0:0,0:0:0:0:
420,304,242201,53,4,0:2:0:0:
448,48,242538,1,2,0:0:0:0:
504,344,242875,1,10,0:0:0:0:
484,244,243044,1,0,0:0:0:0:
484,244,243128,1,0,0:0:0:0:
484,244,243212,1,2,0:0:0:0:
448,48,243381,1,2,0:0:0:0:
346,140,243549,54,0,L|210:144,1,100,4|2,0:0|0:0,0:0:0:0:
40,36,243886,2,0,L|139:38,1,100,0|0,0:0|0:0,0:0:0:0:
139,38,244139,1,2,0:0:0:0:
139,38,244223,1,8,0:0:0:0:
264,96,244392,2,0,P|284:144|260:200,1,100,8|2,0:0|0:0,0:0:0:0:
124,236,244729,1,8,0:0:0:0:
188,148,244898,53,8,0:0:0:0:
296,264,245066,1,8,0:0:0:0:
304,292,245150,1,8,0:0:0:0:
312,320,245235,1,8,0:0:0:0:
440,204,245403,1,8,0:0:0:0:
272,180,245572,53,2,0:0:0:0:
216,336,245740,1,8,0:3:0:0:
272,180,245909,1,4,0:3:0:0:
216,336,246077,1,8,0:3:0:0:
356,208,246246,53,2,0:0:0:0:
356,208,246330,1,2,0:0:0:0:
356,208,246414,1,0,0:0:0:0:
296,104,246583,1,2,0:0:0:0:
196,168,246751,1,2,0:0:0:0:
80,136,246920,2,0,P|48:92|64:20,1,100,4|8,0:2|0:0,0:0:0:0:
48,48,247173,1,8,0:0:0:0:
48,48,247257,1,8,0:0:0:0:
220,92,247426,1,8,0:0:0:0:
124,224,247594,53,4,0:2:0:0:
124,224,247763,1,2,0:0:0:0:
220,92,247931,2,0,L|340:88,1,100,8|2,0:0|0:0,0:0:0:0:
319,88,248184,1,2,0:0:0:0:
319,88,248268,1,2,0:0:0:0:
424,216,248437,2,0,L|420:296,2,50,0|0|10,0:0|0:0|0:0,0:0:0:0:
416,32,248774,1,2,0:0:0:0:
268,160,248942,54,0,B|212:188|160:152|160:152|124:184,1,150,6|2,0:0|0:0,0:0:0:0:
176,248,249280,1,8,0:0:0:0:
343,198,249448,1,2,0:0:0:0:
351,169,249533,1,0,0:0:0:0:
349,139,249617,1,0,0:0:0:0:
338,111,249701,1,8,0:0:0:0:
319,88,249785,1,2,0:0:0:0:
104,292,249954,2,0,P|144:324|224:312,1,100,8|8,0:0|0:0,0:0:0:0:
268,160,250291,53,4,0:2:0:0:
260,32,250459,2,0,P|308:8|372:28,1,100,2|8,0:0|0:0,0:0:0:0:
416,244,250796,1,2,0:0:0:0:
416,244,250881,1,2,0:0:0:0:
416,244,250965,1,2,0:0:0:0:
268,160,251133,1,0,0:0:0:0:
432,56,251302,2,0,P|388:72|316:48,1,100,10|2,0:0|0:0,0:0:0:0:
144,92,251639,54,0,P|120:160|164:236,1,150,6|2,0:0|0:0,0:0:0:0:
151,226,251976,1,8,0:0:0:0:
316,247,252145,2,0,L|416:244,1,100,2|0,0:0|0:0,0:0:0:0:
416,244,252398,1,8,0:0:0:0:
416,244,252482,1,2,0:0:0:0:
268,160,252650,1,2,0:0:0:0:
212,360,252819,1,8,0:0:0:0:
151,226,252987,54,0,P|123:167|144:105,1,100,4|2,0:2|0:0,0:0:0:0:
356,36,253324,2,0,P|364:96|332:144,1,100,8|2,0:0|0:0,0:0:0:0:
144,308,253662,1,0,0:0:0:0:
316,248,253830,1,10,0:0:0:0:
188,79,253999,2,0,L|288:76,1,100,10|2,0:0|0:0,0:0:0:0:
288,76,254251,1,0,0:0:0:0:
288,76,254336,53,6,0:0:0:0:
144,172,254504,2,0,P|96:192|24:164,1,100,0|8,0:0|0:0,0:0:0:0:
316,248,254841,1,2,0:0:0:0:
345,240,254925,1,8,0:0:0:0:
374,239,255009,1,0,0:0:0:0:
404,244,255093,1,8,0:0:0:0:
432,256,255178,1,2,0:0:0:0:
252,348,255347,1,8,0:0:0:0:
244,176,255516,1,0,0:0:0:0:
244,176,255600,1,8,0:0:0:0:
244,176,255684,54,0,L|240:48,1,100,6|2,0:0|0:0,0:0:0:0:
300,0,256021,1,8,0:0:0:0:
155,62,256190,1,2,0:0:0:0:
281,159,256358,1,2,0:0:0:0:
240,76,256527,1,2,0:0:0:0:
240,76,256611,1,0,0:0:0:0:
240,76,256695,1,8,0:0:0:0:
152,272,256864,1,2,0:0:0:0:
348,212,257032,54,0,L|456:208,1,100,14|0,0:0|0:0,0:0:0:0:
472,228,257285,2,0,L|408:216,1,50,8|8,0:0|0:0,0:0:0:0:
281,159,257538,2,0,L|72:168,1,200,8|8,0:0|0:0,0:0:0:0:
129,315,258044,2,8,P|144:295|152:272,1,50
156,144,258212,2,8,P|146:121|129:102,1,50
81,167,258381,53,4,0:2:0:0:
200,284,258549,1,2,0:0:0:0:
328,176,258718,2,0,P|372:164|444:192,1,100,8|10,0:0|0:0,0:0:0:0:
364,348,259055,1,2,0:0:0:0:
200,284,259223,2,0,P|172:248|196:164,1,100,0|10,0:0|0:0,0:0:0:0:
344,92,259560,1,2,0:0:0:0:
316,264,259729,54,0,L|136:268,1,150,6|2,0:0|0:0,0:0:0:0:
166,267,260066,1,8,0:0:0:0:
92,120,260235,1,2,0:0:0:0:
92,120,260319,1,0,0:0:0:0:
92,120,260403,2,0,L|100:40,2,50,0|8|2,0:0|0:0|0:0,0:0:0:0:
108,332,260740,1,8,0:0:0:0:
208,192,260909,1,8,0:0:0:0:
368,328,261077,54,0,P|396:284|364:200,1,100,4|2,0:2|0:0,0:0:0:0:
166,267,261414,2,0,P|128:224|136:152,1,100,8|10,0:0|0:0,0:0:0:0:
380,204,261751,2,0,L|488:220,1,100,2|2,0:0|0:0,0:0:0:0:
232,320,262089,2,0,P|140:296|52:352,1,200,10|4,0:0|0:0,0:0:0:0:
136,184,262594,53,2,0:0:0:0:
136,184,262678,1,2,0:0:0:0:
136,184,262763,1,8,0:0:0:0:
280,252,262931,1,2,0:0:0:0:
112,312,263100,1,2,0:0:0:0:
260,168,263268,1,8,0:0:0:0:
370,360,263437,2,0,L|272:344,1,100,10|10,0:0|0:0,0:0:0:0:
192,328,263689,1,8,0:0:0:0:
112,312,263774,53,4,0:2:0:0:
340,192,264111,2,0,P|372:152|352:68,1,100,2|0,0:0|0:0,0:0:0:0:
260,168,264448,1,8,0:0:0:0:
280,252,264617,1,0,0:0:0:0:
280,252,264701,1,0,0:0:0:0:
280,252,264785,1,2,0:0:0:0:
300,336,264954,1,2,0:0:0:0:
340,192,265122,53,4,0:0:0:0:
340,192,265291,1,2,0:0:0:0:
260,168,265459,1,2,0:0:0:0:
180,144,265628,1,0,0:0:0:0:
180,144,265712,1,2,0:0:0:0:
180,144,265796,1,8,0:0:0:0:
100,120,265965,2,0,P|80:168|108:224,1,100,8|2,0:0|0:0,0:0:0:0:
160,60,266302,1,8,0:0:0:0:
200,228,266471,53,8,0:0:0:0:
320,108,266639,1,10,0:0:0:0:
348,116,266723,1,8,0:0:0:0:
376,124,266808,1,8,0:0:0:0:
360,276,266976,1,8,0:0:0:0:
260,168,267145,1,8,0:0:0:0:
260,168,267313,1,8,0:0:0:0:
260,168,267482,1,8,0:0:0:0:
260,168,267650,1,8,0:0:0:0:
424,204,267819,54,0,P|444:224|456:256,1,50,2|0,0:0|0:0,0:0:0:0:
384,360,268156,1,0,0:0:0:0:
384,360,268493,2,0,P|332:360|284:316,1,100,2|0,0:0|0:0,0:0:0:0:
424,204,268999,1,2,0:0:0:0:
456,296,269167,53,4,0:2:0:0:
52,192,275628,70,0,L|40:296,1,89.9999972534181
172,192,275961,2,0,L|196:293,1,89.9999972534181
284,150,276295,2,0,L|341:237,1,89.9999972534181
374,70,276628,2,0,L|446:123,1,89.9999972534181,0|4,0:0|0:0,0:0:0:0:
374,70,277128,53,0,0:0:0:0:
476,252,277295,1,0,0:0:0:0:
374,70,277461,53,0,0:0:0:0:
284,236,277628,1,0,0:0:0:0:
476,252,277795,53,0,0:0:0:0:
284,236,277961,2,0,L|180:232,1,89.9999972534181
194,232,278461,53,2,0:0:0:0:
88,240,278628,1,2,0:0:0:0:
191,259,278795,1,0,0:0:0:0:
292,260,278961,1,2,0:0:0:0:
189,285,279128,1,0,0:0:0:0:
76,264,279295,1,2,1:2:0:0:
187,311,279461,1,2,0:0:0:0:
152,160,279628,54,0,P|192:148|256:176,1,89.9999972534181,6|2,1:0|0:0,0:0:0:0:
326,333,279961,2,0,P|282:339|240:322,1,89.9999972534181,0|2,1:0|0:0,0:0:0:0:
237,160,280295,2,0,P|272:236|236:328,1,179.999994506836,2|0,0:0|1:0,0:0:0:0:
80,116,280795,1,2,0:0:0:0:
80,116,280878,1,2,0:0:0:0:
80,116,280961,53,2,0:0:0:0:
237,160,281128,2,0,P|288:160|336:112,1,89.9999972534181,2|0,0:0|1:0,0:0:0:0:
412,252,281461,2,0,P|432:256|472:296,2,44.999998626709,2|0|0,0:0|0:0|0:0,0:0:0:0:
372,88,281795,1,2,0:0:0:0:
268,240,281961,1,0,1:0:0:0:
268,240,282128,2,0,L|215:179,1,44.999998626709,0|0,1:0|1:0,0:0:0:0:
164,112,282295,53,2,1:1:0:0:
348,180,282628,1,0,1:0:0:0:
164,112,282961,1,2,0:0:0:0:
268,240,283128,1,2,2:0:0:0:
268,240,283211,1,2,2:0:0:0:
268,240,283295,2,0,L|276:344,1,89.9999972534181,2|2,1:2|0:0,0:0:0:0:
274,329,283545,1,2,0:0:0:0:
274,329,283628,53,2,0:0:0:0:
456,160,283961,2,0,L|464:52,1,89.9999972534181,0|0,1:0|1:0,0:0:0:0:
462,70,284295,1,2,0:0:0:0:
364,200,284461,1,2,1:0:0:0:
496,256,284628,1,2,1:2:0:0:
364,200,284795,1,2,1:0:0:0:
274,329,284961,54,0,P|184:360|104:296,1,179.999994506836,2|0,0:0|1:0,0:0:0:0:
280,240,285628,1,2,0:0:0:0:
116,319,285795,1,2,0:0:0:0:
116,319,285878,1,2,0:0:0:0:
116,319,285961,1,2,1:2:0:0:
64,96,286128,54,0,L|180:104,1,89.9999972534181,2|0,0:0|0:0,0:0:0:0:
153,102,286461,1,0,1:0:0:0:
280,240,286628,2,0,L|164:248,1,89.9999972534181,2|2,1:2|0:0,0:0:0:0:
190,246,286961,1,2,0:0:0:0:
392,292,287295,1,0,1:0:0:0:
190,246,287461,2,0,L|172:172,1,44.999998626709,0|0,1:0|1:0,0:0:0:0:
153,102,287628,53,2,1:0:0:0:
392,292,287961,2,0,P|440:300|496:244,1,89.9999972534181,0|0,1:0|0:0,0:0:0:0:
190,246,288295,2,0,L|64:252,1,89.9999972534181,2|2,0:0|0:0,0:0:0:0:
100,250,288545,1,2,0:0:0:0:
100,250,288628,1,2,1:2:0:0:
280,184,288795,1,2,0:0:0:0:
280,184,288878,1,2,0:0:0:0:
280,184,288961,53,2,0:0:0:0:
240,328,289128,1,0,1:0:0:0:
240,328,289295,1,0,1:0:0:0:
200,144,289461,1,2,1:0:0:0:
348,244,289628,1,2,0:0:0:0:
200,144,289795,1,2,1:0:0:0:
240,328,289961,1,4,1:2:0:0:
280,184,290128,1,0,1:0:0:0:
280,184,290211,1,0,1:0:0:0:
280,184,290295,54,0,P|288:140|264:80,1,89.9999972534181,6|2,1:0|0:0,0:0:0:0:
100,236,290628,2,0,P|88:280|108:340,1,89.9999972534181,0|2,1:0|0:0,0:0:0:0:
97,322,290961,2,0,L|292:324,1,179.999994506836,2|0,0:0|1:0,0:0:0:0:
412,192,291461,1,2,0:0:0:0:
412,192,291545,1,2,0:0:0:0:
412,192,291628,53,2,0:0:0:0:
277,323,291795,2,0,P|240:320|192:256,1,89.9999972534181,2|0,0:0|1:0,0:0:0:0:
131,138,292128,2,0,L|52:155,2,44.999998626709,2|0|0,0:0|0:0|0:0,0:0:0:0:
237,71,292461,1,2,0:0:0:0:
352,124,292628,1,0,1:0:0:0:
250,191,292795,2,0,L|187:182,1,44.999998626709,0|0,1:0|1:0,0:0:0:0:
52,164,292961,53,2,1:0:0:0:
352,124,293295,2,0,L|464:120,1,89.9999972534181,0|0,1:0|0:0,0:0:0:0:
441,120,293628,1,2,0:0:0:0:
320,244,293795,1,2,0:0:0:0:
320,244,293878,1,2,0:0:0:0:
320,244,293961,2,0,P|312:288|336:336,1,89.9999972534181,2|2,1:2|0:0,0:0:0:0:
400,360,294211,1,2,0:0:0:0:
400,360,294295,54,0,L|496:352,1,89.9999972534181,2|0,0:0|0:0,0:0:0:0:
280,168,294628,2,0,P|232:164|176:192,1,89.9999972534181,0|0,1:0|1:0,0:0:0:0:
193,178,294961,1,2,0:0:0:0:
396,208,295128,1,2,1:0:0:0:
308,56,295295,1,0,1:0:0:0:
396,208,295461,1,2,1:0:0:0:
193,178,295628,53,2,0:0:0:0:
193,178,295795,2,0,L|108:176,2,44.999998626709,2|0|0,0:0|0:0|1:0,0:0:0:0:
352,280,296128,1,2,0:0:0:0:
308,56,296295,2,0,L|300:-4,2,44.999998626709,2|0|0,1:2|0:0|0:0,0:0:0:0:
193,178,296628,1,0,1:0:0:0:
384,116,296795,54,0,L|488:112,1,89.9999972534181,2|0,0:0|0:0,0:0:0:0:
473,112,297128,1,0,1:0:0:0:
320,192,297295,2,0,P|312:232|336:292,1,89.9999972534181,0|2,1:0|0:0,0:0:0:0:
252,116,297628,1,2,0:0:0:0:
180,260,297795,1,2,0:0:0:0:
100,92,297961,1,0,1:0:0:0:
100,92,298128,2,0,L|72:166,1,44.999998626709,0|0,1:0|1:0,0:0:0:0:
28,284,298295,53,2,1:0:0:0:
269,267,298628,2,0,L|180:260,1,89.9999972534181,0|0,1:0|0:0,0:0:0:0:
28,284,298961,1,2,0:0:0:0:
180,260,299128,1,2,0:0:0:0:
180,260,299211,1,2,0:0:0:0:
180,260,299295,1,2,1:2:0:0:
324,336,299461,1,2,0:0:0:0:
348,348,299545,1,2,0:0:0:0:
372,360,299628,53,6,0:0:0:0:
464,228,299795,1,0,1:0:0:0:
356,256,299961,1,0,1:0:0:0:
404,96,300128,2,0,L|420:28,2,44.999998626709,0|0|2,1:0|0:0|0:0,0:0:0:0:
269,267,300461,1,0,0:0:0:0:
120,136,300628,2,0,L|-4:128,1,89.9999972534181,0|0,1:0|1:0,0:0:0:0:
30,130,300878,1,0,1:0:0:0:
30,130,300961,53,4,1:0:0:0:
167,92,308932,38,0,L|68:96,1,100,2|0,0:0|0:0,0:0:0:0:
335,172,309265,2,0,L|236:168,1,100,2|0,0:0|0:0,0:0:0:0:
408,104,309599,1,2,0:0:0:0:
444,300,309932,53,0,0:0:0:0:
408,104,310099,1,0,0:0:0:0:
404,88,310182,1,0,0:0:0:0:
400,72,310265,53,4,0:0:0:0:
260,136,310432,2,0,P|252:180|280:236,1,80,2|0,0:2|2:0,0:0:0:0:
269,18,310932,53,2,0:2:0:0:
180,144,311099,2,0,P|195:186|247:220,1,80,0|0,0:0|2:0,0:0:0:0:
128,37,311599,53,2,0:2:0:0:
114,190,311766,2,0,P|148:218|210:222,1,80,0|0,0:0|2:0,0:0:0:0:
128,112,312265,54,2,P|84:116|36:160,1,89.9999972534181,2|0,0:2|2:0,0:0:0:0:
184,344,312599,2,2,L|288:352,1,89.9999972534181,2|0,0:2|2:0,0:0:0:0:
380,176,312932,54,0,P|392:124|356:48,1,100,6|2,0:0|0:2,0:0:0:0:
380,79,313182,1,2,0:2:0:0:
380,79,313265,1,10,0:0:0:0:
288,44,313432,1,2,0:0:0:0:
208,196,313599,2,2,P|192:248|224:308,1,100,2|2,0:0|0:2,0:0:0:0:
380,328,313932,1,10,0:0:0:0:
380,328,314099,54,2,L|484:320,1,100,2|2,0:0|0:2,0:0:0:0:
144,244,314432,1,2,0:2:0:0:
144,244,314515,1,2,0:2:0:0:
144,244,314599,2,2,P|128:192|160:128,1,100,10|2,0:0|0:0,0:0:0:0:
340,120,314932,2,2,P|364:164|340:244,1,100,2|2,0:0|0:2,0:0:0:0:
360,212,315182,1,2,0:2:0:0:
360,212,315265,1,8,0:0:0:0:
144,244,315432,2,8,L|48:256,1,50
12,264,315599,53,0,0:0:0:0:
200,308,315765,1,2,2:0:0:0:
46,170,315932,1,0,0:0:0:0:
200,308,316099,1,2,2:0:0:0:
110,95,316265,1,0,0:0:0:0:
200,308,316432,1,2,2:0:0:0:
198,47,316599,1,0,0:0:0:0:
200,308,316765,1,2,2:0:0:0:
296,32,316932,53,0,0:0:0:0:
296,256,317099,1,2,2:0:0:0:
198,47,317265,1,0,0:0:0:0:
308,284,317432,1,2,2:0:0:0:
110,95,317599,1,0,0:0:0:0:
320,312,317765,1,2,2:0:0:0:
46,170,317932,1,0,0:0:0:0:
332,340,318099,54,0,B|360:320|392:320|392:320|428:360|472:368|524:344,1,200,2|2,0:0|0:0,0:0:0:0:
512,204,318599,1,8,0:0:0:0:
224,184,318765,1,0,0:0:0:0:
432,120,318932,1,0,0:0:0:0:
432,120,319015,1,8,0:0:0:0:
432,120,319099,1,0,0:0:0:0:
328,224,319265,1,8,0:0:0:0:
148,32,319432,54,0,P|97:112|142:196,1,200,2|2,0:0|0:0,0:0:0:0:
292,140,319932,2,0,P|280:124|224:100,1,50,8|0,0:0|2:0,0:0:0:0:
192,260,320099,2,0,P|211:265|270:252,1,50,8|0,0:0|2:0,0:0:0:0:
328,224,320265,1,0,0:0:0:0:
328,224,320349,1,8,0:0:0:0:
328,224,320432,1,0,0:0:0:0:
328,224,320515,1,0,0:0:0:0:
328,224,320599,2,0,L|440:224,1,100,8|8,0:0|0:0,0:0:0:0:
484,160,320849,1,8,0:0:0:0:
484,160,320932,54,0,P|496:112|472:56,1,100,0|4,2:0|0:0,0:0:0:0:
479,65,321432,53,2,0:0:0:0:
248,196,321599,2,2,P|248:252|292:300,1,100,2|2,0:0|0:2,0:0:0:0:
428,224,321932,1,10,0:0:0:0:
271,287,322099,54,2,P|208:288|160:232,1,100,2|2,0:0|0:2,0:0:0:0:
40,360,322432,1,2,0:2:0:0:
68,356,322515,1,2,0:2:0:0:
96,352,322599,1,10,0:0:0:0:
188,264,322765,1,2,0:0:0:0:
260,372,322932,1,2,0:0:0:0:
348,252,323099,1,2,0:2:0:0:
444,344,323265,2,2,L|308:336,1,100,10|2,0:0|0:2,0:0:0:0:
144,180,323599,54,2,P|124:132|152:60,1,100,6|2,0:0|0:2,0:0:0:0:
132,86,323849,1,2,0:2:0:0:
132,86,323932,1,10,0:0:0:0:
248,204,324099,1,2,0:0:0:0:
80,288,324265,1,2,0:0:0:0:
144,180,324432,1,2,0:2:0:0:
264,292,324599,1,10,0:0:0:0:
308,136,324765,54,2,P|260:116|196:132,1,100,2|2,0:0|0:2,0:0:0:0:
152,332,325099,2,0,L|144:420,2,50,2|2|10,0:2|0:2|0:0,0:0:0:0:
248,204,325432,1,2,0:2:0:0:
72,144,325599,2,2,L|64:36,1,100,2|2,0:0|0:2,0:0:0:0:
64,44,325849,1,2,0:2:0:0:
64,44,325932,1,8,0:0:0:0:
208,120,326099,2,0,L|288:112,1,50,8|8,0:0|0:0,0:0:0:0:
340,32,326265,54,0,L|456:36,1,100,0|2,0:0|2:0,0:0:0:0:
439,35,326515,1,2,2:0:0:0:
439,35,326599,1,0,0:0:0:0:
316,136,326765,1,2,2:0:0:0:
488,196,326932,54,0,L|360:204,1,100,0|2,0:0|2:0,0:0:0:0:
388,202,327182,1,2,2:0:0:0:
388,202,327265,1,0,0:0:0:0:
296,336,327432,1,2,2:0:0:0:
224,168,327599,54,0,P|208:124|224:64,1,100,0|2,0:0|2:0,0:0:0:0:
218,73,327849,1,2,2:0:0:0:
218,73,327932,1,0,0:0:0:0:
304,244,328099,1,2,2:0:0:0:
172,324,328265,54,0,P|88:336|28:244,1,200,0|8,0:0|0:0,0:0:0:0:
27,250,328765,1,8,0:0:0:0:
27,250,328932,54,0,L|216:240,1,179.999994506836,0|0,0:0|2:0,0:0:0:0:
304,244,329432,54,0,P|372:160|288:76,1,240,0|0,0:0|2:0,0:0:0:0:
200,88,330099,54,0,L|216:380,1,279.999991455078,0|0,0:0|2:0,0:0:0:0:
136,332,330932,54,0,P|192:288|296:324,1,150,8|2,0:0|2:0,0:0:0:0:
332,352,331265,2,0,L|456:344,1,100,8|2,0:0|0:2,0:0:0:0:
431,345,331515,1,2,0:2:0:0:
431,345,331599,53,4,0:0:0:0:
488,64,338864,86,0,B|440:48|440:48|388:108|280:72,1,200,4|8,0:0|0:0,0:0:0:0:
172,184,339337,1,8,0:0:0:0:
415,215,339495,2,0,P|429:144|384:88,1,150,2|0,0:2|0:0,0:0:0:0:
302,78,339811,1,8,0:0:0:0:
240,248,339969,1,0,0:0:0:0:
356,164,340127,54,0,B|472:156|472:156|448:120,1,150,2|0,0:2|0:0,0:0:0:0:
481,57,340443,2,0,P|432:55|392:84,1,100,8|8,0:0|0:0,0:0:0:0:
352,280,340758,1,2,0:2:0:0:
302,78,340916,2,0,P|260:96|192:76,1,100,0|8,0:0|0:0,0:0:0:0:
76,156,341232,1,2,0:2:0:0:
88,184,341311,1,8,0:0:0:0:
100,212,341390,53,2,0:2:0:0:
188,108,341548,1,0,0:0:0:0:
128,296,341706,2,0,P|184:316|248:292,1,100,8|0,0:0|0:0,0:0:0:0:
284,168,342022,53,2,0:2:0:0:
76,156,342179,1,0,0:0:0:0:
136,332,342337,2,0,P|208:352|296:296,1,150,8|8,0:0|0:0,0:0:0:0:
312,252,342653,53,2,0:2:0:0:
76,156,342811,1,0,0:0:0:0:
168,352,342969,2,0,B|208:341|208:341|242:309|242:309|282:353|344:332,1,200,8|2,0:0|0:2,0:0:0:0:
491,116,343443,1,0,0:0:0:0:
312,252,343601,2,0,P|272:224|268:152,1,100,8|2,0:0|0:2,0:0:0:0:
272,148,343837,1,8,0:0:0:0:
292,124,343916,54,0,L|492:116,1,200,2|8,0:2|0:0,0:0:0:0:
392,284,344390,1,8,0:0:0:0:
372,144,344548,2,0,P|364:80|280:36,1,150,2|0,0:2|0:0,0:0:0:0:
224,72,344864,2,0,P|184:96|104:68,1,100,8|0,0:0|0:0,0:0:0:0:
40,64,345179,54,0,P|90:65|132:90,1,100,2|0,0:2|0:0,0:0:0:0:
152,280,345495,1,8,0:0:0:0:
55,241,345653,2,0,B|52:176|52:176|72:148,1,100,6|0,0:2|2:0,0:0:0:0:
260,264,345969,2,0,L|368:272,1,100,6|0,0:2|2:0,0:0:0:0:
480,184,346285,54,0,B|488:28|488:28|424:80,1,200,4|0,0:0|0:0,0:0:0:0:
359,271,346758,2,0,P|356:320|404:368,1,100,8|0,0:0|0:0,0:0:0:0:
385,359,346995,1,0,0:0:0:0:
385,359,347074,1,2,0:2:0:0:
400,196,347232,1,0,0:0:0:0:
260,264,347390,1,8,0:0:0:0:
128,180,347548,1,0,0:0:0:0:
268,112,347706,53,2,0:2:0:0:
296,340,347864,2,0,B|260:352|260:352|176:324,1,100,6|0,0:2|2:0,0:0:0:0:
308,188,348179,2,0,L|184:188,1,100,6|0,0:2|2:0,0:0:0:0:
304,40,348495,2,0,B|268:28|268:28|184:56,1,100,6|0,0:2|2:0,0:0:0:0:
108,188,348811,54,0,L|308:188,1,200,4|0,0:0|0:0,0:0:0:0:
408,100,349285,1,8,0:0:0:0:
280,272,349443,1,8,0:0:0:0:
484,304,349601,2,0,B|495:201|495:201|471:161,1,150,2|0,0:2|0:0,0:0:0:0:
408,100,349916,1,8,0:0:0:0:
396,288,350074,1,0,0:0:0:0:
471,161,350232,54,0,L|288:152,1,150,2|0,0:2|0:0,0:0:0:0:
252,192,350548,1,8,0:0:0:0:
396,288,350706,1,8,0:0:0:0:
408,100,350864,2,0,L|416:0,1,100,2|0,0:2|0:0,0:0:0:0:
188,144,351179,2,0,P|172:196|216:264,1,100,8|2,0:0|0:2,0:0:0:0:
186,237,351416,1,8,0:0:0:0:
186,237,351495,53,2,0:2:0:0:
292,104,351653,1,0,0:0:0:0:
120,96,351811,2,0,P|104:148|148:216,1,100,8|0,0:0|0:0,0:0:0:0:
280,208,352127,1,2,0:2:0:0:
248,36,352285,1,0,0:0:0:0:
80,28,352443,2,0,P|40:92|100:172,1,150,8|8,0:0|0:0,0:0:0:0:
144,192,352758,54,0,L|264:184,1,100,2|0,0:2|0:0,0:0:0:0:
432,80,353074,2,0,B|360:72|324:124|324:124|352:48,1,200,8|2,0:0|0:2,0:0:0:0:
352,255,353548,1,0,0:0:0:0:
350,51,353706,2,0,P|300:68|284:144,1,100,8|2,0:0|0:2,0:0:0:0:
276,136,353943,1,8,0:0:0:0:
284,164,354022,54,0,B|320:220|280:280|280:280|352:256,1,200,2|8,0:2|0:0,0:0:0:0:
356,128,354495,1,8,0:0:0:0:
220,216,354653,2,0,B|116:228|116:228|144:176,1,150,2|0,0:2|0:0,0:0:0:0:
86,123,354969,2,0,P|133:107|180:124,1,100,8|0,0:0|0:0,0:0:0:0:
240,320,355285,54,0,P|288:344|352:308,1,100,2|0,0:2|0:0,0:0:0:0:
436,232,355601,1,8,0:0:0:0:
356,44,355758,1,8,0:0:0:0:
356,44,355837,1,8,0:0:0:0:
356,44,355916,2,0,P|412:64|436:128,1,100,2|0,0:2|0:0,0:0:0:0:
436,232,356232,1,8,0:0:0:0:
428,260,356311,1,8,0:0:0:0:
420,288,356390,1,0,0:0:0:0:
240,320,356548,54,0,L|200:312,1,25,0|0,0:0|2:0,0:0:0:0:
236,296,356706,2,0,L|196:288,1,25,0|0,0:0|2:0,0:0:0:0:
232,272,356864,2,0,L|192:264,1,25,0|0,0:0|2:0,0:0:0:0:
228,248,357022,2,0,L|188:240,1,25,0|0,0:0|2:0,0:0:0:0:
271,157,357179,54,0,L|276:120,1,37.5000014305115,0|0,0:0|2:0,0:0:0:0:
316,216,357337,2,0,L|308:144,1,37.5000014305115,0|0,0:0|2:0,0:0:0:0:
384,192,357495,2,0,L|376:264,1,37.5000014305115,0|0,0:0|2:0,0:0:0:0:
451,174,357653,2,0,L|456:212,1,37.5000014305115,0|0,0:0|2:0,0:0:0:0:
488,104,357811,54,0,L|438:97,1,50,0|0,0:0|2:0,0:0:0:0:
324,24,357969,2,0,L|388:32,1,50,0|0,0:0|2:0,0:0:0:0:
352,136,358127,2,0,L|302:129,1,50,0|0,0:0|2:0,0:0:0:0:
192,48,358285,2,0,L|256:56,1,50,0|0,0:0|2:0,0:0:0:0:
256,128,358443,54,0,B|232:108|232:108|196:100,1,62.5,0|0,0:0|2:0,0:0:0:0:
240,268,358601,2,0,B|269:257|269:257|294:230,1,62.5,8|0,0:0|2:0,0:0:0:0:
126,184,358758,2,0,B|120:214|120:214|131:249,1,62.5,8|0,0:0|2:0,0:0:0:0:
129,244,359074,54,0,L|140:144,1,80,6|0,0:2|2:0,0:0:0:0:
39,87,359390,2,0,L|32:8,1,80,2|0,0:2|2:0,0:0:0:0:
256,128,359706,2,0,L|352:120,1,80,2|0,0:2|2:0,0:0:0:0:
172,316,360022,2,0,P|128:328|76:312,1,80,2|0,0:2|2:0,0:0:0:0:
348,240,360337,54,0,L|436:256,1,80,2|0,0:2|2:0,0:0:0:0:
256,356,360653,2,0,L|177:341,1,80,2|0,0:2|2:0,0:0:0:0:
364,228,360969,2,0,L|452:244,1,80,2|0,0:2|2:0,0:0:0:0:
272,372,361285,2,0,L|193:357,1,80,2|0,0:2|2:0,0:0:0:0:
380,216,361601,54,0,L|468:232,1,80,2|0,0:2|2:0,0:0:0:0:
280,56,361916,2,0,L|201:41,1,80,2|0,0:2|2:0,0:0:0:0:
396,204,362232,2,0,L|484:220,1,80,2|0,0:2|2:0,0:0:0:0:
296,72,362548,2,0,L|217:57,1,80,2|0,0:2|2:0,0:0:0:0:
96,184,362864,54,0,P|84:228|112:284,1,80,2|0,0:2|2:0,0:0:0:0:
240,344,363179,2,0,L|344:336,1,80,2|0,0:2|2:0,0:0:0:0:
472,240,363495,2,0,P|480:201|468:163,1,80,2|0,0:2|0:0,0:0:0:0:
296,72,363811,1,2,0:2:0:0:
296,72,363890,1,0,0:0:0:0:
296,72,363969,1,0,0:0:0:0:
256,208,364127,53,4,0:2:0:0:
436,244,370806,38,0,P|444:216|416:160,1,50,8|0,0:0|2:0,0:0:0:0:
368,96,370964,2,0,P|341:83|281:101,1,50,8|0,0:0|2:0,0:0:0:0:
210,137,371122,54,0,P|192:164|200:222,1,75,0|0,2:0|2:0,0:0:0:0:
216,228,371438,54,0,P|232:156|176:88,1,160,6|8,0:2|0:0,0:0:0:0:
182,91,371912,1,2,2:0:0:0:
164,304,372069,2,0,P|236:316|296:280,1,120,0|0,0:2|2:0,0:0:0:0:
308,216,372385,2,0,P|348:208|416:232,1,80,8|0,0:0|0:0,0:0:0:0:
96,360,372701,54,0,B|64:312|88:256|88:256|68:248|44:300,1,160,2|8,0:2|0:0,0:0:0:0:
51,285,373175,1,2,2:0:0:0:
164,304,373333,2,0,P|208:308|264:268,1,80,0|0,0:0|2:0,0:0:0:0:
308,216,373648,1,8,0:0:0:0:
180,128,373806,1,0,0:0:0:0:
168,128,373885,1,8,0:0:0:0:
155,129,373965,54,0,P|125:195|192:224,1,160,2|8,0:2|0:0,0:0:0:0:
252,80,374438,1,2,2:0:0:0:
252,80,374596,2,0,P|216:52|148:48,1,80,0|0,0:0|2:0,0:0:0:0:
180,128,374912,1,8,0:0:0:0:
308,216,375069,1,0,0:0:0:0:
352,32,375227,54,0,L|456:36,1,80,2|2,0:2|0:2,0:0:0:0:
431,35,375464,1,2,0:2:0:0:
431,35,375543,1,8,0:0:0:0:
308,216,375701,1,2,0:2:0:0:
308,216,375780,1,2,0:2:0:0:
308,216,375859,2,0,L|316:312,1,80,8|0,0:0|2:0,0:0:0:0:
464,240,376175,1,8,0:0:0:0:
308,216,376333,2,0,L|236:208,1,40,2|2,0:2|0:2,0:0:0:0:
152,192,376490,54,0,P|88:240|136:304,1,160,2|8,0:2|0:0,0:0:0:0:
119,298,376964,1,2,2:0:0:0:
200,128,377122,2,0,B|192:44|192:44|236:72,1,120,0|0,0:0|2:0,0:0:0:0:
284,116,377438,2,0,L|380:108,1,80,8|0,0:0|0:0,0:0:0:0:
488,92,377754,54,0,L|476:280,1,160,2|8,0:2|0:0,0:0:0:0:
477,251,378227,1,2,2:0:0:0:
363,109,378385,2,0,L|284:116,1,80,0|0,0:0|2:0,0:0:0:0:
144,272,378701,2,0,L|223:265,1,80,8|0,0:0|0:0,0:0:0:0:
223,265,378938,1,8,0:0:0:0:
223,265,379017,1,2,0:2:0:0:
256,192,379333,53,8,0:0:0:0:
256,192,379490,1,2,2:0:0:0:
196,140,379648,1,0,0:0:0:0:
240,72,379964,53,8,0:0:0:0:
240,72,380122,1,0,0:0:0:0:
240,72,380280,1,2,0:2:0:0:
196,140,380438,1,2,0:2:0:0:
196,140,380517,1,2,0:2:0:0:
196,140,380596,1,8,0:0:0:0:
256,192,380754,1,2,0:2:0:0:
256,192,380833,1,2,0:2:0:0:
256,192,380912,1,8,0:0:0:0:
223,265,381069,2,0,L|160:280,1,40
296,296,381227,2,0,L|232:310,1,40,8|2,0:0|0:2,0:0:0:0:
368,326,381385,2,0,L|304:340,1,40,2|2,0:2|0:2,0:0:0:0:
440,356,381543,54,0,B|456:316|428:276|428:276|456:244|440:192,1,160,6|8,0:2|0:0,0:0:0:0:
443,205,382017,1,2,2:0:0:0:
347,120,382175,2,0,P|337:177|367:227,1,120,0|0,0:0|2:0,0:0:0:0:
427,280,382490,2,0,P|444:244|443:205,1,80,8|0,0:0|0:0,0:0:0:0:
396,52,382806,54,0,B|340:20|288:60|288:60|228:44,1,160,2|8,0:2|0:0,0:0:0:0:
245,48,383280,1,2,2:0:0:0:
132,104,383438,2,0,L|140:244,1,120,0|0,0:0|2:0,0:0:0:0:
184,288,383754,2,0,L|176:376,1,80,8|0,0:0|0:0,0:0:0:0:
176,367,383990,1,8,0:0:0:0:
176,367,384069,53,2,0:2:0:0:
280,188,384385,2,0,L|288:276,1,80,8|2,0:0|2:0,0:0:0:0:
287,267,384701,1,0,0:0:0:0:
188,80,385017,1,8,0:0:0:0:
180,159,385175,1,0,0:0:0:0:
340,112,385333,54,0,L|432:108,1,80,2|2,0:2|0:2,0:0:0:0:
419,108,385569,1,2,0:2:0:0:
419,108,385648,1,8,0:0:0:0:
460,240,385806,2,0,L|468:304,1,40,2|2,0:2|0:2,0:0:0:0:
476,356,385964,2,0,L|316:348,1,160,8|8,0:0|0:0,0:0:0:0:
264,196,386438,2,0,L|272:260,1,40,2|2,0:2|0:2,0:0:0:0:
280,312,386596,53,2,0:2:0:0:
280,312,386912,2,0,L|184:307,1,80,8|2,0:0|2:0,0:0:0:0:
56,316,387227,2,0,P|32:260|56:188,1,120,0|0,0:0|2:0,0:0:0:0:
112,164,387543,2,0,L|204:156,1,80,8|0,0:0|0:0,0:0:0:0:
191,157,387859,53,2,0:2:0:0:
280,312,388175,1,8,0:0:0:0:
191,157,388490,2,0,L|184:68,1,80,0|0,0:0|2:0,0:0:0:0:
184,77,388806,1,8,0:0:0:0:
312,180,388964,2,0,L|308:244,1,40,0|8,0:0|0:0,0:0:0:0:
280,312,389122,1,4,0:2:0:0:
280,312,389438,54,8,L|344:304,1,40
416,232,389596,2,8,P|420:216|416:180,1,40
344,96,389754,1,4,0:2:0:0:
344,96,390069,54,8,L|272:96,1,40
200,160,390227,2,8,L|128:160,1,40
56,224,390385,1,4,0:2:0:0:
56,224,390701,54,8,L|64:288,1,40
144,240,390859,2,8,L|140:304,1,40
227,271,391017,2,8,L|218:309,1,40
288,352,391175,54,8,L|304:316,1,40
384,332,391333,2,8,L|386:292,1,40
466,279,391490,2,8,L|454:240,1,40
488,168,391648,53,4,0:2:0:0:
488,168,391806,2,8,L|472:104,1,40
384,156,391964,2,8,L|368:92,1,40
280,144,392122,53,4,0:2:0:0:
280,144,392280,2,8,L|264:208,1,40
176,156,392438,2,8,L|160:220,1,40
248,256,392596,2,8,L|232:320,1,40
144,268,392754,2,8,L|128:332,1,40
112,380,392912,53,4,0:2:0:0:
216,368,393069,1,8,0:0:0:0:
235,365,393148,1,8,0:0:0:0:
254,362,393227,1,8,0:0:0:0:
273,359,393306,1,8,0:0:0:0:
292,356,393385,2,0,L|360:344,1,40,8|0,0:0|2:0,0:0:0:0:
416,336,393543,53,0,0:0:0:0:
436,323,393621,1,0,0:0:0:0:
452,305,393700,1,8,0:0:0:0:
461,283,393779,1,8,0:0:0:0:
463,259,393858,1,8,3:0:0:0:
458,236,393937,1,4,3:0:0:0:
446,215,394016,1,4,3:0:0:0:
428,200,394095,1,4,3:0:0:0:
406,190,394175,54,0,L|332:188,1,40,4|0,0:2|0:0,0:0:0:0:
284,192,394333,1,8,0:0:0:0:
244,192,394412,1,8,0:0:0:0:
204,192,394490,2,8,L|128:196,1,40
96,260,394648,2,8,P|92:284|112:324,1,40
104,132,394806,53,8,0:0:0:0:
110,108,394884,1,8,0:0:0:0:
112,85,394963,1,8,0:0:0:0:
109,61,395042,1,8,0:0:0:0:
101,38,395121,53,8,0:0:0:0:
84,84,395201,1,8,0:0:0:0:
76,132,395280,1,8,0:0:0:0:
80,180,395359,1,8,0:0:0:0:
96,224,395438,53,8,0:0:0:0:
124,232,395517,1,8,0:0:0:0:
152,240,395596,1,8,0:0:0:0:
180,248,395675,1,8,0:0:0:0:
208,256,395754,53,8,0:0:0:0:
248,268,395833,1,8,0:0:0:0:
288,280,395912,1,8,0:0:0:0:
328,292,395990,1,8,0:0:0:0:
368,304,396069,54,0,L|440:328,3,40,8|4|4|4,3:0|3:0|3:0|3:0,0:0:0:0:
376,216,396385,2,0,L|448:240,1,40
384,128,396543,2,0,L|456:152,1,40
392,40,396701,1,4,0:0:0:0:
392,40,397017,53,2,0:0:0:0:
384,128,397648,1,2,0:0:0:0:
376,216,398280,1,2,0:0:0:0:
368,304,398912,1,2,0:0:0:0:
368,304,399227,54,0,P|292:284|216:336,1,160,0|8,0:0|0:0,0:0:0:0:
132,344,399701,1,8,0:0:0:0:
52,268,399859,1,8,0:0:0:0:
72,140,400017,1,8,0:0:0:0:
212,100,400175,1,8,0:0:0:0:
344,192,400333,1,8,0:0:0:0:
460,60,400490,53,0,0:0:0:0:
460,60,400806,53,0,0:0:0:0:
456,72,400885,1,0,0:0:0:0:
452,84,400964,1,0,0:0:0:0:
448,96,401043,1,0,0:0:0:0:
460,132,401122,53,4,3:0:0:0:
456,144,401201,1,4,3:0:0:0:
452,156,401280,1,4,3:0:0:0:
448,168,401359,1,0,3:0:0:0:
432,204,401438,53,4,3:0:0:0:
428,216,401517,1,4,3:0:0:0:
424,228,401596,1,4,3:0:0:0:
420,240,401675,1,0,3:0:0:0:
416,280,401754,54,0,B|352:292|352:292|324:288|324:288|240:304,1,160,6|8,0:2|0:0,0:0:0:0:
258,300,402227,1,2,2:0:0:0:
104,280,402385,2,0,B|96:240|96:240|116:196,1,80,0|0,0:0|2:0,0:0:0:0:
288,164,402701,1,8,0:0:0:0:
258,300,402859,1,0,0:0:0:0:
156,204,403017,54,0,L|148:32,1,160,2|8,0:2|0:0,0:0:0:0:
148,44,403490,1,2,2:0:0:0:
288,164,403648,2,0,P|348:172|404:144,1,120,0|0,0:0|2:0,0:0:0:0:
456,88,403964,2,0,L|448:8,1,80,8|0,0:0|0:0,0:0:0:0:
448,8,404201,1,8,0:0:0:0:
448,8,404280,54,0,L|468:204,1,160,2|8,0:2|0:0,0:0:0:0:
332,236,404754,1,2,2:0:0:0:
332,236,404912,2,0,P|292:248|244:236,1,80,0|0,0:0|2:0,0:0:0:0:
152,92,405227,2,0,L|164:200,1,80,8|0,0:0|0:0,0:0:0:0:
100,248,405543,53,2,0:2:0:0:
252,156,405701,1,2,0:2:0:0:
252,156,405780,1,2,0:2:0:0:
252,156,405859,1,8,0:0:0:0:
172,312,406017,1,2,0:2:0:0:
172,312,406096,1,2,0:2:0:0:
172,312,406175,2,0,P|248:296|328:356,1,160,8|8,0:0|0:0,0:0:0:0:
448,272,406648,1,2,0:2:0:0:
448,272,406727,1,2,0:2:0:0:
448,272,406806,54,0,P|404:216|416:120,1,160,2|8,0:2|0:0,0:0:0:0:
409,131,407280,1,2,2:0:0:0:
320,240,407438,2,0,L|328:340,1,80,0|0,0:0|2:0,0:0:0:0:
216,224,407754,2,0,L|224:324,1,80,8|0,0:0|0:0,0:0:0:0:
112,208,408069,53,0,0:0:0:0:
76,108,408385,1,2,0:0:0:0:
72,76,408701,1,2,0:0:0:0:
80,44,409017,2,0,P|96:24|124:16,1,40,2|0,0:0|0:0,0:0:0:0:
480,92,417929,70,0,L|368:88,1,100,0|0,2:0|2:0,0:0:0:0:
352,100,418561,54,0,B|344:176|344:176|376:212,1,120,4|0,3:0|3:0,0:0:0:0:
372,208,418877,1,0,3:0:0:0:
480,92,419035,2,0,L|416:88,1,40,0|0,3:0|3:0,0:0:0:0:
272,56,419193,1,0,0:0:0:0:
280,268,419508,2,0,L|288:360,1,80,0|0,2:0|3:0,0:0:0:0:
286,347,419745,1,0,3:0:0:0:
286,347,419824,53,0,3:0:0:0:
112,316,419982,2,0,B|96:280|96:280|108:220,1,80,0|0,3:0|3:0,0:0:0:0:
197,96,420298,2,0,L|261:100,1,40,0|0,3:0|3:0,0:0:0:0:
352,100,420456,1,0,0:0:0:0:
499,327,420772,2,0,L|420:324,1,80,0|0,2:0|3:0,0:0:0:0:
352,284,421008,1,0,3:0:0:0:
352,284,421087,54,0,L|220:284,1,120,0|0,3:0|3:0,0:0:0:0:
232,284,421403,1,0,3:0:0:0:
112,140,421561,1,0,3:0:0:0:
112,140,421640,1,0,3:0:0:0:
112,140,421719,2,0,L|208:128,1,80,0|0,0:0|2:0,0:0:0:0:
384,200,422035,2,0,L|472:208,1,80,0|0,2:0|3:0,0:0:0:0:
463,207,422272,1,0,3:0:0:0:
463,207,422350,53,0,0:0:0:0:
352,284,422508,1,0,0:0:0:0:
344,120,422666,1,0,3:0:0:0:
463,207,422824,1,0,3:0:0:0:
463,207,422903,1,0,3:0:0:0:
463,207,422982,54,0,L|404:204,1,40,0|0,0:0|2:0,0:0:0:0:
296,208,423140,2,0,L|236:211,1,40,0|0,0:0|2:0,0:0:0:0:
176,304,423298,2,0,L|192:368,1,40,0|0,0:0|2:0,0:0:0:0:
176,136,423456,2,0,L|180:70,1,40,0|0,0:0|2:0,0:0:0:0:
96,224,423614,53,4,0:0:0:0:
96,224,425824,1,0,3:0:0:0:
100,236,425903,1,0,3:0:0:0:
104,248,425982,1,0,3:0:0:0:
108,260,426061,1,0,3:0:0:0:
112,272,426140,54,2,L|260:280,1,120,4|0,0:0|0:0,0:0:0:0:
231,278,426456,2,0,P|252:320|236:376,1,80,0|0,0:0|3:0,0:0:0:0:
384,268,426772,1,0,3:0:0:0:
392,244,426850,1,0,3:0:0:0:
392,220,426929,1,0,3:0:0:0:
384,196,427008,1,0,3:0:0:0:
368,176,427087,2,0,L|296:168,1,40,0|0,3:0|3:0,0:0:0:0:
184,160,427245,54,2,P|164:128|184:64,1,89.9999972534181,0|0,0:0|3:0,0:0:0:0:
171,78,427482,1,0,3:0:0:0:
171,78,427561,1,0,0:0:0:0:
344,88,427719,2,2,L|391:93,1,44.999998626709,0|0,0:0|3:0,0:0:0:0:
476,152,427877,1,0,3:0:0:0:
476,152,427956,1,0,3:0:0:0:
476,152,428035,2,0,L|464:232,1,44.999998626709
384,268,428193,1,0,0:0:0:0:
344,288,428272,1,0,0:0:0:0:
300,292,428350,1,0,3:0:0:0:
256,284,428429,1,0,3:0:0:0:
216,264,428508,54,2,B|192:248|180:204|180:204|152:336,1,200,6|2,0:0|0:0,0:0:0:0:
153,329,428982,1,2,0:0:0:0:
153,329,429614,2,8,L|140:244,1,50
204,96,429772,2,8,B|199:145,1,50
340,212,429929,54,2,L|504:200,1,150,6|2,0:0|0:0,0:0:0:0:
489,201,430245,1,12,0:0:0:0:
328,292,430403,2,2,P|280:272|256:216,1,100,2|4,0:0|0:0,0:0:0:0:
336,68,430719,1,10,0:0:0:0:
336,68,430798,1,0,0:0:0:0:
336,68,430877,1,4,0:0:0:0:
412,168,431035,1,10,0:0:0:0:
236,196,431193,54,2,L|120:192,1,100,6|0,0:0|0:0,0:0:0:0:
136,192,431429,1,0,0:0:0:0:
136,192,431508,1,12,0:0:0:0:
32,280,431666,2,2,P|28:332|56:380,1,100,2|4,0:0|0:0,0:0:0:0:
256,296,431982,1,8,0:0:0:0:
284,300,432061,1,0,0:0:0:0:
312,304,432140,1,6,0:0:0:0:
340,308,432219,1,0,0:0:0:0:
368,312,432298,1,10,0:0:0:0:
484,112,432456,54,2,B|496:12|496:12|456:44,1,150,2|2,0:0|0:0,0:0:0:0:
384,80,432772,2,2,L|392:200,1,100,12|2,0:0|0:0,0:0:0:0:
188,348,433087,2,2,P|172:296|192:240,1,100,4|10,0:0|0:0,0:0:0:0:
183,253,433324,1,8,0:0:0:0:
183,253,433403,1,4,0:0:0:0:
352,208,433561,1,10,0:0:0:0:
156,120,433719,53,6,0:0:0:0:
352,208,433877,2,2,L|472:208,1,100,0|14,0:0|0:0,0:0:0:0:
318,61,434193,2,2,B|260:44|220:72|220:72|192:28|136:36,1,200,2|8,0:0|0:0,0:0:0:0:
136,35,434587,1,8,0:0:0:0:
136,35,434666,1,6,0:0:0:0:
183,253,434824,2,2,L|200:332,1,50,8|8,0:0|0:0,0:0:0:0:
272,340,434982,54,2,L|432:336,1,150,6|2,0:0|0:0,0:0:0:0:
421,336,435298,1,12,0:0:0:0:
204,168,435456,2,2,P|148:172|100:232,1,100,2|6,0:0|0:0,0:0:0:0:
344,224,435772,1,8,0:0:0:0:
372,220,435850,1,0,0:0:0:0:
400,216,435929,1,4,0:0:0:0:
320,300,436087,54,0,P|268:256|272:196,1,100,10|4,0:0|0:0,0:0:0:0:
396,48,436403,1,0,0:0:0:0:
424,44,436481,1,0,0:0:0:0:
452,40,436561,2,2,L|440:156,1,100,8|2,0:0|0:0,0:0:0:0:
441,139,436798,1,0,0:0:0:0:
441,139,436877,1,8,0:0:0:0:
272,184,437035,1,0,0:0:0:0:
244,176,437114,1,0,0:0:0:0:
216,168,437192,1,10,0:0:0:0:
188,160,437271,1,8,0:0:0:0:
160,152,437350,1,10,0:0:0:0:
132,144,437429,1,8,0:0:0:0:
104,136,437508,2,2,L|16:116,1,50,6|2,0:0|2:0,0:0:0:0:
136,276,437666,54,2,L|87:264,1,50,2|2,2:0|2:0,0:0:0:0:
164,284,437824,1,10,0:0:0:0:
192,292,437903,1,8,0:0:0:0:
220,300,437982,1,8,0:0:0:0:
248,308,438061,1,8,0:0:0:0:
276,316,438140,2,2,B|304:320|304:320|348:308,1,50,2|2,0:0|2:0,0:0:0:0:
424,272,438298,53,2,2:0:0:0:
424,272,438377,1,2,2:0:0:0:
424,272,438456,2,0,L|432:188,1,50,10|8,0:0|0:0,0:0:0:0:
352,124,438614,2,8,L|344:40,1,50
244,32,438772,54,2,L|124:28,1,100,6|0,0:0|0:0,0:0:0:0:
144,28,439008,1,0,0:0:0:0:
144,28,439087,53,8,1:0:0:0:
48,176,439245,1,0,0:0:0:0:
48,176,439324,1,0,0:0:0:0:
48,176,439403,54,0,L|60:256,1,50,8|0,0:0|0:0,0:0:0:0:
120,340,439561,2,0,B|148:340|148:340|188:324,1,50
240,224,439719,2,0,L|228:152,1,50,8|0,0:0|0:0,0:0:0:0:
352,124,439877,2,0,L|360:56,1,50,0|8,0:0|0:0,0:0:0:0:
488,160,440035,53,4,3:0:0:0:
488,160,440114,1,12,3:0:0:0:
488,160,440193,1,4,3:0:0:0:
488,160,440350,54,2,B|424:156|424:156|384:224|304:192,1,200,6|6,0:0|0:0,0:0:0:0:
350,74,440824,2,2,B|356:104|356:104|352:124,1,50,2|0,0:0|0:0,0:0:0:0:
308,232,440982,2,8,L|216:228,1,50,12|8,0:0|0:0,0:0:0:0:
180,144,441140,2,8,L|120:156,1,50,10|8,0:0|0:0,0:0:0:0:
200,24,441298,54,2,B|300:16|300:16|276:32|272:68,1,150,6|2,0:0|0:0,0:0:0:0:
292,132,441614,2,2,B|316:148|316:148|352:164|396:140,1,100,12|2,0:0|0:0,0:0:0:0:
160,248,441929,2,0,L|44:236,1,100,4|8,0:0|0:0,0:0:0:0:
60,237,442166,1,0,0:0:0:0:
60,237,442245,1,6,0:0:0:0:
264,356,442403,2,2,L|182:347,1,50,10|0,0:0|0:0,0:0:0:0:
128,348,442561,54,2,B|112:304|112:304|132:220,1,100,6|0,0:0|0:0,0:0:0:0:
304,220,442877,1,14,0:0:0:0:
356,332,443035,1,10,0:0:0:0:
384,336,443114,1,8,0:0:0:0:
412,340,443193,1,4,0:0:0:0:
440,344,443272,1,0,0:0:0:0:
468,348,443350,54,8,L|452:272,1,50
400,220,443508,2,8,L|384:144,1,50
332,92,443666,2,0,L|208:80,1,100,4|0,0:0|2:0,0:0:0:0:
21,76,443982,54,8,L|50:148,1,50
110,190,444140,2,8,L|139:262,1,50
199,304,444298,2,0,L|323:294,1,100,4|0,0:0|2:0,0:0:0:0:
232,220,444614,2,0,L|353:189,1,100,4|0,0:0|2:0,0:0:0:0:
249,131,444929,54,0,L|362:79,1,100,4|0,0:0|2:0,0:0:0:0:
340,89,445324,1,0,0:0:0:0:
340,89,445403,1,0,0:0:0:0:
120,36,445561,2,0,L|48:28,1,50
200,60,445719,1,0,1:0:0:0:
392,208,446193,2,0,L|404:144,1,50
416,80,446351,53,0,0:0:0:0:
460,256,446508,2,0,P|416:288|344:272,1,100,0|0,1:0|0:0,0:0:0:0:
252,168,446824,1,0,0:0:0:0:
252,168,446903,1,0,0:0:0:0:
252,168,446982,2,0,L|172:160,1,66.6666666666667
76,220,447193,2,0,P|68:256|84:296,1,66.6666666666667
189,337,447403,2,0,L|264:332,1,66.6666666666667
144,248,447614,54,0,L|136:104,1,120,0|0,0:0|0:0,0:0:0:0:
137,128,447929,1,0,0:0:0:0:
252,168,448087,1,0,0:0:0:0:
252,168,448166,1,0,0:0:0:0:
252,168,448245,2,0,L|244:264,1,80,0|0,1:0|2:0,0:0:0:0:
245,247,448482,1,0,1:0:0:0:
245,247,448561,1,0,0:0:0:0:
356,288,448719,2,0,L|424:280,1,40
480,264,448877,1,0,0:0:0:0:
444,104,449035,53,0,0:0:0:0:
324,208,449193,1,0,0:0:0:0:
408,88,449350,1,0,0:0:0:0:
400,196,449508,1,0,0:0:0:0:
372,72,449666,1,0,0:0:0:0:
476,184,449824,2,0,L|484:120,1,40
336,56,449982,2,0,L|268:56,1,40
144,100,450140,54,0,L|150:199,1,100
158,211,450377,1,0,0:0:0:0:
166,223,450456,1,0,0:0:0:0:
174,235,450535,1,0,0:0:0:0:
208,256,450614,53,0,1:0:0:0:
216,268,450693,1,0,0:0:0:0:
224,280,450772,1,0,0:0:0:0:
232,292,450850,1,0,0:0:0:0:
268,308,450929,53,0,1:0:0:0:
276,320,451008,1,0,0:0:0:0:
282,333,451087,1,0,0:0:0:0:
290,345,451166,1,0,0:0:0:0:
324,364,451245,53,4,1:0:0:0:
268,308,451561,1,0,1:0:0:0:
208,256,451877,1,0,1:0:0:0:
150,199,452035,54,0,L|144:100,1,100,0|0,1:0|1:0,0:0:0:0:
280,152,452350,2,0,L|224:144,1,50
64,156,452508,2,0,L|56:76,1,50
144,100,452666,1,4,0:0:0:0:
150,199,452824,53,0,0:0:0:0:
208,256,453140,1,4,0:0:0:0:
268,308,453456,1,4,0:0:0:0:
324,364,453772,1,4,0:0:0:0:
324,364,455193,54,0,B|290:330|246:342|246:342|259:295|243:259|243:259|285:259|318:232|318:232|328:274|368:293|368:293|337:310|327:347,1,400,0|4,0:0|0:0,0:0:0:0:
466,323,464733,38,0,B|416:336|416:336|376:308|320:336|320:336|280:304|280:304|232:328|168:300|168:300|144:344|88:344,1,400
104,41,466533,54,0,B|144:40|168:84|168:84|232:56|280:80|280:80|320:48|320:48|376:76|416:48|416:48|466:61,2,400,6|6|6,0:0|0:0|0:0,0:0:0:0:
24,304,467433,1,12,0:0:0:0:
24,304,467583,1,2,2:0:0:0:
24,304,467658,1,2,2:0:0:0:
24,304,467733,54,0,L|180:296,1,150,0|0,0:0|2:0,0:0:0:0:
240,244,468033,2,0,B|256:212|256:212|244:144,1,100,8|0,0:0|2:0,0:0:0:0:
32,40,468333,2,0,B|20:152|20:152|52:200,1,150,0|0,0:0|2:0,0:0:0:0:
112,220,468633,2,0,L|232:212,1,100,8|0,0:0|0:0,0:0:0:0:
211,213,468858,1,8,0:0:0:0:
211,213,468933,1,4,0:0:0:0:
312,112,469083,54,0,L|320:41,1,69.9999978637696,2|12,2:0|0:0,0:0:0:0:
472,200,469383,2,0,L|481:126,1,69.9999978637696,2|4,2:0|0:0,0:0:0:0:
352,316,469683,2,0,L|360:245,1,69.9999978637696,2|12,2:0|0:0,0:0:0:0:
296,196,469908,1,8,0:0:0:0:
296,196,469983,1,2,0:2:0:0:
296,196,470058,1,2,0:2:0:0:
296,196,470133,54,0,L|136:188,1,150,4|0,0:0|2:0,0:0:0:0:
80,148,470433,2,0,L|199:153,1,100,8|0,0:0|2:0,0:0:0:0:
352,316,470733,2,0,L|252:311,1,100,0|0,0:0|2:0,0:0:0:0:
136,68,471033,2,0,L|255:73,1,100,8|0,0:0|0:0,0:0:0:0:
235,72,471258,1,8,0:0:0:0:
235,72,471333,1,4,0:0:0:0:
296,196,471483,54,0,P|300:226|282:266,1,69.9999978637696,2|12,2:0|0:0,0:0:0:0:
360,112,471783,2,0,P|373:86|407:67,1,69.9999978637696,2|4,2:0|0:0,0:0:0:0:
184,160,472083,2,0,P|147:176|92:171,1,69.9999978637696,2|12,2:0|0:0,3:0:0:0:
304,292,472383,1,2,2:0:0:0:
304,292,472458,1,2,2:0:0:0:
304,292,472533,54,0,P|328:304|356:344,1,50
456,364,472683,2,0,P|440:344|436:300,1,50
476,240,472833,1,8,0:0:0:0:
476,240,473133,54,0,L|468:168,1,50
360,112,473283,1,0,0:0:0:0:
356,112,473358,1,0,0:0:0:0:
352,112,473433,2,0,L|272:100,1,50,8|0,0:0|2:0,0:0:0:0:
272,200,473583,53,8,0:0:0:0:
268,200,473658,1,8,0:0:0:0:
264,200,473733,2,0,L|184:188,1,50,2|0,0:0|2:0,0:0:0:0:
184,288,473883,53,8,0:0:0:0:
180,288,473958,1,8,0:0:0:0:
176,288,474033,2,0,L|96:276,1,50,2|0,0:0|2:0,0:0:0:0:
256,344,474183,54,0,L|336:332,2,50,8|0|2,0:0|0:0|0:0,0:0:0:0:
184,288,474408,1,8,0:0:0:0:
142,261,474483,1,8,0:0:0:0:
119,217,474558,1,0,0:0:0:0:
119,168,474633,1,2,0:0:0:0:
143,124,474708,1,2,0:0:0:0:
184,98,474783,1,2,0:0:0:0:
234,94,474858,1,2,0:0:0:0:
279,115,474933,54,0,L|448:112,1,150,4|0,0:0|2:0,0:0:0:0:
472,180,475233,2,0,B|496:252|496:252|464:336,1,150,8|0,0:0|2:0,0:0:0:0:
392,348,475533,2,0,L|280:344,1,100,0|0,0:0|2:0,0:0:0:0:
136,192,475833,2,0,L|235:195,1,100,8|0,0:0|0:0,0:0:0:0:
235,195,476058,1,8,0:0:0:0:
235,195,476133,53,4,0:0:0:0:
376,88,476283,2,0,L|368:4,1,69.9999978637696,2|12,2:0|0:0,0:0:0:0:
304,256,476583,2,0,L|310:325,1,69.9999978637696,2|4,2:0|0:0,0:0:0:0:
184,112,476883,2,0,L|176:28,1,69.9999978637696,2|12,2:0|0:0,0:0:0:0:
80,260,477183,1,2,2:0:0:0:
80,260,477258,1,2,2:0:0:0:
80,260,477333,54,0,B|108:304|108:304|208:312,1,150,0|0,0:0|2:0,0:0:0:0:
252,244,477633,2,0,L|126:232,1,100,8|0,0:0|2:0,0:0:0:0:
320,52,477933,2,0,B|417:59|417:59|445:103,1,150,0|0,0:0|2:0,0:0:0:0:
373,129,478233,2,0,L|273:119,1,100,8|0,0:0|0:0,0:0:0:0:
273,119,478458,1,8,0:0:0:0:
273,119,478533,53,4,0:0:0:0:
252,244,478683,2,0,B|248:280|248:280|272:320,1,69.9999978637696,2|12,2:0|0:0,0:0:0:0:
396,208,478983,2,0,B|429:193|429:193|451:152,1,69.9999978637696,2|4,2:0|0:0,0:0:0:0:
199,62,479283,2,0,B|170:41|170:41|124:42,1,69.9999978637696,2|12,2:0|0:0,0:0:0:0:
144,128,479508,1,8,0:0:0:0:
144,128,479583,1,2,0:2:0:0:
144,128,479658,1,2,0:2:0:0:
144,128,479733,54,0,L|152:288,1,150,4|0,0:0|2:0,0:0:0:0:
212,344,480033,2,0,B|292:360|292:360|364:328,1,150,8|0,0:0|2:0,0:0:0:0:
392,256,480333,53,0,0:0:0:0:
396,240,480408,1,0,0:0:0:0:
400,224,480483,1,0,0:0:0:0:
404,208,480558,1,0,0:0:0:0:
396,168,480633,53,8,0:0:0:0:
400,152,480708,1,0,0:0:0:0:
404,136,480783,1,0,0:0:0:0:
408,120,480858,1,0,0:0:0:0:
428,84,480933,54,0,L|444:16,2,50,6|0|0,0:0|0:0|0:0,0:0:0:0:
312,156,481158,1,0,0:0:0:0:
312,156,481233,54,0,L|296:224,2,50,4|0|0,0:0|0:0|0:0,0:0:0:0:
180,56,481458,1,0,0:0:0:0:
180,56,481533,54,0,L|164:-12,2,50,4|0|0,0:0|0:0|0:0,0:0:0:0:
176,180,481758,1,0,0:0:0:0:
176,180,481833,54,0,B|172:208|172:208|140:248,1,50,4|0,0:0|0:0,0:0:0:0:
84,328,481983,2,0,B|57:338|57:338|7:330,1,50
72,240,482133,54,0,L|64:152,1,75
48,124,482433,54,0,L|44:252,1,100,4|0,0:0|2:0,0:0:0:0:
176,343,482733,2,0,B|200:320|200:320|84:328,1,150,0|0,0:0|2:0,0:0:0:0:
8,296,483033,2,0,B|-12:248|-12:248|4:180,1,100,8|0,0:0|0:0,0:0:0:0:
0,201,483258,1,8,0:0:0:0:
0,201,483333,53,4,0:0:0:0:
144,140,483483,2,0,L|236:136,1,69.9999978637696,2|12,2:0|0:0,0:0:0:0:
268,328,483783,2,0,L|360:332,1,69.9999978637696,2|4,2:0|0:0,0:0:0:0:
316,104,484083,2,0,L|408:100,1,69.9999978637696,2|12,2:0|0:0,0:0:0:0:
464,284,484383,1,2,2:0:0:0:
460,304,484458,1,2,2:0:0:0:
456,324,484533,54,0,B|408:344|408:344|272:340,1,150,0|0,0:0|2:0,0:0:0:0:
268,328,484833,2,0,L|168:325,1,100,8|0,0:0|2:0,0:0:0:0:
22,340,485133,2,0,B|72:344|72:344|116:324|116:324|168:325,1,150,0|0,0:0|2:0,0:0:0:0:
268,328,485433,2,0,L|276:212,1,100,8|0,0:0|0:0,0:0:0:0:
274,228,485658,1,8,0:0:0:0:
274,228,485733,53,4,0:0:0:0:
104,192,485883,2,0,B|52:188|52:188|20:216,1,69.9999978637696,2|12,2:0|0:0,0:0:0:0:
264,84,486183,2,0,B|212:88|212:88|180:60,1,69.9999978637696,2|4,2:0|0:0,0:0:0:0:
268,328,486483,2,0,B|281:316|281:316|333:320,1,69.9999978637696,2|12,2:0|0:0,0:0:0:0:
424,356,486708,1,8,0:0:0:0:
424,356,486783,1,2,0:2:0:0:
424,356,486858,1,2,0:2:0:0:
424,356,486933,54,0,B|500:368|500:368|456:292,1,150,4|0,0:0|2:0,0:0:0:0:
416,244,487233,2,0,B|400:212|400:212|408:148,1,100,8|0,0:0|2:0,0:0:0:0:
488,44,487533,2,0,B|388:60|388:60|344:24,1,150,0|0,0:0|2:0,0:0:0:0:
268,32,487833,2,0,L|144:40,1,100,8|0,0:0|0:0,0:0:0:0:
168,38,488058,1,8,0:0:0:0:
168,38,488133,53,4,0:0:0:0:
88,132,488283,2,0,P|100:164|144:188,1,69.9999978637696,2|12,2:0|0:0,0:0:0:0:
160,324,488583,2,0,P|181:297|180:247,1,69.9999978637696,2|4,2:0|0:0,0:0:0:0:
290,165,488883,2,0,P|256:159|213:185,1,69.9999978637696,2|12,2:0|0:0,0:0:0:0:
200,295,489183,1,2,2:0:0:0:
200,295,489258,1,2,2:0:0:0:
200,295,489333,54,0,L|160:324,1,50
72,361,489483,2,0,L|75:311,1,50
36,240,489633,1,8,0:0:0:0:
36,240,489933,54,0,L|44:168,1,50
152,112,490083,1,0,0:0:0:0:
156,112,490158,1,0,0:0:0:0:
160,112,490233,2,0,L|240:100,1,50,8|0,0:0|2:0,0:0:0:0:
240,200,490383,53,8,0:0:0:0:
244,200,490458,1,8,0:0:0:0:
248,200,490533,2,0,L|328:188,1,50,2|0,0:0|2:0,0:0:0:0:
328,288,490683,53,8,0:0:0:0:
332,288,490758,1,8,0:0:0:0:
336,288,490833,2,0,L|416:276,1,50,2|0,0:0|2:0,0:0:0:0:
256,344,490983,54,0,L|176:332,2,50,8|0|2,0:0|0:0|0:0,0:0:0:0:
328,288,491208,1,0,0:0:0:0:
370,261,491283,1,0,0:0:0:0:
393,217,491358,1,0,0:0:0:0:
393,168,491433,1,2,0:0:0:0:
369,124,491508,1,2,0:0:0:0:
328,98,491583,1,2,0:0:0:0:
278,94,491658,1,2,0:0:0:0:
233,115,491733,54,0,L|64:112,1,150,4|0,0:0|2:0,0:0:0:0:
16,160,492033,2,0,L|135:162,1,100,8|0,0:0|2:0,0:0:0:0:
296,192,492333,2,0,B|316:240|316:240|300:296,1,100,0|0,0:0|2:0,0:0:0:0:
64,328,492633,2,0,L|183:330,1,100,8|0,0:0|0:0,0:0:0:0:
163,329,492858,1,8,0:0:0:0:
163,329,492933,53,4,0:0:0:0:
302,286,493083,2,0,L|376:280,1,69.9999978637696,2|12,2:0|0:0,0:0:0:0:
132,180,493383,2,0,L|62:174,1,69.9999978637696,2|4,2:0|0:0,0:0:0:0:
352,112,493683,2,0,L|372:20,1,69.9999978637696,2|12,2:0|0:0,0:0:0:0:
232,80,493983,1,2,2:0:0:0:
232,80,494058,1,2,2:0:0:0:
232,80,494133,54,0,L|248:244,1,150,0|0,0:0|2:0,0:0:0:0:
302,286,494433,2,0,B|352:296|352:296|400:272,1,100,8|0,0:0|2:0,0:0:0:0:
120,336,494733,2,0,B|48:332|48:332|8:352,1,100,0|0,0:0|2:0,0:0:0:0:
224,179,495033,2,0,L|232:80,1,100,8|0,0:0|0:0,0:0:0:0:
232,80,495258,1,8,0:0:0:0:
232,80,495333,53,4,0:0:0:0:
100,160,495483,2,0,L|108:244,1,69.9999978637696,2|12,2:0|0:0,0:0:0:0:
230,249,495783,2,0,L|224:180,1,69.9999978637696,2|12,2:0|0:0,0:0:0:0:
347,199,496083,2,0,L|354:269,1,69.9999978637696,2|12,2:0|0:0,0:0:0:0:
320,348,496308,1,8,0:0:0:0:
320,348,496383,1,2,0:2:0:0:
320,348,496458,1,2,0:2:0:0:
320,348,496533,54,0,L|144:344,1,150,4|0,0:0|2:0,0:0:0:0:
112,284,496833,2,0,B|147:266|147:266|207:266,1,100,8|0,0:0|2:0,0:0:0:0:
396,280,497133,2,0,B|428:224|428:224|420:128,1,150,0|0,0:0|2:0,0:0:0:0:
337,99,497433,2,0,L|347:199,1,100,8|0,0:0|0:0,0:0:0:0:
347,199,497658,1,8,0:0:0:0:
347,199,497733,53,6,0:0:0:0:
460,96,497883,2,0,L|468:8,1,69.9999978637696,2|12,2:0|0:0,0:0:0:0:
248,148,498183,2,0,L|256:60,1,69.9999978637696,2|4,2:0|0:0,0:0:0:0:
36,200,498483,2,0,L|44:112,1,69.9999978637696,2|12,2:0|0:0,0:0:0:0:
152,236,498783,1,2,2:0:0:0:
152,236,498858,1,2,2:0:0:0:
152,236,498933,54,0,L|144:296,3,50,4|0|0|0,0:0|0:0|0:0|0:0,0:0:0:0:
208,340,499233,53,0,0:0:0:0:
236,336,499308,1,0,0:0:0:0:
264,332,499383,1,0,0:0:0:0:
292,328,499458,1,0,0:0:0:0:
324,340,499533,53,0,0:0:0:0:
360,336,499608,1,0,0:0:0:0:
396,332,499683,1,0,0:0:0:0:
432,328,499758,1,0,0:0:0:0:
464,304,499833,53,0,0:0:0:0:
476,264,499908,1,0,0:0:0:0:
472,224,499983,1,0,0:0:0:0:
448,192,500058,1,0,0:0:0:0:
408,176,500133,53,0,0:0:0:0:
364,172,500208,1,0,0:0:0:0:
320,168,500283,1,0,0:0:0:0:
276,164,500358,1,0,0:0:0:0:
228,160,500433,53,0,0:0:0:0:
180,156,500508,1,0,0:0:0:0:
132,152,500583,1,0,0:0:0:0:
84,148,500658,1,0,0:0:0:0:
36,144,500733,54,0,L|80:84,1,50
96,272,500883,2,0,L|140:332,1,50
240,248,501033,54,0,L|360:256,1,100,0|4,0:0|0:0,0:0:0:0:
84,68,508575,69,0,0:0:0:0:
116,184,509025,1,0,0:0:0:0:
148,300,509475,1,0,0:0:0:0:
272,344,509775,54,0,L|308:348,3,25
264,260,510075,54,0,L|302:250,3,37.5000014305115
227,183,510375,53,0,0:0:0:0:
232,168,510450,1,0,0:0:0:0:
236,152,510525,1,0,0:0:0:0:
240,136,510600,1,0,0:0:0:0:
244,96,510675,53,0,0:0:0:0:
249,81,510750,1,0,0:0:0:0:
253,65,510825,1,0,0:0:0:0:
257,49,510900,1,0,0:0:0:0:
288,20,510975,54,0,L|432:16,1,139.999995727539,6|8,0:0|0:0,0:0:0:0:
427,16,511425,1,2,2:0:0:0:
492,104,511575,1,2,0:0:0:0:
492,104,511725,1,2,0:0:0:0:
472,204,511875,2,0,L|384:200,1,69.9999978637696,8|0,0:0|0:0,0:0:0:0:
324,204,512100,1,8,0:0:0:0:
324,204,512175,54,0,P|296:264|344:308,1,139.999995727539,2|8,0:0|0:0,0:0:0:0:
460,56,512775,2,0,L|456:152,1,69.9999978637696,0|2,0:0|0:0,0:0:0:0:
296,16,513075,2,0,L|300:112,1,69.9999978637696,8|2,0:0|0:0,0:0:0:0:
180,188,513375,53,2,0:0:0:0:
112,76,513525,1,0,0:0:0:0:
104,72,513600,1,0,0:0:0:0:
96,68,513675,2,0,L|92:152,1,69.9999978637696,8|0,0:0|0:0,0:0:0:0:
92,212,513900,1,0,0:0:0:0:
96,224,513975,1,2,0:0:0:0:
300,192,514125,1,8,0:0:0:0:
92,137,514275,1,8,0:0:0:0:
196,308,514425,1,0,0:0:0:0:
192,320,514500,1,8,0:0:0:0:
188,332,514575,53,6,0:0:0:0:
396,368,514875,1,8,0:0:0:0:
188,332,515175,54,0,P|252:304|332:332,1,150,4|0,0:0|2:0,0:0:0:0:
396,368,515475,2,0,P|436:312|392:224,1,150,12|0,0:0|2:0,0:0:0:0:
336,200,515775,53,2,0:0:0:0:
364,296,515925,1,2,0:0:0:0:
436,220,516075,2,0,L|440:76,1,139.999995727539,8|2,0:0|0:0,0:0:0:0:
304,24,516525,1,2,0:0:0:0:
440,56,516675,1,8,0:0:0:0:
280,104,516825,1,0,0:0:0:0:
268,100,516900,1,8,0:0:0:0:
256,96,516975,53,2,0:0:0:0:
88,104,517275,1,8,0:0:0:0:
256,96,517425,2,0,L|252:184,1,69.9999978637696,2|0,0:0|2:0,0:0:0:0:
206,313,517725,2,0,L|200:244,1,69.9999978637696,2|8,0:0|0:0,0:0:0:0:
348,188,518025,1,2,0:0:0:0:
216,188,518175,54,0,L|60:184,1,139.999995727539,6|8,0:0|0:0,0:0:0:0:
101,325,518625,2,0,L|206:313,1,104.999996795654,2|8,0:0|0:0,0:0:0:0:
206,313,518925,1,2,0:0:0:0:
340,348,519075,1,0,0:0:0:0:
284,256,519225,54,0,L|280:104,1,139.999995727539,6|2,0:0|0:0,0:0:0:0:
280,116,519600,1,2,0:0:0:0:
280,116,519675,1,8,0:0:0:0:
444,176,519825,2,0,L|436:236,1,34.9999989318848,2|2,0:0|0:0,0:0:0:0:
424,288,519975,2,0,L|344:292,1,69.9999978637696,8|2,0:0|0:0,0:0:0:0:
284,256,520200,2,0,L|228:260,1,34.9999989318848,2|8,0:0|0:0,0:0:0:0:
144,356,520425,2,0,L|80:352,1,34.9999989318848,2|2,0:0|0:0,0:0:0:0:
36,352,520575,54,0,L|32:212,1,139.999995727539,4|8,0:0|0:0,0:0:0:0:
32,212,521025,1,2,2:0:0:0:
80,88,521175,1,2,0:0:0:0:
80,88,521325,1,2,0:0:0:0:
128,176,521475,2,0,L|132:264,1,69.9999978637696,8|0,0:0|0:0,0:0:0:0:
196,292,521700,1,8,0:0:0:0:
196,292,521775,54,0,L|344:288,1,139.999995727539,2|8,0:0|0:0,0:0:0:0:
472,104,522375,1,0,0:0:0:0:
452,188,522525,1,2,0:0:0:0:
304,152,522675,1,8,0:0:0:0:
296,68,522825,1,2,0:0:0:0:
144,56,522975,54,0,L|164:140,1,69.9999978637696,2|0,0:0|0:0,0:0:0:0:
184,200,523200,1,0,0:0:0:0:
184,200,523275,2,0,L|96:196,1,69.9999978637696,8|0,0:0|0:0,0:0:0:0:
40,192,523500,1,0,0:0:0:0:
40,192,523575,2,0,L|24:280,1,69.9999978637696,8|0,0:0|2:0,0:0:0:0:
104,356,523875,1,8,0:0:0:0:
27,260,524025,54,0,L|188:252,1,139.999995727539,4|0,0:0|2:0,0:0:0:0:
264,328,524475,2,0,L|416:336,1,150,8|0,0:0|2:0,0:0:0:0:
472,252,524775,2,0,P|492:184|456:108,1,150,8|0,0:0|2:0,0:0:0:0:
368,80,525075,2,0,L|244:84,1,100,8|2,0:0|0:0,0:0:0:0:
188,88,525300,1,2,0:0:0:0:
188,88,525375,53,4,0:0:0:0:
312,144,525525,1,2,0:0:0:0:
248,32,525675,2,0,L|260:196,1,139.999995727539,8|2,0:0|0:0,0:0:0:0:
396,220,526125,1,2,0:0:0:0:
240,252,526275,1,8,0:0:0:0:
312,144,526425,1,0,0:0:0:0:
316,132,526500,1,8,0:0:0:0:
320,120,526575,53,2,0:0:0:0:
256,352,526875,1,8,0:0:0:0:
240,252,527025,2,0,L|232:168,1,69.9999978637696,2|0,0:0|2:0,0:0:0:0:
323,50,527325,2,0,L|320:120,1,69.9999978637696,2|8,0:0|0:0,0:0:0:0:
152,160,527625,2,0,L|88:152,1,34.9999989318848,2|8,0:0|0:0,0:0:0:0:
60,200,527775,54,0,L|228:184,1,139.999995727539,2|0,0:0|2:0,0:0:0:0:
256,352,528225,2,0,L|424:336,1,139.999995727539,8|0,0:0|2:0,0:0:0:0:
416,124,528675,2,0,L|516:114,1,69.9999978637696,8|2,0:0|0:0,0:0:0:0:
485,117,528900,1,2,0:0:0:0:
485,117,528975,1,8,0:0:0:0:
296,56,529125,53,2,0:0:0:0:
296,56,529200,1,2,0:0:0:0:
296,56,529275,2,0,L|304:148,1,69.9999978637696,8|0,0:0|2:0,0:0:0:0:
188,136,529575,2,0,L|196:228,1,69.9999978637696,0|0,2:0|2:0,0:0:0:0:
368,216,529875,2,0,L|372:262,1,34.9999989318848,0|0,0:0|2:0,0:0:0:0:
384,332,530025,53,4,0:0:0:0:
163,126,540675,102,0,L|156:52,1,75,8|0,0:0|2:0,0:0:0:0:
184,28,540942,54,0,L|180:192,1,160,6|8,0:0|0:0,0:0:0:0:
180,187,541342,1,8,0:0:0:0:
404,216,541475,1,2,0:0:0:0:
268,112,541609,53,2,0:0:0:0:
400,240,541742,1,8,0:0:0:0:
180,187,541875,2,0,L|72:184,1,80,2|0,0:0|2:0,0:0:0:0:
292,108,542142,53,2,0:0:0:0:
396,264,542275,1,8,0:0:0:0:
200,200,542409,2,0,L|91:196,1,80,2|0,0:0|2:0,0:0:0:0:
316,104,542675,53,2,0:0:0:0:
392,288,542809,1,8,0:0:0:0:
219,212,542942,1,2,0:0:0:0:
200,200,543009,1,2,0:0:0:0:
180,187,543075,54,0,L|176:100,1,80,6|0,0:0|2:0,0:0:0:0:
264,24,543342,1,8,0:0:0:0:
92,76,543475,1,8,0:0:0:0:
288,28,543609,1,2,0:0:0:0:
176,100,543742,53,2,0:0:0:0:
324,200,543875,1,8,0:0:0:0:
172,76,544009,2,0,L|156:172,1,80,2|0,0:0|2:0,0:0:0:0:
312,32,544275,53,2,0:0:0:0:
304,184,544409,1,8,0:0:0:0:
168,52,544542,2,0,L|152:148,1,80,2|0,0:0|2:0,0:0:0:0:
336,36,544809,53,2,0:0:0:0:
284,168,544942,1,8,0:0:0:0:
436,96,545075,1,2,0:0:0:0:
436,96,545142,1,2,0:0:0:0:
436,96,545209,54,0,P|464:124|468:184,1,80,6|2,0:0|0:0,0:0:0:0:
352,280,545475,1,8,0:0:0:0:
240,244,545609,2,0,P|212:272|208:332,1,80,8|2,0:0|0:0,0:0:0:0:
164,132,545875,1,2,0:0:0:0:
52,168,546009,2,0,P|24:140|20:80,1,80,8|2,0:0|0:0,0:0:0:0:
60,32,546209,1,8,0:0:0:0:
60,32,546275,54,0,L|164:36,1,80,2|2,0:0|0:0,0:0:0:0:
256,152,546542,2,0,L|360:148,1,80,8|2,0:0|0:0,0:0:0:0:
499,31,546809,2,0,L|420:28,1,80,0|2,2:0|0:0,0:0:0:0:
432,152,547075,1,8,0:0:0:0:
332,40,547209,1,2,0:0:0:0:
344,168,547342,54,0,L|352:276,1,80,6|2,0:0|0:0,0:0:0:0:
232,312,547609,1,8,0:0:0:0:
132,280,547742,2,0,L|140:388,1,80,8|2,0:0|0:0,0:0:0:0:
136,148,548009,1,2,0:0:0:0:
36,180,548142,2,0,L|44:72,1,80,8|2,0:0|0:0,0:0:0:0:
88,40,548342,1,8,0:0:0:0:
88,40,548409,54,0,P|128:28|196:48,1,80,2|2,0:0|0:0,0:0:0:0:
168,228,548675,2,0,P|128:232|90:220,1,80,8|2,0:0|0:0,0:0:0:0:
224,80,548942,1,8,0:0:0:0:
280,192,549075,1,2,0:0:0:0:
372,124,549209,1,2,0:0:0:0:
396,128,549275,1,2,0:0:0:0:
420,132,549342,1,2,0:0:0:0:
444,136,549409,1,2,0:0:0:0:
468,140,549475,54,0,P|500:204|432:252,1,160,4|8,0:0|0:0,0:0:0:0:
280,192,549875,1,8,0:0:0:0:
416,256,550009,1,2,0:0:0:0:
264,328,550142,53,2,0:0:0:0:
392,256,550275,1,8,0:0:0:0:
256,196,550409,2,0,L|160:200,1,80,2|0,0:0|2:0,0:0:0:0:
276,348,550675,53,2,0:0:0:0:
368,256,550809,1,8,0:0:0:0:
232,200,550942,2,0,L|136:204,1,80,2|0,0:0|2:0,0:0:0:0:
288,368,551209,53,2,0:0:0:0:
344,256,551342,1,8,0:0:0:0:
184,308,551475,1,2,0:0:0:0:
160,304,551542,1,2,0:0:0:0:
136,300,551609,53,2,0:0:0:0:
32,344,551742,1,0,2:0:0:0:
96,224,551875,2,0,L|92:132,1,80,8|8,0:0|0:0,0:0:0:0:
184,24,552142,1,2,0:0:0:0:
260,116,552275,53,2,0:0:0:0:
104,124,552409,1,8,0:0:0:0:
272,136,552542,2,0,L|364:128,1,80,2|0,0:0|2:0,0:0:0:0:
184,48,552809,53,2,0:0:0:0:
112,148,552942,1,8,0:0:0:0:
284,156,553075,2,0,L|376:148,1,80,2|0,0:0|2:0,0:0:0:0:
184,72,553342,53,2,0:0:0:0:
120,172,553475,1,8,0:0:0:0:
284,156,553609,1,2,0:0:0:0:
272,136,553675,1,2,0:0:0:0:
260,116,553742,54,0,P|216:108|168:132,1,80,2|2,0:0|0:0,0:0:0:0:
344,280,554009,1,8,0:0:0:0:
416,344,554142,2,0,P|453:355|492:347,1,80,8|2,0:0|0:0,0:0:0:0:
472,140,554409,1,2,0:0:0:0:
400,76,554542,2,0,P|362:64|323:72,1,80,8|2,0:0|0:0,0:0:0:0:
260,116,554742,1,8,0:0:0:0:
260,116,554809,54,0,L|256:212,1,80,2|2,0:0|0:0,0:0:0:0:
416,344,555075,2,0,L|419:264,1,80,8|2,0:0|0:0,0:0:0:0:
248,220,555342,2,0,P|204:216|152:236,1,80,0|2,2:0|0:0,0:0:0:0:
108,360,555609,1,8,0:0:0:0:
92,200,555742,1,2,0:0:0:0:
188,328,555875,54,0,L|267:331,1,80,2|2,0:0|0:0,0:0:0:0:
456,208,556142,1,8,0:0:0:0:
364,212,556275,2,0,L|284:215,1,80,8|2,0:0|0:0,0:0:0:0:
116,52,556542,1,2,0:0:0:0:
208,56,556675,2,0,L|287:59,1,80,8|2,0:0|0:0,0:0:0:0:
352,104,556875,1,8,0:0:0:0:
352,104,556942,54,0,P|364:144|340:200,1,80,2|2,0:0|0:0,0:0:0:0:
216,224,557209,1,8,0:0:0:0:
364,212,557342,1,8,0:0:0:0:
192,220,557476,1,8,0:0:0:0:
168,216,557543,1,0,0:0:0:0:
144,212,557609,1,0,0:0:0:0:
120,208,557676,1,0,0:0:0:0:
96,204,557742,2,0,L|32:192,3,40,8|0|0|0,0:0|0:0|0:0|0:0,0:0:0:0:
120,296,558009,54,0,L|124:356,1,40,8|0,0:0|2:0,0:0:0:0:
44,320,558142,1,0,0:0:0:0:
264,324,558275,54,0,L|320:320,1,40,8|0,0:0|2:0,0:0:0:0:
196,368,558409,1,0,0:0:0:0:
420,288,558542,54,0,L|356:284,1,40,8|0,0:0|2:0,0:0:0:0:
392,364,558675,1,0,0:0:0:0:
408,164,558809,54,0,L|400:240,1,40,8|0,0:0|2:0,0:0:0:0:
484,192,558942,1,0,0:0:0:0:
304,72,559075,54,0,L|312:124,1,40,8|0,0:0|2:0,0:0:0:0:
384,88,559209,1,0,0:0:0:0:
216,200,559342,54,0,L|224:140,1,40,8|0,0:0|2:0,0:0:0:0:
296,188,559475,1,0,0:0:0:0:
136,72,559609,54,0,L|84:68,1,40,8|0,0:0|2:0,0:0:0:0:
208,32,559742,1,0,0:0:0:0:
104,156,559875,54,0,L|112:224,1,40,8|0,0:0|2:0,0:0:0:0:
116,288,560009,1,0,0:0:0:0:
116,288,560075,1,0,0:0:0:0:
116,288,560142,54,0,L|112:348,1,40,8|0,0:0|2:0,0:0:0:0:
36,300,560276,1,0,0:0:0:0:
276,336,560409,54,0,L|264:272,1,40,8|0,0:0|2:0,0:0:0:0:
196,328,560542,1,0,0:0:0:0:
344,248,560675,54,0,L|416:256,1,40,8|0,0:0|2:0,0:0:0:0:
360,328,560809,1,0,0:0:0:0:
296,140,560942,54,0,L|292:212,1,40,8|0,0:0|2:0,0:0:0:0:
372,164,561075,1,0,0:0:0:0:
152,116,561209,54,0,L|148:44,1,40,8|0,0:0|2:0,0:0:0:0:
228,92,561342,1,0,0:0:0:0:
92,180,561475,54,0,L|40:176,1,40,8|0,0:0|2:0,0:0:0:0:
148,240,561609,1,0,0:0:0:0:
84,336,561742,54,0,L|86:296,1,40,8|0,0:0|2:0,0:0:0:0:
172,320,561875,2,0,L|174:280,1,40,8|0,0:0|2:0,0:0:0:0:
260,304,562009,2,0,L|262:264,1,40,8|0,0:0|2:0,0:0:0:0:
348,292,562142,2,0,L|350:252,1,40,8|0,0:0|2:0,0:0:0:0:
436,276,562275,54,0,L|446:107,1,160,0|0,0:0|2:0,0:0:0:0:
340,48,562675,2,0,P|264:24|192:76,1,160
156,208,563075,2,0,P|112:224|60:208,1,80
108,144,563342,53,0,0:0:0:0:
92,84,567030,37,4,0:0:0:0:
10,111,567160,1,8,0:0:0:0:
10,198,567289,1,8,0:0:0:0:
92,228,567418,1,8,0:0:0:0:
144,155,567548,1,8,0:0:0:0:
10,111,567677,1,8,0:0:0:0:
92,228,567806,1,8,0:0:0:0:
92,84,567936,1,8,0:0:0:0:
92,82,568582,54,0,L|252:72,1,150
272,76,569099,54,2,P|328:148|280:232,1,179.999994506836,6|8,0:0|0:0,0:0:0:0:
176,156,569487,1,4,0:0:0:0:
176,156,569552,1,4,0:0:0:0:
176,156,569617,2,0,L|52:164,1,89.9999972534181,4|4,0:0|0:0,0:0:0:0:
276,240,569875,2,2,L|396:244,1,89.9999972534181,8|0,0:0|0:0,0:0:0:0:
460,152,570134,53,6,0:0:0:0:
408,312,570263,1,6,0:0:0:0:
448,237,570393,1,8,0:0:0:0:
460,372,570522,2,2,L|448:228,1,134.999995880127,2|0,0:0|2:0,0:0:0:0:
460,152,570780,2,0,L|468:80,2,44.999998626709,4|0|2,0:0|2:0|2:0,0:0:0:0:
324,320,571039,2,0,L|332:380,1,44.999998626709,4|0,0:0|2:0,0:0:0:0:
276,240,571168,54,2,L|88:236,2,179.999994506836,6|8|4,0:0|0:0|0:0,0:0:0:0:
448,237,571815,1,4,0:0:0:0:
448,237,571880,1,4,0:0:0:0:
448,237,571944,1,10,0:0:0:0:
328,160,572074,1,6,0:0:0:0:
192,272,572203,54,2,L|204:376,1,89.9999972534181,2|4,0:0|0:0,0:0:0:0:
48,164,572462,2,2,L|36:268,1,89.9999972534181,10|4,0:0|0:0,0:0:0:0:
96,304,572655,1,4,0:0:0:0:
96,304,572720,2,2,L|292:296,1,179.999994506836,0|10,0:0|0:0,0:0:0:0:
275,296,573108,1,8,0:0:0:0:
420,160,573237,54,2,P|376:80|280:80,1,179.999994506836,6|8,0:0|0:0,0:0:0:0:
294,72,573625,1,4,0:0:0:0:
266,207,573755,2,2,L|275:296,1,89.9999972534181,4|4,0:0|0:0,0:0:0:0:
275,296,573949,1,4,0:0:0:0:
275,296,574013,1,10,0:0:0:0:
336,152,574143,1,4,0:0:0:0:
336,152,574207,1,4,0:0:0:0:
336,152,574272,54,2,B|272:148|272:148|224:160|224:160|120:152,1,179.999994506836,6|8,0:0|0:0,0:0:0:0:
80,72,574660,1,4,0:0:0:0:
157,154,574789,2,2,L|144:260,1,89.9999972534181,4|4,0:0|0:0,0:0:0:0:
146,243,574983,1,4,0:0:0:0:
146,243,575048,1,10,0:0:0:0:
275,296,575177,2,0,L|292:216,1,44.999998626709,4|4,0:0|0:0,0:0:0:0:
244,136,575306,54,2,B|160:108|160:108|56:140,1,179.999994506836,6|8,0:0|0:0,0:0:0:0:
492,260,575824,1,4,0:0:0:0:
316,220,575953,1,4,0:0:0:0:
432,328,576082,1,10,0:0:0:0:
324,196,576212,1,4,0:0:0:0:
468,88,576341,54,2,L|464:200,1,89.9999972534181,2|4,0:0|0:0,0:0:0:0:
464,177,576535,1,4,0:0:0:0:
464,177,576599,1,10,0:0:0:0:
312,32,576729,1,4,0:0:0:0:
312,32,576793,1,4,0:0:0:0:
312,32,576858,54,2,P|256:20|180:68,1,119.999996337891,8|8,0:0|0:0,0:0:0:0:
199,340,577117,2,2,P|254:363|312:352,1,119.999996337891,8|8,0:0|0:0,0:0:0:0:
264,100,577375,54,2,L|84:96,1,179.999994506836,6|8,0:0|0:0,0:0:0:0:
28,220,577763,1,4,0:0:0:0:
28,220,577828,1,4,0:0:0:0:
28,220,577893,2,0,P|16:268|48:324,1,89.9999972534181,4|4,0:0|0:0,0:0:0:0:
200,340,578151,2,2,L|304:332,1,89.9999972534181,10|4,0:0|0:0,0:0:0:0:
289,333,578345,1,8,0:0:0:0:
289,333,578410,53,6,0:0:0:0:
392,228,578539,1,6,0:0:0:0:
236,180,578668,2,2,P|184:128|192:52,1,134.999995880127,8|8,0:0|0:0,0:0:0:0:
183,70,578927,1,4,0:0:0:0:
399,138,579056,2,2,L|392:228,1,89.9999972534181,6|8,0:0|0:0,0:0:0:0:
289,333,579315,2,2,L|280:256,1,44.999998626709,4|0,0:0|2:0,0:0:0:0:
264,100,579444,54,2,P|176:72|80:140,1,179.999994506836,6|8,0:0|0:0,0:0:0:0:
100,198,579832,2,2,L|101:108,1,89.9999972534181,0|6,2:0|0:0,0:0:0:0:
200,296,580091,1,4,0:0:0:0:
200,296,580155,1,4,0:0:0:0:
200,296,580220,1,10,0:0:0:0:
65,333,580349,1,6,0:0:0:0:
180,216,580479,54,2,P|224:216|280:276,1,89.9999972534181,2|4,0:0|0:0,0:0:0:0:
380,356,580737,2,2,P|432:344|460:280,1,89.9999972534181,10|4,0:0|0:0,0:0:0:0:
452,240,580931,1,4,0:0:0:0:
452,240,580996,2,2,B|436:184|436:184|476:128|452:40,1,179.999994506836,6|10,0:0|0:0,0:0:0:0:
458,67,581384,1,10,0:0:0:0:
364,212,581513,54,2,L|264:200,1,89.9999972534181,2|2,0:0|0:0,0:0:0:0:
208,240,581707,1,2,0:0:0:0:
208,240,581772,2,2,L|108:228,1,89.9999972534181,8|2,0:0|0:0,0:0:0:0:
56,184,581966,1,2,0:0:0:0:
56,184,582030,2,2,B|24:136|24:136|24:64|84:32,1,179.999994506836,12|0,0:0|3:0,2:0:0:0:
79,34,582418,1,0,3:0:0:0:
224,76,582548,54,2,L|236:176,1,89.9999972534181
208,240,582742,1,0,0:0:0:0:
208,240,582806,2,2,L|220:340,1,89.9999972534181,8|0,0:0|0:0,0:0:0:0:
288,364,583000,1,0,0:0:0:0:
288,364,583065,2,2,L|472:356,1,179.999994506836,12|0,0:0|3:0,0:0:0:0:
467,356,583453,1,0,3:0:0:0:
444,208,583582,54,2,L|336:200,1,89.9999972534181
284,168,583776,1,0,0:0:0:0:
284,168,583841,2,2,L|176:160,1,89.9999972534181,8|0,0:0|0:0,0:0:0:0:
124,192,584035,1,0,0:0:0:0:
124,192,584099,2,2,B|100:256|136:304|136:304|112:376,1,179.999994506836,12|0,0:0|3:0,0:0:0:0:
116,362,584487,1,0,3:0:0:0:
52,144,584617,54,2,P|92:112|168:120,1,89.9999972534181
196,144,584811,1,0,0:0:0:0:
196,144,584875,2,0,P|244:156|316:128,1,89.9999972534181,8|0,0:0|0:0,0:0:0:0:
348,108,585069,1,0,0:0:0:0:
348,108,585134,2,0,L|356:8,1,100,0|8,3:0|0:0,0:0:0:0:
464,232,585393,2,0,L|472:332,1,100,0|8,3:0|0:0,0:0:0:0:
471,331,585651,54,2,L|264:320,1,200,4|8,0:0|0:0,0:0:0:0:
272,320,586039,1,8,0:0:0:0:
156,117,586168,54,2,B|248:84|248:84|348:108,1,200,4|0,0:0|2:0,0:0:0:0:
272,320,586556,1,2,2:0:0:0:
272,320,586686,54,2,B|200:324|200:324|156:352|156:352|72:360,1,200,4|8,0:0|0:0,0:0:0:0:
80,359,587074,1,8,0:0:0:0:
60,112,587203,54,2,L|259:123,1,200,4|0,0:0|2:0,0:0:0:0:
156,117,587591,54,2,B|168:144|168:144|152:184|172:224|172:224|168:272,1,150,0|0,0:0|2:0,0:0:0:0:
172,280,588496,53,0,3:0:0:0:
238,205,588755,1,0,3:0:0:0:
329,246,589014,1,0,3:0:0:0:
319,345,589273,1,0,3:0:0:0:
222,366,589530,2,0,B|204:360|204:360|192:368|192:368|180:364|180:364|116:360,1,100,8|0,0:0|2:0,0:0:0:0:
96,364,589789,54,0,L|104:248,1,104.999996795654,6|0,0:0|2:0,0:0:0:0:
76,180,590048,2,0,L|64:96,1,69.9999978637696,8|0,0:0|2:0,0:0:0:0:
248,52,590306,2,0,B|296:56|296:56|312:64|312:64|360:68,1,104.999996795654,2|0,0:0|2:0,0:0:0:0:
420,120,590565,2,0,L|416:208,1,69.9999978637696,8|2,0:0|0:0,0:0:0:0:
232,244,590824,54,0,L|108:248,1,104.999996795654,2|0,0:0|2:0,0:0:0:0:
127,247,591082,1,8,0:0:0:0:
248,148,591212,1,2,0:0:0:0:
324,288,591341,2,0,L|320:357,1,69.9999978637696,2|2,0:0|0:0,0:0:0:0:
412,240,591599,1,8,0:0:0:0:
500,292,591729,1,2,0:0:0:0:
412,340,591858,53,8,0:0:0:0:
420,120,591987,1,8,0:0:0:0:
324,288,592246,53,8,0:0:0:0:
408,104,592375,1,8,0:0:0:0:
236,236,592634,53,8,0:0:0:0:
396,88,592763,1,8,0:0:0:0:
384,72,593151,54,0,L|392:156,1,69.9999978637696,0|0,0:0|2:0,0:0:0:0:
396,172,593410,2,0,P|352:248|296:168,1,200,0|0,2:0|2:0,0:0:0:0:
296,160,594444,54,0,P|328:192|316:272,1,100,6|4,0:0|0:0,0:0:0:0:
200,320,594703,2,2,L|84:324,1,100,8|4,0:0|0:0,0:0:0:0:
28,296,594897,1,8,0:0:0:0:
28,296,594962,54,2,P|63:253|125:247,1,100,6|6,0:0|0:0,0:0:0:0:
296,264,595220,2,2,L|456:272,1,150,8|8,0:0|0:0,0:0:0:0:
445,271,595479,1,4,0:0:0:0:
344,92,595608,2,2,P|288:76|224:112,1,100,2|8,0:0|0:0,0:0:0:0:
192,270,595867,2,2,L|200:320,1,50,4|0,0:0|2:0,0:0:0:0:
348,336,595996,54,2,P|380:272|300:176,1,200,6|8,0:0|0:0,0:0:0:0:
128,208,596384,2,2,L|16:216,1,100,0|6,0:0|0:0,0:0:0:0:
224,48,596643,2,2,L|304:52,2,50,4|4|10,0:0|0:0|0:0,0:0:0:0:
80,96,596901,1,6,0:0:0:0:
188,156,597030,54,2,P|208:204|180:272,1,100,2|4,0:0|0:0,0:0:0:0:
34,365,597289,2,2,P|24:317|44:272,1,100,10|4,0:0|0:0,0:0:0:0:
120,252,597483,1,4,0:0:0:0:
120,252,597548,2,2,L|324:248,1,200,4|8,0:0|0:0,0:0:0:0:
319,248,597936,1,8,0:0:0:0:
447,59,598065,54,2,B|480:56|496:28|496:28|488:168,1,200,6|8,0:0|0:0,0:0:0:0:
428,304,598453,1,4,0:0:0:0:
348,168,598582,2,2,P|300:164|240:212,1,100,4|4,0:0|0:0,0:0:0:0:
224,268,598776,2,2,L|232:328,1,50,4|10,0:0|0:0,0:0:0:0:
124,108,598970,2,0,L|117:58,1,50,4|4,0:0|0:0,0:0:0:0:
56,160,599099,54,2,P|148:192|208:100,1,200,6|8,0:0|0:0,0:0:0:0:
332,20,599487,1,4,0:0:0:0:
348,168,599617,2,2,L|356:288,1,100,4|4,0:0|0:0,0:0:0:0:
320,340,599811,2,2,P|296:344|248:332,1,50,4|10,0:0|0:0,0:0:0:0:
416,112,600005,2,0,P|440:108|488:120,1,50,4|4,0:0|0:0,0:0:0:0:
448,192,600134,54,2,L|240:184,1,200,6|8,0:0|0:0,0:0:0:0:
248,184,600651,2,0,P|240:236|288:296,1,100,4|4,0:0|0:0,0:0:0:0:
464,372,600910,2,2,P|482:326|469:278,1,100,8|4,0:0|0:0,0:0:0:0:
260,276,601168,53,6,0:0:0:0:
448,192,601298,1,4,0:0:0:0:
448,192,601362,1,4,0:0:0:0:
448,192,601427,1,10,0:0:0:0:
300,88,601556,1,4,0:0:0:0:
300,88,601621,1,4,0:0:0:0:
300,88,601686,54,0,L|308:192,1,59.9999981689454,8|0,0:0|2:0,0:0:0:0:
261,277,601815,2,0,L|269:173,1,59.9999981689454,8|0,0:0|2:0,0:0:0:0:
208,72,601944,2,0,L|216:176,1,59.9999981689454,8|0,0:0|2:0,0:0:0:0:
169,293,602074,2,0,L|177:189,1,59.9999981689454,8|0,0:0|2:0,0:0:0:0:
116,56,602203,54,2,P|160:140|92:208,1,200,6|8,0:0|0:0,0:0:0:0:
84,128,602591,1,4,0:0:0:0:
84,128,602655,1,4,0:0:0:0:
84,128,602720,2,0,L|196:140,1,100,4|4,0:0|0:0,0:0:0:0:
335,293,602979,2,2,L|223:281,1,100,10|4,0:0|0:0,0:0:0:0:
200,208,603173,1,8,0:0:0:0:
200,208,603237,54,2,P|184:156|212:108,1,100,6|6,0:0|0:0,0:0:0:0:
336,72,603496,1,8,0:0:0:0:
202,116,603625,1,6,0:0:0:0:
392,148,603755,2,4,L|508:136,1,100
488,368,604013,2,4,L|388:357,1,100,8|4,0:0|0:0,0:0:0:0:
334,292,604207,1,4,0:0:0:0:
334,292,604272,54,2,B|484:280|484:280|444:240,1,200,6|8,0:0|0:0,0:0:0:0:
312,148,604660,2,2,P|268:116|264:52,1,100,0|6,2:0|0:0,0:0:0:0:
436,20,604918,1,4,0:0:0:0:
448,48,604983,1,4,0:0:0:0:
460,76,605048,2,0,P|464:128|416:176,1,100,10|6,0:0|0:0,0:0:0:0:
254,323,605306,54,0,P|248:275|272:232,1,100,4|4,0:0|0:0,0:0:0:0:
271,232,605500,1,4,0:0:0:0:
271,232,605565,1,8,0:0:0:0:
152,104,605694,2,0,L|148:36,2,50,4|4|4,0:0|0:0|0:0,0:0:0:0:
27,238,605953,1,4,0:0:0:0:
27,238,606018,1,4,0:0:0:0:
27,238,606082,2,2,L|20:364,1,100,10|8,0:0|0:0,0:0:0:0:
168,308,606341,53,2,0:0:0:0:
316,280,606470,1,2,0:0:0:0:
316,280,606535,1,2,0:0:0:0:
316,280,606599,1,8,0:0:0:0:
464,252,606729,1,2,0:0:0:0:
464,252,606793,1,2,0:0:0:0:
464,252,606858,2,2,B|476:180|476:180|468:136|468:136|480:52,1,200,14|0,0:0|3:0,0:0:0:0:
479,54,607246,1,0,3:0:0:0:
380,200,607375,53,2,0:0:0:0:
292,84,607505,2,0,L|304:156,1,50,2|2,0:0|0:0,0:0:0:0:
316,280,607634,1,8,0:0:0:0:
228,164,607763,2,0,L|240:236,1,50,2|2,0:0|0:0,0:0:0:0:
252,360,607893,2,2,L|32:348,1,200,14|0,0:0|3:0,0:0:0:0:
52,349,608280,1,0,3:0:0:0:
24,200,608410,54,0,L|36:72,1,100,2|2,0:0|0:0,0:0:0:0:
104,28,608604,1,2,0:0:0:0:
104,28,608668,2,0,L|116:156,1,100,8|2,0:0|0:0,0:0:0:0:
184,200,608863,1,2,0:0:0:0:
184,200,608927,2,2,L|204:-17,1,200,8|0,0:0|3:0,0:0:0:0:
202,0,609315,1,0,3:0:0:0:
324,144,609444,53,2,0:0:0:0:
440,32,609574,2,0,L|364:32,1,50,2|2,0:0|0:0,0:0:0:0:
296,40,609703,1,8,0:0:0:0:
184,200,609832,2,0,L|108:200,1,50,2|2,0:0|0:0,0:0:0:0:
40,192,609961,2,0,L|52:312,1,100,0|8,3:0|0:0,0:0:0:0:
240,128,610220,2,0,L|252:8,1,100,0|8,3:0|0:0,0:0:0:0:
249,28,610479,54,2,B|160:24|160:24|120:56|120:56|16:52,1,239.999992675781,4|8,0:0|0:0,0:0:0:0:
21,52,610867,1,8,0:0:0:0:
184,200,610996,54,2,L|444:188,1,239.999992675781,4|0,0:0|2:0,0:0:0:0:
478,25,611384,1,2,2:0:0:0:
478,25,611513,54,2,B|364:64|364:64|249:28,1,239.999992675781,4|8,0:0|0:0,0:0:0:0:
249,28,611901,1,8,0:0:0:0:
272,208,612030,54,2,L|544:220,1,239.999992675781,4|0,0:0|2:0,0:0:0:0:
489,171,612418,54,2,B|480:140|480:140|496:104|476:64|476:64|478:26,1,150,0|0,0:0|2:0,0:0:0:0:
344,188,614099,2,0,B|326:194|326:194|314:186|314:186|302:190|302:190|238:194,1,100,8|0,0:0|2:0,0:0:0:0:
256,192,615393,12,0,621858,0:0:0:0:
72,40,625343,37,0,0:0:0:0:
68,60,625589,1,0,0:0:0:0:
64,80,625834,1,0,0:0:0:0:
60,100,626080,53,0,0:0:0:0:
148,84,626449,1,0,0:0:0:0:
236,68,626818,1,0,0:0:0:0:
324,52,627187,1,0,0:0:0:0:
412,36,627556,2,0,P|456:104|404:188,1,160
336,188,628048,53,0,0:0:0:0:
320,284,628416,1,0,0:0:0:0:
252,216,628785,1,0,0:0:0:0:
236,312,629153,1,0,0:0:0:0:
168,244,629523,2,0,L|4:240,1,160
8,240,630015,54,0,P|40:172|16:92,1,150
296,36,630752,2,0,P|264:104|288:184,1,150
280,173,631490,2,0,L|388:168,1,100
356,196,631859,54,0,L|163:182,1,160,6|0,0:0|0:0,0:0:0:0:
196,184,632166,1,0,0:0:0:0:
196,184,632228,1,8,0:0:0:0:
36,220,632351,1,0,0:0:0:0:
36,220,632412,1,0,0:0:0:0:
36,220,632474,2,0,L|40:316,1,80,8|0,0:0|0:0,0:0:0:0:
112,336,632658,2,0,L|184:320,1,40,0|8,0:0|0:0,0:0:0:0:
196,184,632843,2,0,L|156:181,1,40
80,140,632966,54,0,P|72:112|80:64,1,53.3333333333333,8|0,0:0|0:0,0:0:0:0:
168,20,633130,2,0,L|248:12,1,53.3333333333333
272,156,633293,2,0,P|243:177|187:183,1,53.3333333333333
208,100,633457,2,0,P|292:108|380:56,1,160,8|0,0:0|0:0,0:0:0:0:
358,76,633826,1,0,0:0:0:0:
444,132,633949,54,0,B|432:196|456:256|456:256|447:284|448:332,1,179.999994506836,4|8,0:0|0:0,0:0:0:0:
358,316,634318,2,0,L|448:309,1,89.9999972534181,0|0,2:0|0:0,0:0:0:0:
192,176,634564,54,0,B|148:168|148:168|88:188|-12:176,2,179.999994506836,0|8|0,0:0|0:0|0:0,0:0:0:0:
264,132,635117,2,0,L|320:124,1,44.999998626709,0|8,0:0|0:0,0:0:0:0:
164,348,635302,54,0,L|208:341,1,44.999998626709
276,304,635425,2,0,L|268:188,1,89.9999972534181,8|0,0:0|0:0,0:0:0:0:
269,214,635609,1,0,0:0:0:0:
269,214,635670,1,8,0:0:0:0:
100,176,635793,1,8,0:0:0:0:
269,214,635916,54,0,B|336:224|384:192|384:192|416:224|472:224,1,179.999994506836,4|8,0:0|0:0,0:0:0:0:
456,52,636285,2,0,L|449:142,1,89.9999972534181,0|0,2:0|0:0,0:0:0:0:
344,308,636531,1,0,0:0:0:0:
344,308,636777,54,0,B|416:252|416:252|504:268,1,179.999994506836,8|8,0:0|0:0,0:0:0:0:
480,180,637146,2,0,L|392:164,1,89.9999972534181,8|0,0:0|0:0,0:0:0:0:
391,163,637330,1,0,0:0:0:0:
392,164,637392,2,0,P|384:192|392:248,1,59.9999981689454,8|0,0:0|0:0,0:0:0:0:
316,112,637556,2,0,P|316:82|294:30,1,59.9999981689454,0|8,0:0|0:0,0:0:0:0:
256,180,637720,2,0,P|256:216|280:256,1,59.9999981689454
168,184,637884,54,0,L|364:188,2,179.999994506836,4|8|0,0:0|0:0|0:0,0:0:0:0:
408,116,638498,1,0,0:0:0:0:
408,116,638744,54,0,L|400:12,2,89.9999972534181,8|0|0,0:0|0:0|0:0,0:0:0:0:
364,328,639113,1,8,0:0:0:0:
320,212,639236,1,0,0:0:0:0:
304,208,639298,1,0,0:0:0:0:
288,204,639359,54,0,L|196:212,1,59.9999981689454,8|0,0:0|0:0,0:0:0:0:
172,280,639523,2,0,L|80:288,1,59.9999981689454,0|8,0:0|0:0,0:0:0:0:
36,192,639687,1,0,0:0:0:0:
36,192,639769,1,0,0:0:0:0:
36,192,639851,54,0,B|32:128|32:128|40:88|40:88|36:8,1,179.999994506836,4|8,0:0|0:0,0:0:0:0:
172,280,640220,2,0,L|164:384,1,89.9999972534181,8|0,0:0|0:0,0:0:0:0:
288,204,640466,1,8,0:0:0:0:
420,248,640589,1,8,0:0:0:0:
392,112,640711,53,0,0:0:0:0:
396,96,640773,1,0,0:0:0:0:
400,80,640834,1,8,0:0:0:0:
288,204,640957,1,0,0:0:0:0:
292,220,641019,1,0,0:0:0:0:
296,236,641080,1,8,0:0:0:0:
208,104,641203,1,0,0:0:0:0:
188,100,641265,1,0,0:0:0:0:
172,96,641326,54,0,L|88:76,2,59.9999981689454,8|0|0,0:0|0:0|0:0,0:0:0:0:
288,128,641572,2,8,L|300:204,1,44.999998626709
400,192,641695,2,8,L|412:268,1,44.999998626709
512,256,641818,54,0,B|484:292|468:324|468:324|416:328|356:340,1,179.999994506836,6|8,0:0|1:0,0:0:0:0:
208,232,642187,2,0,B|144:228|144:228|104:248|104:248|12:244,1,179.999994506836
32,244,642494,1,0,0:0:0:0:
32,244,642556,1,8,0:0:0:0:
232,316,642679,54,0,L|420:312,1,179.999994506836
432,284,642986,1,0,0:0:0:0:
432,284,643048,2,0,L|320:284,1,89.9999972534181,8|0,0:0|0:0,0:0:0:0:
240,136,643293,53,0,0:0:0:0:
256,140,643355,1,0,0:0:0:0:
272,144,643416,1,0,0:0:0:0:
400,192,643539,1,8,0:0:0:0:
304,296,643662,1,0,0:0:0:0:
288,300,643724,1,0,0:0:0:0:
272,304,643785,54,0,B|240:300|208:292|208:292|156:328|88:360,1,179.999994506836,4|8,0:0|0:0,0:0:0:0:
32,244,644154,2,0,B|33:186|46:131|46:131|31:98|24:50,1,179.999994506836
27,68,644523,54,0,L|144:60,1,89.9999972534181,8|0,0:0|0:0,0:0:0:0:
256,40,644769,2,0,L|244:112,2,59.9999981689454
372,88,645015,2,0,L|488:76,1,89.9999972534181,8|0,0:0|0:0,0:0:0:0:
436,240,645261,54,0,L|372:236,1,59.9999981689454
408,332,645425,2,0,L|467:328,1,59.9999981689454,0|8,0:0|0:0,0:0:0:0:
296,272,645630,1,0,0:0:0:0:
292,256,645691,1,0,0:0:0:0:
288,240,645752,54,0,B|232:232|232:232|188:252|188:252|92:240,1,179.999994506836,4|8,0:0|0:0,0:0:0:0:
191,72,646121,2,0,L|188:252,1,179.999994506836
188,252,646429,1,0,0:0:0:0:
188,252,646490,1,8,0:0:0:0:
112,76,646613,54,0,B|192:72|192:72|228:88|228:88|312:80,1,179.999994506836
288,82,646920,1,0,0:0:0:0:
288,82,646982,1,8,0:0:0:0:
444,90,647105,53,0,0:0:0:0:
332,160,647228,1,0,0:0:0:0:
176,152,647351,1,0,0:0:0:0:
312,248,647474,2,0,L|328:316,1,44.999998626709,8|0,0:0|0:0,0:0:0:0:
376,348,647597,54,0,B|348:345|320:336|320:336|256:348|164:348,1,179.999994506836,4|0,0:0|0:0,0:0:0:0:
124,352,647904,2,0,L|48:344,1,44.999998626709,0|8,0:0|0:0,0:0:0:0:
96,196,648089,2,0,L|51:191,1,44.999998626709
160,236,648211,1,0,0:0:0:0:
68,40,648334,2,0,L|23:35,1,44.999998626709
132,80,648457,2,0,L|240:72,1,89.9999972534181,8|0,0:0|0:0,0:0:0:0:
240,72,648642,1,0,0:0:0:0:
257,71,648703,54,0,P|280:92|292:148,1,59.9999981689454,8|0,0:0|0:0,0:0:0:0:
300,240,648867,2,0,P|270:249|215:231,1,59.9999981689454
132,192,649031,2,0,P|138:161|181:123,1,59.9999981689454
228,168,649195,2,0,L|412:164,1,179.999994506836,8|8,0:0|0:0,0:0:0:0:
407,164,649564,1,8,0:0:0:0:
376,280,649687,54,0,B|368:332|368:332|392:396,1,100,6|0,0:0|2:0,0:0:0:0:
452,324,649933,1,8,0:0:0:0:
288,348,650056,1,0,0:0:0:0:
288,348,650117,1,0,0:0:0:0:
288,348,650179,1,8,0:0:0:0:
320,216,650302,1,0,0:0:0:0:
196,300,650425,2,0,L|96:296,1,100,8|0,0:0|0:0,0:0:0:0:
96,296,650609,1,0,0:0:0:0:
96,296,650670,53,8,0:0:0:0:
36,192,650793,1,0,0:0:0:0:
152,132,650916,1,8,0:0:0:0:
64,52,651039,2,0,L|56:-8,2,50,0|0|8,0:0|0:0|0:0,0:0:0:0:
200,24,651285,1,0,0:0:0:0:
220,32,651347,1,0,0:0:0:0:
240,40,651408,1,8,0:0:0:0:
324,128,651531,1,0,0:0:0:0:
416,24,651654,54,0,B|464:16|464:16|512:40,1,100,4|0,0:0|2:0,0:0:0:0:
408,188,651900,1,8,0:0:0:0:
456,308,652023,1,0,0:0:0:0:
452,328,652084,1,0,0:0:0:0:
448,348,652146,1,8,0:0:0:0:
356,272,652269,1,0,0:0:0:0:
496,224,652392,1,8,0:0:0:0:
448,348,652515,2,0,L|360:344,1,50
284,316,652638,53,8,0:0:0:0:
168,348,652761,1,0,0:0:0:0:
76,272,652884,2,0,B|96:224|96:224|84:152,1,100,8|0,0:0|0:0,0:0:0:0:
36,120,653068,1,0,0:0:0:0:
36,120,653130,1,8,0:0:0:0:
180,88,653252,2,0,L|229:83,1,50
304,72,653375,1,8,0:0:0:0:
292,200,653498,1,0,0:0:0:0:
412,148,653621,54,0,B|464:144|464:144|528:176,1,100,4|0,0:0|2:0,0:0:0:0:
448,236,653867,1,8,0:0:0:0:
452,60,653990,1,0,0:0:0:0:
432,56,654052,1,0,0:0:0:0:
412,52,654113,1,8,0:0:0:0:
304,72,654236,1,0,0:0:0:0:
340,264,654359,2,0,B|292:280|292:280|212:256,1,100,8|0,0:0|0:0,0:0:0:0:
212,196,654543,1,0,0:0:0:0:
212,196,654605,53,8,0:0:0:0:
352,140,654728,1,0,0:0:0:0:
224,72,654851,1,8,0:0:0:0:
292,200,654974,1,0,0:0:0:0:
296,220,655035,1,0,0:0:0:0:
300,240,655097,1,8,0:0:0:0:
148,256,655220,2,0,L|52:248,1,50
16,244,655343,2,0,L|12:132,1,100,8|0,0:0|0:0,0:0:0:0:
100,40,655589,54,0,B|152:36|152:36|208:64,1,100,4|0,0:0|0:0,0:0:0:0:
194,57,655773,1,0,0:0:0:0:
194,57,655834,1,8,0:0:0:0:
148,256,655957,1,8,0:0:0:0:
272,112,656080,1,0,0:0:0:0:
92,184,656203,1,8,0:0:0:0:
316,196,656326,1,8,0:0:0:0:
192,172,656449,54,0,B|248:160|312:168|312:168|336:136|392:104,1,200
371,116,656757,1,0,0:0:0:0:
371,116,656818,2,8,L|492:112,1,100
392,300,657064,2,0,L|388:396,2,66.6666666666667
320,216,657310,1,8,0:0:0:0:
320,216,657433,1,8,0:0:0:0:
320,216,657556,54,0,B|268:224|216:200|216:200|179:231|80:224,2,200,4|8|0,0:0|0:0|0:0,0:0:0:0:
488,144,658170,1,0,0:0:0:0:
308,88,658293,1,8,0:0:0:0:
400,128,658416,54,0,B|396:180|416:248|416:248|376:280|356:336,1,200
320,216,658785,2,0,P|312:164|320:92,1,100,8|0,0:0|0:0,0:0:0:0:
493,44,659031,2,0,P|495:94|488:144,1,100,8|0,0:0|0:0,0:0:0:0:
488,144,659523,54,0,L|328:140,1,139.999995727539,4|0,0:0|0:0,0:0:0:0:
160,112,660015,2,0,P|132:168|176:252,1,160
172,249,660384,1,0,0:0:0:0:
264,88,660507,54,8,L|268:8,2,80
300,276,660875,1,0,0:0:0:0:
300,276,660937,1,0,0:0:0:0:
300,276,660998,2,0,L|308:352,1,53.3333333333333
400,292,661162,2,0,L|408:368,1,53.3333333333333
500,308,661326,2,0,L|508:384,1,53.3333333333333
464,224,661490,54,0,P|456:144|468:48,1,160,4|0,0:0|0:0,0:0:0:0:
424,48,661818,1,0,0:0:0:0:
380,44,661900,1,0,0:0:0:0:
340,52,661982,2,0,P|300:60|232:48,1,80,8|0,0:0|0:0,0:0:0:0:
80,36,662228,2,0,L|92:144,1,80,0|0,0:0|2:0,0:0:0:0:
176,200,662474,53,4,0:0:0:0:
176,200,662966,1,0,0:0:0:0:
176,200,663949,54,0,B|249:199|312:188|312:188|341:208|372:216,1,200,4|0,0:0|2:0,0:0:0:0:
408,196,664932,54,8,L|492:192,2,53.3333333333333
328,212,665178,1,0,0:0:0:0:
288,228,665260,1,0,0:0:0:0:
260,260,665342,1,0,0:0:0:0:
248,300,665424,54,8,L|244:364,2,53.3333333333333
176,248,665670,1,0,0:0:0:0:
144,220,665752,1,0,0:0:0:0:
108,200,665834,1,0,0:0:0:0:
68,188,665916,54,8,L|-4:184,2,53.3333333333333
140,124,666162,1,0,0:0:0:0:
184,120,666244,1,0,0:0:0:0:
228,116,666326,1,0,0:0:0:0:
272,112,666408,54,0,L|436:96,1,160,12|2,0:0|2:0,0:0:0:0:
431,96,666776,53,0,0:0:0:0:
368,336,667022,1,0,0:0:0:0:
368,336,667145,2,0,L|272:328,1,69.9999978637696,2|0,2:0|0:0,0:0:0:0:
228,256,667391,2,0,L|136:264,1,69.9999978637696,8|0,0:0|0:0,0:0:0:0:
80,324,667637,1,2,2:0:0:0:
80,324,667760,53,0,0:0:0:0:
68,92,668006,2,0,L|76:188,1,69.9999978637696,0|2,0:0|2:0,0:0:0:0:
188,64,668252,2,0,L|179:159,1,69.9999978637696,0|8,0:0|0:0,0:0:0:0:
292,184,668498,2,0,L|294:114,1,69.9999978637696,0|2,0:0|2:0,0:0:0:0:
368,36,668744,54,0,P|444:28|520:64,1,139.999995727539
502,50,669112,2,0,L|500:124,1,69.9999978637696,2|0,2:0|0:0,0:0:0:0:
368,240,669358,2,0,L|375:309,1,69.9999978637696,8|0,0:0|0:0,0:0:0:0:
448,204,669604,1,8,0:0:0:0:
292,184,669727,1,8,0:0:0:0:
376,340,669850,53,0,0:0:0:0:
376,340,669973,2,0,L|368:270,1,69.9999978637696,0|2,0:0|2:0,0:0:0:0:
292,184,670219,2,0,L|284:114,1,69.9999978637696,0|2,0:0|2:0,0:0:0:0:
448,204,670465,2,0,L|440:134,1,69.9999978637696,0|2,0:0|2:0,0:0:0:0:
360,68,670711,54,0,L|196:76,1,139.999995727539,4|0,0:0|0:0,0:0:0:0:
96,104,671080,2,0,P|92:140|112:184,1,69.9999978637696,2|0,2:0|0:0,0:0:0:0:
188,296,671326,2,0,P|198:263|194:228,1,69.9999978637696,8|0,0:0|0:0,0:0:0:0:
292,184,671571,1,0,0:0:0:0:
292,184,671694,54,0,L|376:180,1,69.9999978637696,0|0,0:0|2:0,0:0:0:0:
396,332,671940,2,0,L|326:335,1,69.9999978637696,0|2,0:0|2:0,0:0:0:0:
188,296,672186,1,0,0:0:0:0:
188,296,672309,1,8,0:0:0:0:
96,216,672432,2,0,P|84:184|88:132,1,69.9999978637696,0|2,0:0|2:0,0:0:0:0:
180,76,672678,53,8,0:0:0:0:
276,56,672801,2,0,L|284:8,2,34.9999989318848,0|0|8,0:0|0:0|0:0,0:0:0:0:
380,116,673047,1,8,0:0:0:0:
468,160,673170,2,0,L|512:156,2,34.9999989318848,0|0|8,0:0|0:0|0:0,0:0:0:0:
368,228,673416,2,0,L|372:312,1,69.9999978637696,0|8,2:0|0:0,0:0:0:0:
371,297,673662,54,0,B|320:296|320:296|288:304|288:304|216:300,1,139.999995727539,0|0,0:0|0:0,0:0:0:0:
104,240,674030,1,2,2:0:0:0:
232,160,674153,2,0,L|236:120,2,34.9999989318848,0|0|8,0:0|0:0|0:0,0:0:0:0:
204,316,674399,1,8,0:0:0:0:
148,160,674522,1,8,0:0:0:0:
308,200,674645,54,0,L|472:196,1,139.999995727539,4|0,0:0|0:0,0:0:0:0:
447,196,675014,2,0,P|456:160|456:112,1,69.9999978637696,8|0,0:0|2:0,0:0:0:0:
256,56,675260,2,0,P|252:100|256:136,1,69.9999978637696
376,260,675506,1,8,0:0:0:0:
296,240,675629,54,0,P|224:228|136:236,1,139.999995727539
32,264,675998,2,0,L|40:352,1,69.9999978637696,8|0,0:0|0:0,0:0:0:0:
157,231,676244,2,0,L|160:140,1,69.9999978637696
28,76,676489,1,8,0:0:0:0:
112,104,676612,54,0,P|184:112|272:96,1,139.999995727539,4|0,0:0|0:0,0:0:0:0:
388,56,676981,2,0,L|476:64,1,69.9999978637696,8|0,0:0|0:0,0:0:0:0:
344,200,677227,2,0,L|348:276,1,69.9999978637696
416,348,677473,1,8,0:0:0:0:
272,312,677596,54,0,L|104:304,1,139.999995727539
104,304,677903,1,0,0:0:0:0:
104,304,677965,2,0,L|96:220,1,69.9999978637696,8|0,0:0|0:0,0:0:0:0:
204,152,678211,1,8,0:0:0:0:
296,112,678334,2,0,L|304:64,2,34.9999989318848,0|0|8,0:0|0:0|0:0,0:0:0:0:
356,228,678580,54,0,P|432:240|512:216,1,139.999995727539,4|0,0:0|0:0,0:0:0:0:
272,312,678949,1,8,0:0:0:0:
272,312,679071,2,0,P|204:300|104:320,1,139.999995727539
48,172,679440,1,8,0:0:0:0:
204,152,679563,54,0,L|352:136,1,139.999995727539
343,136,679932,1,8,0:0:0:0:
436,84,680055,2,0,P|440:52|428:4,1,69.9999978637696,0|0,0:0|2:0,0:0:0:0:
396,224,680301,2,0,P|389:258|392:292,1,69.9999978637696,0|8,0:0|0:0,0:0:0:0:
460,340,680547,54,0,L|299:339,1,139.999995727539,4|0,0:0|0:0,0:0:0:0:
184,248,680916,2,0,L|253:244,1,69.9999978637696,8|0,0:0|0:0,0:0:0:0:
343,136,681162,2,0,P|348:100|340:52,1,69.9999978637696,8|0,0:0|0:0,0:0:0:0:
208,88,681408,1,8,0:0:0:0:
208,88,681530,1,0,0:0:0:0:
120,196,681653,1,8,0:0:0:0:
120,196,681776,1,0,0:0:0:0:
260,216,681899,53,8,0:0:0:0:
252,300,682022,1,0,0:0:0:0:
356,224,682145,1,0,0:0:0:0:
362,308,682268,1,8,0:0:0:0:
451,215,682391,1,8,0:0:0:0:
472,296,682514,1,0,0:0:0:0:
