osu file format v9

[General]
AudioFilename: .mp3
AudioLeadIn: 3000
PreviewTime: -1
Countdown: 1
SampleSet: Normal
StackLeniency: 0.7
Mode: 0
LetterboxInBreaks: 1

[Editor]
DistanceSpacing: 0.8
BeatDivisor: 4
GridSize: 16

[Metadata]
Title:Suki Kirai
Artist:Hanatan&ASK
Creator:keyaki1
Version:Normal
Source:Nico Nico Douga
Tags:VOCALOID se-sukeEila -myun- keyaki1

[Difficulty]
HPDrainRate:6
CircleSize:3
OverallDifficulty:4
ApproachRate:7
SliderMultiplier:1.4
SliderTickRate:1

[Events]
//Background and Video events
0,0,"tumblr_lfciypb8wI1qd8f7do1_500.png"
Video,0,"suki kirai.avi"
//Break Periods
2,16333,17155
2,28262,32905
2,57834,60905
2,160084,162155
2,180333,195155
2,210779,213155
2,252030,256405
2,257780,260405
2,261780,269155
//Storyboard Layer 0 (Background)
//Storyboard Layer 1 (Fail)
//Storyboard Layer 2 (Pass)
//Storyboard Layer 3 (Foreground)
//Storyboard Sound Samples
//Background Colour Transformations
3,100,163,162,255

[TimingPoints]
2062,500,4,1,1,80,1,0
163060,-100,4,1,1,80,0,1
180060,-100,4,1,1,80,0,0

[HitObjects]
32,272,2062,2,0,B|32:320|64:352|112:352|128:352|128:352,1,140
240,352,3062,2,0,B|336:352|336:352,5,70
480,336,5062,2,0,B|416:304|416:304|448:240|448:240,1,140
432,128,6062,2,0,B|416:64|368:32|320:32|320:32,1,140
224,48,7062,2,0,B|96:48|96:48,2,70
272,48,7812,1,0
272,96,8062,1,0
272,208,8562,1,8
160,336,9312,5,0
192,304,9562,1,0
224,272,9812,1,0
224,224,10062,1,0
176,240,10312,1,0
128,272,10562,1,0
16,272,11062,1,0
16,224,11312,1,0
16,176,11562,2,0,B|16:96|16:96,1,70
112,48,12312,2,0,B|192:48|192:48,1,70
176,160,13062,5,0
208,112,13312,1,0
240,160,13562,1,0
272,112,13812,1,0
304,160,14062,1,0
416,144,14562,1,0
432,256,15062,1,0
320,288,15562,2,0,B|256:320|256:320|176:272|176:272,1,140
32,64,18062,5,8
32,176,18562,2,0,B|128:176|128:176,2,70
32,240,19312,1,0
96,240,19562,1,0
144,240,19812,1,0
352,144,21062,1,8
352,96,21312,1,12
192,96,22062,5,0
128,96,22312,1,0
80,96,22562,1,0
80,208,23062,2,0,B|176:208|176:208,2,70
80,320,24062,1,0
128,320,24312,2,0,B|208:320|208:320,2,70
256,192,25062,12,8,28062
48,224,33812,5,0
48,224,34062,1,0
48,176,34562,2,0,B|32:96|32:96|64:48|64:48,1,140
176,48,35562,1,0
288,48,36062,1,0
336,48,36312,1,0
384,48,36562,1,0
384,96,36812,2,0,B|272:96|272:96,2,70
384,224,37812,1,0
384,224,38062,1,0
272,224,38562,1,0
160,224,39062,1,0
160,224,39312,1,0
256,192,39812,12,8,41562
32,48,42062,5,0
80,48,42312,1,0
240,48,43062,1,0
288,48,43312,1,0
336,48,43562,2,0,B|384:112|304:192|304:272|384:304|384:304,1,280
383,303,44812,1,0
320,304,45062,1,0
272,304,45312,1,0
224,304,45562,1,0
144,224,46062,5,0
32,224,46562,1,0
32,112,47062,1,0
80,112,47312,1,0
192,112,47812,2,2,B|288:160|304:128|320:96|368:96|400:128|400:128,1,210
400,240,49062,2,2,B|344:192|264:224|264:256|360:288|360:288,1,140
320,320,49812,5,8
272,320,50062,1,12
160,304,50562,2,0,B|80:336|32:320|0:272|0:272,1,140
32,192,51562,2,0,B|64:160|112:160|144:160|176:192|176:192,1,140
208,208,52312,1,0
256,208,52562,1,0
368,208,53062,1,8
368,208,53312,1,8
368,96,53812,2,8,B|288:96|288:96,2,70
256,96,54812,1,0
256,48,55062,1,0
144,48,55562,2,0,B|112:64|96:96|80:144|160:192,1,140
176,144,56312,1,8
176,144,56562,1,8
192,192,56812,2,0,B|240:256|240:304|224:320|176:352|144:352,1,210
32,48,61812,5,0
32,48,62062,1,0
144,48,62562,2,0,B|288:48|288:48,1,140
256,160,63562,2,0,B|352:160|352:160|384:96|384:96,1,140
368,16,64562,1,0
368,16,64812,1,0
368,128,65312,6,0,B|384:176|384:240|352:240|336:256|336:256,1,140
288,256,66062,2,0,B|224:224|224:176|224:128,1,140
224,80,66812,2,0,B|224:-16|224:-16,2,70
224,128,67562,2,0,B|304:128|304:128,2,70
112,160,68562,2,2,B|112:224|48:272|-16:208|0:144|96:160|128:256|112:256|96:304|96:304|96:288,1,280
208,304,70062,1,8
256,304,70312,1,8
368,272,70812,2,0,B|416:208|416:208,1,70
192,176,72062,5,0
304,176,72562,1,0
304,288,73062,1,0
192,288,73562,1,0
240,256,73812,1,0
240,192,74062,1,0
336,128,74562,1,0
384,112,74812,1,0
432,128,75062,1,0
416,240,75562,5,0
416,240,75812,1,0
416,240,76062,1,0
336,320,76562,2,0,B|272:352|192:320|192:320,1,140
160,288,77312,1,8
128,240,77562,1,8
112,128,78062,1,0
112,80,78312,1,0
224,48,78812,2,8,B|288:16|368:32|400:80|400:112|400:112,1,210
400,160,79812,1,8
400,272,80312,1,0
384,320,80562,1,0
336,288,80812,1,0
288,288,81062,2,0,B|208:288|160:240|160:192|176:208,1,140
256,192,81812,12,8,83562
256,256,85062,5,8
256,144,85562,1,2
144,144,86062,1,0
176,192,86312,1,0
208,240,86562,1,0
320,272,87062,1,8
384,272,87312,2,8,B|480:272|480:272,2,70
304,192,88312,6,2,B|256:128|240:112|192:96|144:112|112:144|112:176|96:176|80:192|80:192,1,280
48,240,89562,1,8
96,240,89812,1,8
96,288,90062,2,0,B|176:288|176:288,2,70
96,240,90812,2,0,B|48:176|48:128|64:112|112:64|128:64,1,210
176,64,91812,1,0
176,176,92312,1,0
176,224,92562,2,0,B|240:272|288:272|336:224,1,140
336,208,93312,2,0,B|383:152|431:152|463:152|479:168,1,140
448,96,94062,5,0
400,64,94312,1,0
352,32,94562,1,0
240,48,95062,1,0
288,144,95562,1,0
320,192,95812,2,0,B|368:256|368:256,1,70
304,272,96312,2,0,B|240:192|240:192,1,70
224,176,96812,1,10
160,96,97312,1,0
112,96,97562,1,0
96,208,98062,1,0
160,208,98312,1,0
224,208,98562,1,0
272,208,98812,2,2,B|320:160|352:160|384:192|400:224|368:256|304:208|336:160|368:144,1,210
256,192,99812,12,10,101062
256,192,101562,5,2
256,192,101812,1,2
208,160,102062,1,0
112,112,102562,1,0
80,160,102812,1,0
128,176,103062,1,0
192,272,103562,2,0,B|208:320|224:352|272:368|288:352|288:336,1,140
288,288,104312,2,0,B|288:240|304:224|336:208|336:192,1,70
0,16,106062,5,0
64,16,106312,1,0
112,16,106562,1,0
224,16,107062,1,0
240,128,107562,2,0,B|256:208|320:240|336:240|336:240,1,140
256,224,110062,5,8
256,224,110562,1,2
192,144,111062,1,0
160,96,111312,2,0,B|112:32|112:32,2,70
112,128,112062,2,0,B|112:208|112:208,1,70
208,336,113062,1,0
208,288,113312,1,0
208,240,113562,1,0
288,160,114062,1,0
384,96,114562,2,8,B|448:16|448:16,2,70
320,256,115812,2,0,B|288:320|224:336|208:336|128:304|128:304,1,210
96,208,117062,1,8
80,160,117312,1,12
96,112,117562,1,0
192,176,118062,5,0
256,272,118562,1,0
256,272,118812,1,0
304,272,119062,2,0,B|384:272|384:272|384:208|384:208,1,140
416,96,120062,1,0
304,96,120562,1,0
256,96,120812,1,0
208,96,121062,2,0,B|128:96|128:96,1,70
112,144,121562,2,0,B|144:224|208:240,2,140
128,32,123062,5,0
176,64,123312,1,0
224,96,123562,1,0
192,144,123812,1,0
224,176,124062,1,0
256,208,124312,2,0,B|320:256|320:256,3,70
336,304,125312,1,0
288,304,125562,2,0,B|256:256|256:256|240:304|240:304|224:256|224:256|208:304|208:304|192:256|192:256|176:304|176:304|160:256|160:256|128:304,1,420
64,208,127562,6,0,B|64:112,1,70
64,80,128062,2,0,B|64:-10,1,70
112,16,128562,1,0
208,80,129062,1,0
304,16,129562,1,0
304,128,130062,1,0
384,80,130562,2,8,B|448:80|464:96|496:128|512:160,1,140
448,240,131562,1,8
336,272,132062,1,0
336,272,132312,1,0
304,240,132562,1,0
256,192,132812,12,8,133812
256,176,134062,1,0
256,80,134562,2,0,B|256:0|256:0,1,70
224,64,135062,1,0
192,112,135312,1,0
160,160,135562,1,0
112,272,136062,2,8,B|96:240|96:240|96:288|96:288|80:240|80:240|80:288|80:288|64:240|64:240|64:288|64:288|48:240|48:240|48:288|48:288|32:272|32:272,1,420
16,208,137812,1,8
16,160,138062,1,0
16,112,138312,1,0
64,96,138562,2,0,B|128:64|128:64,2,70,8|8|8
32,256,139812,5,0
144,256,140312,1,0
144,208,140562,1,0
256,208,141062,1,0
256,208,141312,1,0
192,304,141812,2,0,B|256:336|304:336|336:304|336:288,1,140
336,256,142562,2,0,B|400:192|384:144|384:112,1,140
304,48,143562,5,0
256,48,143812,1,0
256,48,144062,1,0
96,112,144812,2,0,B|64:192|80:224|96:256|130:263,1,140
160,240,145562,1,0
208,240,145812,1,0
192,352,146312,2,0,B|240:384|256:400|320:352,2,140
176,304,147562,1,0
160,256,147812,1,0
144,208,148062,1,12
320,80,149062,1,0
320,128,149312,1,0
352,288,150062,6,0,B|272:256|256:208|256:176|256:176,1,140
208,288,151062,2,0,B|144:240|128:192|144:144,1,140
112,128,151812,1,0
96,80,152062,1,0
208,64,152562,2,0,B|272:32|320:32|368:96|368:112,1,140
384,176,153562,1,0
384,176,153812,1,0
384,176,154062,1,0
416,288,154562,2,0,B|384:336|352:352|288:336|288:336,1,140
240,336,155312,1,0
192,336,155562,1,0
80,208,156312,6,0,B|224:208|224:208,1,140
272,192,157062,2,0,B|304:160|304:160|304:224|304:224|336:160|336:160|352:224|352:224|384:176|384:176,1,280
432,176,158562,1,8
432,176,158812,1,8
432,16,159562,1,8
432,16,159812,1,8
128,192,163062,5,2
240,192,163562,1,2
128,224,164062,2,0,B|160:272|224:288|272:288|272:272,1,140
304,272,164812,2,0,B|384:272|432:224|448:176,1,140
432,160,165562,1,0
432,160,165812,1,0
400,208,166062,2,0,B|336:288|288:272|256:256|240:224|224:192|224:192,1,210
176,224,167062,2,0,B|144:288|112:304|80:304|64:304|0:256|0:224|53:184|16:192|16:192,1,210
16,176,168062,1,8
32,128,168312,1,8
48,80,168562,1,8
160,80,169062,5,8
144,128,169312,1,8
128,176,169562,1,8
112,224,169812,1,12
160,240,170062,2,2,B|176:192|176:192|192:272|192:272|208:192|208:192|224:272|224:272|240:192|240:192|256:272|256:272,1,420
288,336,172062,2,0,B|368:320|400:272|400:240,1,140
400,176,172812,1,0
400,176,173062,1,0
400,176,173312,1,0
448,64,173812,1,8
336,64,174312,6,0,B|240:64|240:64|240:112|240:112|160:112|160:112,1,210
208,160,175312,2,0,B|80:160|80:160|80:240|80:240|80:224,1,210
96,288,176312,2,0,B|192:288|192:288,2,70
32,80,177812,1,0
80,112,178062,1,0
96,64,178312,1,0
144,96,178562,1,0
192,96,178812,2,2,B|336:96|336:96,1,140
384,96,179562,2,0,B|464:96|464:96,2,70,2|0|2
16,304,196062,5,0
64,304,196312,1,0
112,304,196562,1,0
32,240,197062,2,0,B|112:240|112:240,2,70
32,176,197812,1,0
32,128,198062,2,0,B|48:80|80:64|128:48|144:48|144:48,1,140
416,48,199812,2,0,B|448:80|464:128|464:176,1,140
464,224,200562,2,0,B|480:304|448:352|352:352|368:352,1,140
352,336,201312,1,0
304,304,201562,1,0
256,336,201812,1,0
208,336,202062,2,0,B|96:336|96:336,2,70
32,48,204062,5,0
80,48,204312,1,0
128,48,204562,1,0
160,160,205062,2,0,B|224:96|224:96|288:192|288:192|336:128|336:128,1,280
400,48,206562,1,0
256,192,206812,12,8,208062
400,320,208562,5,0
288,320,209062,1,0
240,320,209312,1,0
192,320,209562,1,0
192,256,209812,2,0,B|96:256|96:256|96:208|96:208|32:208|32:208,1,210
256,192,214062,5,8
256,304,214562,2,0,B|336:336|400:336|432:288|448:272|448:272,1,210
432,224,215562,1,8
432,224,215812,1,8
320,256,216312,2,0,B|256:288|192:272|176:240,1,140
160,208,217062,2,0,B|144:160|96:112|48:96,1,140
80,48,217812,1,0
128,80,218062,2,0,B|176:128|240:144|304:128|384:64|352:64,1,210
368,80,219062,1,8
368,128,219312,1,8
368,176,219562,1,8
368,224,219812,1,8
336,272,220062,2,8,B|256:320|176:320|128:256|128:256,2,210
384,176,222062,6,0,B|384:128|352:80|304:48|304:48,1,140
320,64,222812,1,0
288,112,223062,2,0,B|256:48|208:16|160:0|160:0,1,140
144,32,223812,1,8
144,80,224062,1,8
144,128,224312,1,12
144,240,224812,2,8,B|160:304|208:320|240:336|240:336,2,140
128,192,226062,1,0
176,192,226312,1,0
224,192,226562,1,0
272,192,226812,1,0
272,240,227062,2,0,B|384:240|384:240,2,70
224,240,227812,1,4
16,240,229062,6,0,B|48:160|112:144|112:144,1,140
208,208,230062,1,2
256,208,230312,1,2
320,208,230562,1,2
384,208,230812,1,2
384,160,231062,1,2
336,160,231312,1,2
288,160,231562,1,2
240,160,231812,1,12
288,256,232312,1,0
176,256,232812,1,8
176,256,233062,1,8
176,256,233312,1,8
128,256,233562,2,0,B|48:256|48:256,2,70
16,240,234562,6,8,B|32:160|96:128|192:112,1,210
224,112,235562,2,8,B|320:128|384:176|416:224|384:272,1,210
368,272,236562,2,8,B|304:320|208:336|80:304|64:240,1,280
48,192,238062,1,0
48,128,238312,2,0,B|48:48|48:48,2,70
96,128,239062,2,0,B|192:128|192:128,2,70
144,96,239812,2,10,B|192:32|256:32|368:48|384:112|400:224|224:304,1,490
128,320,242062,1,0
80,224,242562,1,0
144,128,243062,1,0
80,48,243562,1,8
128,16,243812,1,12
256,192,244062,12,12,245562
256,256,246062,5,0
256,256,246312,1,0
256,256,246562,1,0
256,208,246812,2,0,B|256:128|256:128,2,70
256,256,247562,2,0,B|256:336|256:336,2,70
256,192,248312,12,2,249562
48,224,250062,5,2
464,224,250562,1,2
256,48,251062,1,2
256,320,251562,1,10
256,176,251812,1,14
64,144,257312,53,8
64,96,257562,1,0
400,144,261312,37,8
400,96,261562,1,8
32,192,270062,5,0
80,192,270312,1,0
128,192,270562,1,0
240,192,271062,5,0
288,192,271312,1,0
288,240,271562,1,0
240,240,271812,1,0
192,240,272062,1,0
144,240,272312,1,0
96,240,272562,1,0
160,144,273062,2,0,B|288:240|288:240,1,140
304,128,274062,6,0,B|176:256|176:256,1,140
96,272,275062,1,0
144,272,275312,1,0
256,272,275812,2,0,B|336:272|336:272,3,70
208,272,277062,2,8,B|304:160|304:160,1,140
368,64,278062,2,0,B|528:64|528:64,1,140
496,176,279062,2,0,B|352:176|352:176,1,140
352,224,279812,1,0
304,224,280062,2,0,B|192:224|192:224,2,70
304,160,280812,1,0
304,112,281062,1,0
256,112,281312,1,0
208,112,281562,1,0
96,192,282062,5,0
368,192,282562,1,0
256,320,283062,1,0
256,48,283562,1,0
256,192,284062,12,0,287062
