osu file format v11

[General]
AudioFilename: yuragi2.mp3
AudioLeadIn: 1000
PreviewTime: 14432
Countdown: 0
SampleSet: Normal
StackLeniency: 0.7
Mode: 0
LetterboxInBreaks: 0

[Editor]
DistanceSpacing: 1
BeatDivisor: 4
GridSize: 8

[Metadata]
Title:Yuragi
TitleUnicode:Yuragi
Artist:Hanatan
ArtistUnicode:Hanatan
Creator:happy30
Version:Normal
Source:
Tags:lily niki Kite
BeatmapID:142830
BeatmapSetID:45335

[Difficulty]
HPDrainRate:2
CircleSize:3
OverallDifficulty:3
ApproachRate:4
SliderMultiplier:0.6
SliderTickRate:1

[Events]
//Background and Video events
0,0,"yuragi2.jpg"
//Break Periods
2,140338,150485
//Storyboard Layer 0 (Background)
//Storyboard Layer 1 (Fail)
//Storyboard Layer 2 (Pass)
//Storyboard Layer 3 (Foreground)
//Storyboard Sound Samples
//Background Colour Transformations
3,100,163,162,255

[TimingPoints]
1472,333.333333333333,4,1,1,85,1,0
41471,-66.6666666666667,4,1,1,85,0,1
76138,-66.6666666666667,4,1,1,85,0,0
78138,-100,4,1,1,85,0,0
105471,-66.6666666666667,4,1,1,85,0,1
140138,-66.6666666666667,4,1,1,85,0,0
151805,-100,4,2,1,85,0,0
153305,-100,4,2,1,85,0,0
154471,-100,4,1,1,85,0,0
154638,-83.3333333333333,4,1,1,85,0,1
155471,-66.6666666666667,4,1,1,85,0,1
189305,-66.6666666666667,4,1,1,85,0,0
193638,-66.6666666666667,4,2,1,5,0,0

[Colours]
Combo1 : 255,128,128
Combo2 : 0,128,192
Combo3 : 23,232,143
Combo4 : 128,128,128

[HitObjects]
288,320,1472,2,0,B|381:404|475:320,1,210,4|0,0:0|0:0,0:0:0
416,264,2971,2,0,B|336:184|304:264|224:200,1,210,0|4,0:0|0:0,0:0:0
80,112,4805,2,0,B|48:160|64:208,2,90
136,48,6138,1,0,0:0:0
224,192,6805,6,0,B|304:272|224:304|288:384,1,210,4|0,0:0|0:0,0:0:0
360,336,8305,2,0,B|444:242|360:148,1,210,0|4,0:0|0:0,0:0:0
232,256,10138,2,0,B|184:280|136:256,1,90,0|0,0:0|0:0,0:0:0
256,80,11471,1,0,0:0:0
416,32,12138,6,0,B|448:104|400:152|440:208,1,180,4|0,0:0|0:0,0:0:0
360,304,13638,2,0,B|368:256|336:216,1,90
272,168,14471,5,0,0:0:0
272,168,14805,2,0,B|176:144,1,90,4|0,0:0|0:0,0:0:0
64,112,15805,1,8,0:0:0
0,272,16471,1,0,0:0:0
48,344,16805,2,0,B|112:376|176:344,1,120,0|4,0:0|0:0,0:0:0
264,280,17971,2,0,B|272:224|304:192,1,90
448,120,19138,1,0,0:0:0
488,192,19471,1,8,0:0:0
368,80,20138,6,0,B|272:56,1,90,4|0,0:0|0:0,0:0:0
176,128,21138,1,0,0:0:0
288,256,21804,1,0,0:0:0
240,328,22138,2,0,B|176:360|112:328,1,120,8|0,0:0|0:0,0:0:0
16,272,23305,1,0,0:0:0
120,200,23805,1,0,0:0:0
236,80,24471,2,0,B|260:104|292:104,1,60,0|8,0:0|0:0,0:0:0
360,336,25471,5,0,0:0:0
272,248,25971,1,0,0:0:0
384,192,26471,1,0,0:0:0
456,40,27138,2,0,B|432:64|400:64,1,60,0|8,0:0|0:0,0:0:0
320,88,27805,5,0,0:0:0
240,56,28138,2,0,B|160:128|168:224,1,180
72,352,29805,2,0,B|80:320|64:288,1,60,0|8,0:0|0:0,0:0:0
24,216,30471,5,0,0:0:0
80,152,30805,2,0,B|256:200,1,180,4|0,0:0|0:0,0:0:0
400,120,32471,2,0,B|408:88|392:56,1,60,0|8,0:0|0:0,0:0:0
320,32,33138,5,0,0:0:0
256,88,33471,2,0,B|224:168|288:192|232:272,1,180
104,360,35138,1,0,0:0:0
24,208,35805,5,0,0:0:0
96,160,36138,1,4,0:0:0
216,200,36638,1,0,0:0:0
256,320,37138,1,0,0:0:0
400,232,37805,2,0,B|408:160|448:120,1,120
496,56,38805,5,4,0:0:0
416,24,39138,1,0,0:0:0
312,160,39805,1,0,0:0:0
240,200,40138,2,0,B|200:248|168:216|136:256,1,120,0|0,0:0|0:0,0:0:0
280,360,41471,6,0,B|384:408|440:304,1,179.999994635582,4|8,0:0|0:0,0:0:0
400,232,42471,2,0,B|464:104,2,134.999995976687,0|0|8,0:0|0:0|0:0,0:0:0
320,264,43805,1,0,0:0:0
232,272,44138,2,0,B|152:128|96:272|8:120,1,269.999991953373,4|0,0:0|0:0,0:0:0
168,40,45805,1,0,0:0:0
248,72,46138,2,0,B|264:120|264:168,1,89.9999973177911,8|0,0:0|0:0,0:0:0
352,128,46805,6,0,B|384:216|376:312,1,179.999994635582,4|8,0:0|0:0,0:0:0
296,344,47805,2,0,B|152:368,2,134.999995976687,0|0|8,0:0|0:0|0:0,0:0:0
256,264,49139,1,0,0:0:0
184,208,49472,2,0,B|264:64|320:208|408:56,1,269.999991953373,4|0,0:0|0:0,0:0:0
480,232,51139,1,0,0:0:0
392,200,51472,2,0,B|376:248|376:296,1,89.9999973177911,8|0,0:0|0:0,0:0:0
296,336,52138,6,0,B|200:400|128:320,1,179.999994635582,4|8,0:0|0:0,0:0:0
112,240,53138,2,0,B|152:104,2,134.999995976687,0|0|8,0:0|0:0|0:0,0:0:0
176,304,54472,1,0,0:0:0
256,256,54805,2,0,B|336:112|392:256|480:104,1,269.999991953373,4|0,0:0|0:0,0:0:0
384,16,56472,1,0,0:0:0
296,40,56805,2,0,B|312:88|312:136,1,89.9999973177911,8|0,0:0|0:0,0:0:0
224,120,57472,6,0,B|192:208|200:304,1,179.999994635582,4|8,0:0|0:0,0:0:0
280,344,58472,2,0,B|424:368,2,134.999995976687,0|0|8,0:0|0:0|0:0,0:0:0
312,256,59806,1,0,0:0:0
224,232,60139,2,0,B|144:88|88:232|0:80,1,269.999991953373,4|0,0:0|0:0,0:0:0
32,312,61806,1,0,0:0:0
112,352,62139,2,0,B|160:336|208:336,1,89.9999973177911,8|0,0:0|0:0,0:0:0
248,264,62805,6,0,B|320:320|424:288,1,179.999994635582,4|8,0:0|0:0,0:0:0
440,200,63805,2,0,B|352:160|312:56,1,179.999994635582
232,64,64805,2,0,B|248:112|248:160,1,89.9999973177911,8|0,0:0|0:0,0:0:0
160,128,65471,2,0,B|136:224|144:320,1,179.999994635582,4|8,0:0|0:0,0:0:0
216,360,66471,2,0,B|240:264|232:168,1,179.999994635582
192,104,67471,1,8,0:0:0
256,192,68138,12,4,76138,0:0:0
208,272,78471,5,0,0:0:0
208,272,78805,2,0,B|232:176,1,90,4|0,0:0|0:0,0:0:0
328,112,79805,1,0,0:0:0
440,240,80471,1,0,0:0:0
408,320,80805,2,0,B|344:352|280:320,1,120,8|0,0:0|0:0,0:0:0
184,264,81971,2,0,B|176:208|144:176,1,90
72,32,83138,1,0,0:0:0
24,96,83471,1,8,0:0:0
0,264,84138,6,0,B|96:240,1,90,4|0,0:0|0:0,0:0:0
168,336,85138,1,0,0:0:0
296,224,85804,1,0,0:0:0
352,288,86138,2,0,B|416:320|480:288,1,120,8|0,0:0|0:0,0:0:0
512,176,87305,1,0,0:0:0
440,72,87805,1,0,0:0:0
272,64,88471,2,0,B|248:88|216:88,1,60,0|8,0:0|0:0,0:0:0
72,176,89471,5,4,0:0:0
192,216,89971,1,0,0:0:0
312,184,90471,1,0,0:0:0
480,216,91138,2,0,B|504:240|504:272,1,60,0|8,0:0|0:0,0:0:0
456,336,91805,1,0,0:0:0
376,360,92138,6,0,B|304:280|208:288,1,180
64,360,93805,2,0,B|72:328|56:296,1,60,0|8,0:0|0:0,0:0:0
24,224,94471,1,0,0:0:0
80,160,94805,6,0,B|256:208,1,180,4|0,0:0|0:0,0:0:0
408,280,96471,2,0,B|416:312|400:344,1,60,0|8,0:0|0:0,0:0:0
328,376,97138,1,0,0:0:0
256,328,97471,6,0,B|224:248|288:224|232:144,1,180,4|0,0:0|0:0,0:0:0
368,48,99138,1,0,0:0:0
480,176,99805,1,0,0:0:0
408,216,100138,5,4,0:0:0
296,168,100638,1,0,0:0:0
176,208,101138,1,0,0:0:0
16,168,101805,2,0,B|24:96|64:56,1,120
144,32,102805,5,0,0:0:0
216,72,103138,1,0,0:0:0
208,240,103805,1,0,0:0:0
272,184,104138,2,0,B|312:232|344:200|376:240,1,120,0|8,0:0|0:0,0:0:0
232,360,105471,6,0,B|128:408|72:304,1,179.999994635582,4|8,0:0|0:0,0:0:0
32,240,106471,2,0,B|144:152,1,134.999995976687
272,192,107471,1,8,0:0:0
296,368,108138,2,0,B|376:224|432:368|520:216,1,269.999991953373,4|0,0:0|0:0,0:0:0
408,80,109805,1,0,0:0:0
320,104,110138,2,0,B|304:152|304:200,1,89.9999973177911,8|0,0:0|0:0,0:0:0
224,152,110805,6,0,B|192:240|200:336,1,179.999994635582,4|8,0:0|0:0,0:0:0
272,376,111805,1,0,0:0:0
352,264,112305,2,0,B|376:192|352:128,1,134.999995976687,0|8,0:0|0:0,0:0:0
312,56,113139,1,0,0:0:0
232,24,113471,1,4,0:0:0
112,160,114138,1,8,0:0:0
200,128,114471,1,0,0:0:0
296,280,115139,1,0,0:0:0
216,240,115472,2,0,B|200:288|200:336,1,89.9999973177911,8|0,0:0|0:0,0:0:0
112,352,116138,6,0,B|48:256|128:184,1,179.999994635582,4|8,0:0|0:0,0:0:0
200,144,117138,2,0,B|336:184,1,134.999995976687
432,88,118138,1,8,0:0:0
472,168,118472,1,0,0:0:0
424,240,118805,2,0,B|344:384|288:240|200:392,1,269.999991953373,4|0,0:0|0:0,0:0:0
56,280,120472,1,0,0:0:0
120,216,120805,2,0,B|168:232|216:232,1,89.9999973177911,8|0,0:0|0:0,0:0:0
240,144,121472,6,0,B|328:112|424:120,1,179.999994635582,4|8,0:0|0:0,0:0:0
480,184,122472,2,0,B|456:328,1,134.999995976687
328,360,123471,1,8,0:0:0
264,296,123806,1,0,0:0:0
264,208,124139,2,0,B|344:64|400:208|488:56,1,269.999991953373,4|0,0:0|0:0,0:0:0
432,312,126139,2,0,B|384:296|336:296,1,89.9999973177911,8|0,0:0|0:0,0:0:0
264,248,126805,6,0,B|192:304|88:272,1,179.999994635582,4|8,0:0|0:0,0:0:0
64,192,127805,2,0,B|152:152|176:48,1,179.999994635582
264,64,128805,2,0,B|248:112|248:160,1,89.9999973177911,8|0,0:0|0:0,0:0:0
336,136,129471,2,0,B|360:232|352:328,1,179.999994635582,4|8,0:0|0:0,0:0:0
288,376,130471,1,0,0:0:0
136,272,131138,5,0,0:0:0
200,208,131471,1,8,0:0:0
288,184,131805,1,0,0:0:0
376,208,132138,1,4,0:0:0
256,192,132471,12,4,135471,0:0:0
256,192,135805,12,4,140138,0:0:0
256,192,151805,6,0,B|256:256,3,60,0|0|0|0,0:0|0:0|0:0|0:0,0:0:0
360,200,153471,6,0,B|360:104|256:48,1,180
243,55,154638,6,0,B|152:104|152:200,1,180.000004291535,4|8,0:0|0:0,0:0:0
208,272,155805,1,0,0:0:0
152,344,156138,2,0,B|72:384|24:304,1,134.999995976687,4|0,0:0|0:0,0:0:0
16,296,156805,2,0,B|56:224|128:224,1,134.999995976687,8|0,0:0|0:0,0:0:0
32,128,157805,1,0,0:0:0
88,56,158138,1,8,0:0:0
168,24,158471,1,0,0:0:0
248,80,158805,6,0,B|308:180|217:240|278:341,1,269.999991953373,4|0,0:0|0:0,0:0:0
464,248,160805,1,8,0:0:0
400,184,161138,1,0,0:0:0
312,184,161471,2,0,B|224:232|224:344,1,179.999994635582,4|8,0:0|0:0,0:0:0
144,368,162471,2,0,B|136:264|48:208,1,179.999994635582
72,128,163471,1,8,0:0:0
152,160,163805,1,0,0:0:0
208,232,164138,6,8,B|284:319|369:251|446:341,1,269.999991953373,4|0,0:0|0:0,0:0:0
360,96,166138,1,8,0:0:0
280,136,166471,1,0,0:0:0
200,96,166805,2,0,B|120:56|72:136,1,134.999995976687,4|0,0:0|0:0,0:0:0
64,144,167472,2,0,B|104:216|176:216,1,134.999995976687,8|0,0:0|0:0,0:0:0
296,264,168471,1,0,0:0:0
224,312,168805,1,8,0:0:0
296,368,169138,1,0,0:0:0
384,352,169471,6,0,B|444:251|353:191|414:90,1,269.999991953373,4|0,0:0|0:0,0:0:0
208,296,171471,1,8,0:0:0
128,336,171805,1,0,0:0:0
48,296,172138,2,0,B|0:200|72:120,1,179.999994635582,4|8,0:0|0:0,0:0:0
144,176,173138,2,0,B|320:208,1,179.999994635582
368,280,174138,2,0,B|176:320,1,179.999994635582,8|4,0:0|0:0,0:0:0
24,216,175471,5,8,0:0:0
80,144,175805,1,0,0:0:0
288,312,176805,1,8,0:0:0
416,136,177471,2,0,B|352:40|248:88,1,179.999994635582,4|8,0:0|0:0,0:0:0
208,152,178471,2,0,B|224:336,1,179.999994635582
136,312,179471,5,8,0:0:0
72,248,179805,1,0,0:0:0
112,168,180138,1,4,0:0:0
256,192,180305,12,4,189305,0:0:0
344,344,190638,5,0,0:0:0
400,280,190971,2,0,B|360:208|280:240,1,134.999995976687,4|0,0:0|0:0,0:0:0
176,160,191971,5,0,0:0:0
120,96,192305,2,0,B|160:24|240:56,1,135.000005149841,4|0,0:0|0:0,0:0:0
256,232,193471,5,4,0:0:0
256,192,193638,12,0,200138,0:0:0
