osu file format v14

[General]
AudioFilename: Hanatan - You and beautiful world.mp3
AudioLeadIn: 0
PreviewTime: 121550
Countdown: 0
SampleSet: Soft
StackLeniency: 0.7
Mode: 0
LetterboxInBreaks: 1
EpilepsyWarning: 1
WidescreenStoryboard: 1

[Editor]
Bookmarks: 37550,49550,91550,115550,169540,187540,211540,235540,259540,271540,283540,289540
DistanceSpacing: 1.1
BeatDivisor: 4
GridSize: 8
TimelineZoom: 3.307999

[Metadata]
Title:You and beautiful world
TitleUnicode:You and beautiful world
Artist:Hanatan
ArtistUnicode:花たん
Creator:den0saur
Version:Kokoronashi
Source:
Tags:Darky1 ゆよゆっぺ yuyoyuppe ユリカ yurica koma'n こまん vocaloid megurine luka utaite misericordia
BeatmapID:1643632
BeatmapSetID:782784

[Difficulty]
HPDrainRate:6
CircleSize:4
OverallDifficulty:7.5
ApproachRate:8.5
SliderMultiplier:1.4
SliderTickRate:1

[Events]
//Background and Video events
0,0,"background.jpg",0,0
//Break Periods
2,286740,288790
//Storyboard Layer 0 (Background)
//Storyboard Layer 1 (Fail)
//Storyboard Layer 2 (Pass)
//Storyboard Layer 3 (Foreground)
//Storyboard Sound Samples

[TimingPoints]
1550,375,4,2,1,40,1,0
1550,-133.333333333333,4,2,1,40,0,0
13550,-117.647058823529,4,2,1,60,0,0
37550,-200,4,2,2,30,0,0
42612,-200,4,2,2,40,0,0
43550,-200,4,2,2,35,0,0
47675,-200,4,2,2,40,0,0
49175,-153.846153846153,4,2,1,60,0,0
49550,-133.333333333333,4,2,1,50,0,0
85643,-133.333333333333,4,2,2,50,0,0
91550,-100,4,2,1,70,0,1
115550,-200,4,2,2,30,0,0
119675,-222.222222222222,4,2,2,40,0,0
121175,-200,4,2,2,15,0,0
121550,-200,4,2,2,30,0,0
126612,-200,4,2,2,40,0,0
127550,-200,4,2,2,35,0,0
131675,-200,4,2,2,45,0,0
133550,-200,4,2,2,40,0,0
136550,-200,4,2,2,30,0,0
138612,375,4,2,2,30,1,0
138612,-200,4,2,2,30,0,0
139737,-200,4,2,2,20,0,0
140112,503.355704697987,4,2,2,20,1,0
140112,-200,4,2,2,20,0,0
140615,594.059405940594,4,2,2,20,1,0
140615,-200,4,2,2,20,0,0
140912,612.244897959184,4,2,2,20,1,0
141218,810.810810810811,4,2,2,20,1,0
141218,-200,4,2,2,20,0,0
141623,1102.94117647059,4,2,2,20,1,0
142174,794.176042356056,4,2,2,35,1,0
145350,399.733510992672,4,2,2,40,1,0
145540,375,4,2,2,30,1,0
145540,-200,4,2,2,30,0,0
155665,-200,4,2,2,35,0,0
157540,-200,4,2,2,45,0,0
160540,-200,4,2,2,35,0,0
163540,-200,4,2,2,45,0,0
165040,-200,4,2,2,40,0,0
166540,-200,4,2,2,35,0,0
167665,-153.846153846153,4,2,2,35,0,0
167946,-153.846153846153,4,2,2,5,0,0
168040,-153.846153846153,4,2,2,35,0,0
168415,-153.846153846153,4,2,2,37,0,0
168602,-133.333333333333,4,2,2,39,0,0
168790,-133.333333333333,4,2,2,42,0,0
168977,-133.333333333333,4,2,2,45,0,0
169165,-133.333333333333,4,2,1,60,0,0
169540,-133.333333333333,4,2,1,50,0,0
187540,-133.333333333333,4,2,2,90,0,0
187727,-133.333333333333,4,2,2,50,0,0
208540,-133.333333333333,4,2,2,55,0,0
210040,-133.333333333333,4,2,2,60,0,0
210790,-133.333333333333,4,2,2,50,0,0
211540,-200,4,2,2,35,0,0
222040,-200,4,2,2,40,0,0
223540,-181.818181818182,4,2,2,45,0,0
232540,-222.222222222222,4,2,2,30,0,0
234602,-80,4,2,1,80,0,0
235165,-200,4,2,1,80,0,0
235540,-76.9230769230769,4,2,1,85,0,1
259540,-83.3333333333333,4,2,1,85,0,1
283540,-80,4,2,1,85,0,0
283633,-80,4,2,2,70,0,0
284290,-80,4,2,2,60,0,0
285040,-80,4,2,2,50,0,0
289540,-200,4,2,2,35,0,0
291602,-200,4,2,2,30,0,0
292540,-200,4,2,2,35,0,0
294602,-200,4,2,2,40,0,0
295540,-200,4,2,2,30,0,0
297602,-200,4,2,2,25,0,0
298540,-200,4,2,2,30,0,0
299665,-200,4,2,2,35,0,0
301559,375,4,2,2,30,1,0
301559,-200,4,2,2,30,0,0
302752,372.670807453416,4,2,2,30,1,0
302752,-200,4,2,2,30,0,0
303311,389.61038961039,4,2,2,30,1,0
303699,382.165605095541,4,2,2,30,1,0
303699,-200,4,2,2,30,0,0
305250,475.435816164818,4,2,2,30,1,0
305725,408.163265306122,4,2,2,25,1,0
305725,-200,4,2,2,25,0,0
306391,530.973451327434,4,2,2,25,1,0
306656,491.803278688525,4,2,2,25,1,0
307393,625,4,2,2,30,1,0
309893,560.747663551402,4,2,2,5,1,0
310453,468.75,4,2,2,5,1,0
311859,517.241379310345,4,2,2,5,1,0
312376,645.161290322581,4,2,2,5,1,0
313021,731.707317073171,4,2,2,5,1,0

[Colours]
Combo1 : 127,127,127
Combo2 : 173,255,95
Combo3 : 17,254,176
Combo4 : 255,66,80
Combo5 : 255,94,55
Combo6 : 231,78,231
Combo7 : 119,101,224
Combo8 : 196,196,196

[HitObjects]
71,280,1550,118,0,P|73:228|69:166,1,105.000004005432,0|0,1:0|0:0,1:0:0:0:
141,121,2112,1,0,1:0:0:0:
141,121,2300,1,10,0:0:0:0:
384,230,2863,1,8,1:2:0:0:
512,125,3237,1,0,1:0:0:0:
361,67,3612,1,0,0:0:0:0:
361,67,3706,1,0,0:0:0:0:
361,67,3800,1,8,0:0:0:0:
417,144,3987,1,0,1:0:0:0:
384,230,4175,2,0,L|386:266,2,26.2500010013581,0|0|0,1:0|0:0|0:0,0:0:0:0:
449,348,4550,102,0,P|397:346|335:350,1,105.000004005432,0|0,1:0|0:0,1:0:0:0:
290,278,5112,1,0,1:0:0:0:
290,278,5300,1,10,0:0:0:0:
128,378,5674,1,0,0:0:0:0:
128,378,5768,1,0,0:0:0:0:
128,378,5862,2,0,L|124:314,1,52.5000020027161,0|0,1:0|0:0,1:0:0:0:
39,357,6238,1,0,1:0:0:0:
347,216,6611,1,0,0:0:0:0:
347,216,6706,1,0,0:0:0:0:
347,216,6800,1,8,0:0:0:0:
436,195,6987,1,0,1:0:0:0:
290,138,7175,1,2,1:2:0:0:
290,138,7363,1,2,0:0:0:0:
197,9,7550,6,0,P|195:60|199:123,1,105.000004005432,0|0,1:0|0:0,1:0:0:0:
127,168,8112,1,0,1:0:0:0:
127,168,8300,1,10,0:0:0:0:
352,257,8862,1,8,1:2:0:0:
249,383,9236,1,0,1:0:0:0:
191,235,9611,1,0,0:0:0:0:
191,235,9705,1,0,0:0:0:0:
191,235,9799,1,8,0:0:0:0:
266,290,9986,1,0,1:0:0:0:
266,290,10175,2,0,L|314:287,2,26.2500010013581,0|0|0,1:0|0:0|0:0,0:0:0:0:
129,340,10550,102,0,P|71:336|16:339,1,105.000004005432,0|0,1:0|0:0,1:0:0:0:
0,251,11112,1,0,1:0:0:0:
0,251,11300,1,10,0:0:0:0:
188,209,11675,1,0,0:0:0:0:
188,209,11768,1,0,0:0:0:0:
188,209,11862,2,0,L|190:145,1,52.5000020027161,0|0,1:0|0:0,1:0:0:0:
269,106,12238,1,0,1:0:0:0:
322,223,12425,1,0,0:0:0:0:
408,177,12611,5,0,0:0:0:0:
408,177,12705,1,0,0:0:0:0:
408,177,12799,2,0,P|410:150|406:113,1,52.5000020027161,8|0,0:0|1:0,0:0:0:0:
435,268,13175,1,2,1:2:0:0:
472,60,13363,1,2,0:0:0:0:
435,268,13550,6,0,P|374:273|315:236,1,119.000002269745,2|0,1:0|0:0,1:0:0:0:
292,167,14112,1,0,1:0:0:0:
97,339,14300,2,0,P|161:343|220:298,1,119.000002269745,10|0,0:1|0:0,0:0:0:0:
240,238,14863,1,0,1:0:0:0:
273,39,15050,2,0,P|299:91|289:149,1,119.000002269745,2|2,0:1|0:0,0:0:0:0:
191,106,15612,1,0,0:0:0:0:
191,106,15706,1,0,0:0:0:0:
191,106,15800,2,0,P|161:102|120:101,1,59.5000011348725,10|0,0:1|1:0,0:0:0:0:
396,63,16175,2,0,P|429:67|467:68,1,59.5000011348725,2|0,1:0|1:0,0:0:0:0:
155,211,16550,6,0,P|96:210|21:219,1,119.000002269745,2|0,1:0|0:0,1:0:0:0:
266,154,17112,1,0,1:0:0:0:
392,185,17300,2,0,P|451:186|526:177,1,119.000002269745,10|2,0:1|0:0,0:0:0:0:
346,95,17862,1,0,1:0:0:0:
307,246,18050,2,0,P|308:305|299:380,1,119.000002269745,2|2,0:1|0:0,0:0:0:0:
448,140,18611,1,0,0:0:0:0:
448,140,18706,1,0,0:0:0:0:
448,140,18800,2,0,P|444:110|443:69,1,59.5000011348725,10|0,0:1|1:0,0:0:0:0:
381,5,19175,1,2,1:0:0:0:
406,228,19363,1,2,0:1:0:0:
272,128,19550,102,0,P|215:111|164:82,1,119.000002269745,2|2,1:0|0:0,1:0:0:0:
254,21,20112,1,0,1:0:0:0:
204,306,20300,2,0,P|248:265|299:235,1,119.000002269745,10|2,0:1|0:0,0:0:0:0:
80,156,20863,1,0,1:0:0:0:
80,156,21050,2,0,P|91:214|95:273,1,119.000002269745,2|0,0:1|0:0,0:0:0:0:
188,192,21612,1,0,0:0:0:0:
188,192,21706,1,0,0:0:0:0:
188,192,21800,1,10,1:1:0:0:
104,364,21987,1,2,1:2:0:0:
104,364,22175,2,0,L|31:372,1,59.5000011348725,2|0,1:1|0:0,0:0:0:0:
209,329,22550,6,0,P|270:334|329:297,1,119.000002269745,2|0,1:0|0:0,1:0:0:0:
352,228,23112,1,0,1:0:0:0:
81,235,23300,2,0,P|52:183|57:125,1,119.000002269745,10|2,0:1|0:0,0:0:0:0:
125,68,23863,1,0,1:0:0:0:
280,2,24050,2,0,L|274:63,1,59.5000011348725,2|0,0:1|1:0,0:0:0:0:
410,220,24425,1,2,0:0:0:0:
494,186,24611,1,0,0:0:0:0:
460,102,24800,1,10,0:1:0:0:
376,136,24987,1,2,1:2:0:0:
456,281,25175,1,2,1:1:0:0:
414,39,25363,1,2,0:1:0:0:
305,201,25550,102,0,P|243:204|184:165,1,119.000002269745,2|2,1:0|0:0,1:0:0:0:
102,177,26111,1,0,1:0:0:0:
395,168,26299,2,0,P|440:121|446:43,1,119.000002269745,10|2,0:1|0:0,0:0:0:0:
512,0,26861,1,0,1:0:0:0:
442,266,27049,2,0,L|362:260,1,59.5000011348725,2|0,0:1|1:0,0:0:0:0:
512,203,27424,1,0,0:0:0:0:
298,313,27611,1,0,0:0:0:0:
298,313,27705,1,0,0:0:0:0:
298,313,27799,2,0,P|302:343|300:382,1,59.5000011348725,10|0,0:1|1:0,0:0:0:0:
324,103,28174,2,0,P|320:70|324:31,1,59.5000011348725,2|0,1:0|1:0,0:0:0:0:
148,145,28550,6,0,P|131:205|155:266,1,119.000002269745,2|0,1:1|0:0,1:1:0:0:
242,142,29112,1,0,1:0:0:0:
120,346,29300,2,0,P|51:361|1:348,1,119.000002269745,10|2,0:1|0:0,0:0:0:0:
206,380,29862,1,0,1:0:0:0:
235,290,30050,1,2,0:1:0:0:
311,351,30237,2,0,P|340:349|370:350,1,59.5000011348725,0|2,1:0|0:0,0:0:0:0:
441,153,30612,1,0,0:0:0:0:
441,153,30707,1,0,0:0:0:0:
441,153,30801,2,0,P|409:153|369:149,1,59.5000011348725,10|0,0:1|1:0,0:0:0:0:
417,51,31176,1,2,1:0:0:0:
405,248,31361,1,2,0:1:0:0:
166,164,31550,102,0,P|163:101|167:37,1,119.000002269745,2|0,1:0|0:0,1:0:0:0:
253,169,32111,1,0,1:0:0:0:
116,294,32300,2,0,P|120:327|119:364,1,59.5000011348725,10|0,0:1|0:0,0:0:0:0:
44,208,32674,1,0,0:0:0:0:
44,208,32863,1,0,1:0:0:0:
214,317,33050,2,0,P|283:312|331:263,1,119.000002269745,2|2,0:1|0:0,0:0:0:0:
372,126,33612,1,0,0:0:0:0:
372,126,33706,1,0,0:0:0:0:
372,126,33800,1,10,0:1:0:0:
413,308,33987,1,0,1:0:0:0:
457,227,34175,2,0,P|456:200|463:152,1,59.5000011348725,2|0,1:0|0:0,0:0:0:0:
278,198,34550,6,0,P|221:203|149:199,1,119.000002269745,2|2,1:0|0:0,1:0:0:0:
89,255,35112,1,0,1:0:0:0:
210,115,35300,2,0,P|207:83|208:43,1,59.5000011348725,10|0,0:1|0:0,0:0:0:0:
119,0,35675,1,2,0:0:0:0:
117,93,35862,1,0,1:0:0:0:
0,238,36050,2,0,P|2:270|0:310,1,59.5000011348725,2|0,1:0|1:0,0:0:0:0:
89,255,36425,1,2,0:0:0:0:
162,193,36612,1,2,0:0:0:0:
162,193,36706,1,2,0:0:0:0:
162,193,36800,2,0,P|132:179|98:157,1,59.5000011348725,10|0,0:1|1:0,0:0:0:0:
88,356,37175,1,2,1:1:0:0:
181,288,37363,1,2,0:1:0:0:
292,333,37550,70,0,L|335:327,1,35,2|0,0:0|0:0,0:0:0:0:
401,371,37925,1,0,0:0:0:0:
401,371,38112,1,0,0:0:0:0:
512,151,38674,2,0,L|468:145,1,35,2|0,0:0|0:0,0:0:0:0:
403,189,39049,1,0,0:0:0:0:
403,189,39236,1,0,0:0:0:0:
215,186,39613,1,0,0:0:0:0:
215,186,39800,2,0,L|210:149,1,35
290,114,40175,1,0,0:0:0:0:
67,281,40550,6,0,L|30:286,1,35,2|0,0:0|0:0,0:0:0:0:
2,367,40925,1,0,0:0:0:0:
2,367,41113,1,0,0:0:0:0:
361,172,41675,2,0,L|398:177,1,35
426,258,42050,1,0,0:0:0:0:
426,258,42238,1,0,0:0:0:0:
253,368,42612,1,0,0:0:0:0:
224,353,42799,1,0,0:0:0:0:
239,325,42986,1,0,0:0:0:0:
266,339,43174,1,0,0:0:0:0:
118,91,43550,102,0,L|115:56,2,35,2|0|0,0:0|0:0|0:0,0:0:0:0:
201,74,44112,1,0,0:0:0:0:
84,207,44675,2,0,L|87:244,2,35,2|0|0,0:0|0:0|0:0,0:0:0:0:
0,219,45237,1,0,0:0:0:0:
340,181,45612,1,0,0:0:0:0:
340,181,45800,2,0,L|383:186,2,35
508,84,46550,6,0,L|513:40,1,35,2|0,0:0|0:0,0:0:0:0:
433,8,46925,1,0,0:0:0:0:
433,8,47113,1,0,0:0:0:0:
347,283,47675,2,0,L|352:327,1,35
272,359,48050,1,0,0:0:0:0:
191,337,48238,1,0,0:0:0:0:
191,337,48425,1,0,0:0:0:0:
16,353,48612,2,0,L|18:377,2,17.5
80,298,48987,1,0,0:0:0:0:
26,133,49175,2,2,P|27:166|44:196,1,68.2499968757631,2|0,0:0|0:0,1:0:0:0:
20,214,49550,6,0,B|105:194|89:239|181:217,1,157.500006008148,0|0,1:0|1:0,0:0:0:0:
256,236,50300,2,0,P|258:263|254:289,1,52.5000020027161,10|0,0:0|0:0,0:0:0:0:
283,377,50675,1,0,0:0:0:0:
343,159,50862,2,0,P|337:107|341:55,1,105.000004005432,8|0,0:2|1:0,1:0:0:0:
421,0,51425,1,0,0:0:0:0:
436,98,51612,1,0,0:0:0:0:
436,98,51706,1,0,0:0:0:0:
436,98,51800,1,8,0:0:0:0:
336,342,52175,2,0,L|334:378,3,26.2500010013581,0|0|0|0,1:0|0:0|0:0|0:0,1:0:0:0:
403,298,52550,86,0,P|332:314|248:285,1,157.500006008148,0|0,1:0|1:0,0:0:0:0:
173,331,53300,2,0,L|167:394,1,52.5000020027161,10|0,0:0|0:0,0:0:0:0:
89,212,53674,1,0,0:0:0:0:
89,212,53768,1,0,0:0:0:0:
89,212,53862,2,0,L|85:148,1,52.5000020027161,0|0,1:0|0:0,1:0:0:0:
36,63,54238,1,0,1:0:0:0:
36,63,54425,2,0,P|86:70|151:65,1,105.000004005432,0|8,0:0|0:0,0:0:0:0:
397,106,55175,1,2,1:1:0:0:
400,4,55363,1,2,0:1:0:0:
292,0,55550,22,0,P|286:78|292:156,1,157.500006008148,0|0,1:0|1:0,0:0:0:0:
204,177,56300,2,0,L|135:184,1,52.5000020027161,10|0,0:0|0:0,0:0:0:0:
95,255,56675,1,0,0:0:0:0:
340,232,56862,2,0,L|449:243,1,105.000004005432,8|0,0:2|1:0,1:0:0:0:
510,167,57425,1,0,0:0:0:0:
421,152,57613,1,0,0:0:0:0:
421,152,57706,1,0,0:0:0:0:
421,152,57800,1,8,0:0:0:0:
122,290,58175,2,0,L|118:263,3,26.2500010013581,0|0|0|0,1:0|0:0|0:0|0:0,1:0:0:0:
53,331,58550,86,0,B|157:343|104:301|207:314,1,157.500006008148,0|0,1:0|1:0,0:0:0:0:
289,384,59300,1,10,0:0:0:0:
289,384,59487,1,0,0:0:0:0:
358,308,59675,1,0,0:0:0:0:
358,308,59768,1,0,0:0:0:0:
358,308,59862,2,0,P|355:282|356:256,1,52.5000020027161,0|0,1:0|0:0,1:0:0:0:
417,174,60238,1,0,1:0:0:0:
504,273,60425,1,0,0:0:0:0:
441,380,60612,1,0,0:0:0:0:
441,380,60707,1,0,0:0:0:0:
441,380,60800,1,8,0:0:0:0:
86,165,61175,1,2,1:1:0:0:
84,61,61363,1,2,0:1:0:0:
187,61,61550,22,0,P|189:115|185:166,1,105.000004005432,0|2,1:0|0:0,0:0:0:0:
272,128,62112,1,2,1:2:0:0:
267,228,62300,2,0,L|320:232,1,52.5000020027161,10|0,0:0|0:0,0:0:0:0:
311,320,62675,1,0,0:0:0:0:
118,283,62862,2,0,L|7:290,1,105.000004005432,8|0,0:0|1:0,1:0:0:0:
19,376,63425,1,0,0:0:0:0:
124,373,63612,1,0,0:0:0:0:
124,373,63706,1,0,0:0:0:0:
124,373,63800,1,8,0:0:0:0:
351,164,64175,2,0,L|377:167,3,26.2500010013581,0|0|0|0,1:0|0:0|0:0|0:0,1:0:0:0:
322,190,64550,86,0,P|375:182|425:190,1,105.000004005432,0|0,1:0|0:0,0:0:0:0:
478,116,65112,1,0,1:0:0:0:
478,116,65206,1,0,0:0:0:0:
478,116,65300,2,0,L|475:63,1,52.5000020027161,10|2,0:0|0:0,0:0:0:0:
502,263,65674,1,0,0:0:0:0:
502,263,65768,1,0,0:0:0:0:
502,263,65862,2,0,L|498:327,1,52.5000020027161,0|0,1:0|0:0,1:0:0:0:
384,384,66238,1,0,1:0:0:0:
384,384,66425,2,0,P|388:331|384:270,1,105.000004005432,0|8,0:0|0:0,0:0:0:0:
47,125,67175,1,2,1:1:0:0:
39,27,67363,1,2,0:1:0:0:
144,11,67550,22,0,P|151:63|151:116,1,105.000004005432,0|0,1:0|0:0,0:0:0:0:
240,159,68112,1,0,1:0:0:0:
240,159,68206,1,0,0:0:0:0:
240,159,68300,2,0,P|264:163|296:163,1,52.5000020027161,10|0,0:0|0:0,0:0:0:0:
183,247,68675,1,0,0:0:0:0:
270,300,68862,2,0,P|312:270|362:253,1,105.000004005432,8|0,0:0|1:0,1:0:0:0:
412,172,69425,1,0,0:0:0:0:
500,236,69612,1,0,0:0:0:0:
500,236,69706,1,0,0:0:0:0:
500,236,69800,1,10,0:0:0:0:
440,310,69986,1,2,0:0:0:0:
192,251,70175,2,0,L|195:225,3,26.2500010013581,2|0|0|0,1:2|0:0|0:0|0:0,1:0:0:0:
176,323,70550,86,0,P|173:271|157:222,1,105.000004005432,0|0,1:0|0:0,0:0:0:0:
100,133,71112,1,0,1:0:0:0:
100,133,71206,1,0,0:0:0:0:
100,133,71300,2,0,L|103:74,1,52.5000020027161,10|0,0:0|0:0,0:0:0:0:
13,208,71675,1,0,0:0:0:0:
13,208,71768,1,0,0:0:0:0:
13,208,71862,2,0,P|-3:159|0:107,1,105.000004005432,0|0,1:0|1:0,1:0:0:0:
191,132,72425,1,0,0:0:0:0:
202,42,72612,1,0,0:0:0:0:
202,42,72707,1,0,0:0:0:0:
202,42,72800,1,8,0:0:0:0:
450,220,73175,1,2,1:1:0:0:
467,342,73363,1,2,0:1:0:0:
344,358,73550,38,0,P|292:352|234:351,1,105.000004005432,4|0,1:2|0:0,1:0:0:0:
151,384,74112,1,0,1:0:0:0:
151,384,74300,1,10,0:1:0:0:
92,201,74675,1,2,0:0:0:0:
92,201,74862,2,0,P|144:206|202:208,1,105.000004005432,0|0,1:0|1:0,0:0:0:0:
389,100,75612,1,0,0:0:0:0:
389,100,75706,1,0,0:0:0:0:
389,100,75800,1,8,0:0:0:0:
398,0,75987,1,2,1:2:0:0:
311,35,76175,1,2,1:2:0:0:
346,235,76550,102,0,P|342:281|348:342,1,105.000004005432,2|0,1:2|0:0,1:0:0:0:
439,374,77112,1,2,1:2:0:0:
439,374,77300,1,10,0:1:0:0:
431,179,77675,1,2,0:0:0:0:
431,179,77768,1,0,0:0:0:0:
431,179,77862,2,0,P|456:183|484:182,1,52.5000020027161,0|0,1:0|0:0,0:0:0:0:
253,265,78237,2,0,P|227:269|200:269,1,52.5000020027161,0|0,1:0|0:0,0:0:0:0:
107,260,78612,1,0,0:0:0:0:
107,260,78706,1,0,0:0:0:0:
107,260,78800,1,8,0:0:0:0:
52,339,78988,1,0,1:0:0:0:
149,350,79175,1,2,1:1:0:0:
149,350,79362,1,2,0:1:0:0:
2,200,79550,6,0,P|5:151|0:87,1,105.000004005432,2|0,1:2|0:0,1:0:0:0:
82,47,80112,1,0,1:0:0:0:
82,47,80300,1,10,0:1:0:0:
250,40,80675,1,2,0:0:0:0:
250,40,80862,2,0,P|245:94|251:151,1,105.000004005432,0|0,1:0|1:0,0:0:0:0:
421,64,81612,1,0,0:0:0:0:
421,64,81707,1,0,0:0:0:0:
421,64,81800,1,8,0:0:0:0:
512,123,81987,1,0,1:0:0:0:
384,161,82175,2,0,P|386:194|383:225,1,52.5000020027161,2|0,1:2|0:0,0:0:0:0:
476,261,82550,101,2,1:2:0:0:
476,261,82737,1,0,1:0:0:0:
476,261,82925,1,2,0:0:0:0:
403,321,83112,1,2,1:2:0:0:
308,313,83300,1,10,0:1:0:0:
245,241,83488,1,2,0:0:0:0:
177,170,83675,1,2,0:0:0:0:
77,162,83863,1,0,1:0:0:0:
10,236,84050,1,2,0:0:0:0:
124,309,84237,2,0,P|124:274|118:246,1,52.5000020027161,0|0,1:0|0:0,0:0:0:0:
236,183,84612,5,0,0:0:0:0:
236,183,84706,1,0,0:0:0:0:
236,183,84799,1,8,0:0:0:0:
212,86,84986,1,0,1:0:0:0:
372,101,85174,1,2,1:1:0:0:
334,191,85361,1,2,0:1:0:0:
297,36,85549,1,2,1:2:0:0:
256,192,85643,12,2,90049,0:0:0:0:
21,211,91550,6,0,P|49:190|83:181,1,70,4|0,1:2|1:0,1:0:0:0:
271,174,91925,2,0,P|237:163|203:165,1,70,2|0,0:0|1:0,0:0:0:0:
168,336,92300,2,0,B|261:351|215:304|320:326,1,140,10|0,0:1|0:0,0:0:0:0:
375,234,92862,2,0,L|365:159,1,70,0|2,1:0|0:0,1:0:0:0:
426,384,93237,2,0,L|436:309,1,70,0|2,1:0|0:0,0:0:0:0:
436,104,93612,1,2,0:0:0:0:
436,104,93706,1,0,0:0:0:0:
436,104,93800,1,8,0:1:0:0:
506,219,93987,1,0,1:0:0:0:
357,236,94175,1,0,1:0:0:0:
287,116,94362,1,0,0:0:0:0:
287,116,94456,1,0,0:0:0:0:
287,116,94550,6,0,P|294:88|295:34,1,70,0|0,1:0|1:0,1:0:0:0:
439,83,94924,2,0,P|429:50|428:13,1,70,2|0,0:0|1:0,0:0:0:0:
246,242,95300,2,0,P|178:253|113:231,1,140,10|0,0:1|0:0,0:0:0:0:
6,302,95862,2,0,P|41:305|73:319,1,70,0|2,1:0|0:0,1:0:0:0:
356,300,96237,2,0,P|292:318|237:371,1,140,0|2,1:0|0:0,0:0:0:0:
144,384,96800,101,10,1:0:0:0:
215,169,97081,1,2,1:0:0:0:
6,78,97362,1,2,1:0:0:0:
70,206,97550,2,0,P|108:147|124:52,1,140,0|2,1:1|0:0,1:0:0:0:
219,71,98112,1,0,1:0:0:0:
481,102,98300,5,2,1:0:0:0:
275,196,98581,1,2,1:0:0:0:
162,0,98862,1,2,1:0:0:0:
343,61,99050,2,0,P|351:96|349:130,1,70,2|0,0:0|1:0,0:0:0:0:
421,199,99425,1,2,0:0:0:0:
344,267,99612,1,0,0:0:0:0:
344,267,99706,1,0,0:0:0:0:
344,267,99800,1,8,0:1:0:0:
275,196,99987,1,2,1:2:0:0:
190,384,100175,1,2,1:2:0:0:
190,384,100268,1,0,0:0:0:0:
190,384,100362,1,0,0:0:0:0:
190,384,100456,1,0,0:0:0:0:
190,384,100550,102,0,P|195:306|185:237,1,140,0|0,1:0|0:0,1:0:0:0:
93,233,101112,1,0,1:0:0:0:
293,340,101300,2,0,L|371:346,1,70,10|2,0:1|0:0,0:0:0:0:
456,317,101675,1,0,0:0:0:0:
353,108,101862,2,0,P|343:177|348:246,1,140,0|2,1:0|1:2,1:0:0:0:
512,140,102425,1,2,0:0:0:0:
450,37,102612,1,2,0:0:0:0:
447,233,102800,2,0,P|451:268|451:308,1,70,8|0,0:1|1:0,0:0:0:0:
369,366,103175,1,2,1:1:0:0:
357,266,103362,1,2,0:1:0:0:
222,125,103550,6,0,P|212:91|180:55,1,70,4|0,1:2|1:0,1:0:0:0:
237,245,103925,2,0,P|238:280|221:325,1,70,2|0,0:0|1:0,0:0:0:0:
75,143,104300,2,0,P|72:220|109:288,1,140,10|0,0:1|0:0,0:0:0:0:
53,383,104862,2,0,L|123:377,1,70,0|2,1:0|0:0,1:0:0:0:
348,287,105237,2,0,L|278:280,1,70,0|2,1:0|0:0,0:0:0:0:
190,246,105613,1,2,0:0:0:0:
190,246,105707,1,0,0:0:0:0:
190,246,105800,1,8,0:1:0:0:
336,193,105988,1,2,1:2:0:0:
445,301,106175,1,2,1:2:0:0:
299,368,106362,1,0,0:0:0:0:
299,368,106457,1,0,0:0:0:0:
299,368,106550,102,0,P|294:333|296:298,1,70,0|0,1:0|1:0,1:0:0:0:
436,207,106925,2,0,P|438:172|432:137,1,70,2|0,0:0|1:0,0:0:0:0:
265,7,107300,2,0,P|258:85|270:164,1,140,10|0,0:1|0:0,0:0:0:0:
382,44,107862,2,0,L|452:34,1,70,0|0,1:0|0:0,1:0:0:0:
162,91,108237,2,0,L|12:68,1,140,0|0,1:0|0:0,0:0:0:0:
76,198,108800,5,10,1:0:0:0:
291,127,109081,1,2,1:0:0:0:
437,299,109362,1,2,1:0:0:0:
305,254,109550,2,0,P|237:237|184:192,1,140,0|0,1:1|0:0,1:0:0:0:
193,92,110112,1,0,1:0:0:0:
361,71,110300,101,10,1:0:0:0:
146,0,110582,1,2,1:0:0:0:
0,172,110863,1,2,1:0:0:0:
237,124,111050,2,0,P|238:89|235:54,1,70,0|0,0:1|1:0,0:0:0:0:
318,203,111425,1,2,0:0:0:0:
233,277,111612,1,2,0:0:0:0:
233,277,111706,1,0,0:0:0:0:
233,277,111800,1,8,0:1:0:0:
156,199,111987,1,2,1:2:0:0:
361,99,112175,1,2,1:2:0:0:
361,99,112268,1,0,0:0:0:0:
361,99,112362,1,0,0:0:0:0:
361,99,112456,1,0,0:0:0:0:
361,99,112550,6,0,B|448:103|405:63|508:71,1,140,0|2,1:0|0:0,1:0:0:0:
405,192,113112,1,0,1:0:0:0:
494,291,113300,2,0,L|498:221,1,70,10|0,0:1|0:0,0:0:0:0:
401,295,113675,1,0,0:0:0:0:
401,295,113768,1,0,0:0:0:0:
401,295,113862,2,0,P|331:324|246:308,1,140,0|0,1:0|1:0,1:0:0:0:
179,376,114425,1,2,0:0:0:0:
116,298,114612,1,0,0:0:0:0:
116,298,114706,1,0,0:0:0:0:
116,298,114800,2,0,P|121:261|116:213,1,70,8|0,0:1|1:0,0:0:0:0:
0,149,115175,1,2,1:1:0:0:
22,248,115362,1,2,0:1:0:0:
97,128,115550,37,2,0:0:0:0:
97,128,115737,2,0,L|101:83,1,35
41,37,116112,1,0,0:0:0:0:
41,37,116675,1,0,0:0:0:0:
303,92,117050,2,0,L|299:47,1,35,2|0,0:0|0:0,0:0:0:0:
359,1,117425,1,0,0:0:0:0:
426,57,117612,1,2,0:0:0:0:
426,57,118175,1,0,0:0:0:0:
198,216,118550,1,2,0:0:0:0:
198,216,118737,2,0,L|151:221,1,35
105,299,119112,1,2,0:0:0:0:
214,341,119675,1,2,0:0:0:0:
301,254,120050,86,0,B|411:233|375:295|491:269,1,188.999994232178,2|0,0:0|0:0,0:0:0:0:
415,153,121550,22,0,L|421:110,1,35,2|0,0:0|0:0,0:0:0:0:
377,44,121925,1,0,0:0:0:0:
377,44,122112,1,0,0:0:0:0:
292,236,122674,2,0,L|286:192,1,35,2|0,0:0|0:0,0:0:0:0:
330,127,123049,1,0,0:0:0:0:
330,127,123236,1,0,0:0:0:0:
207,303,123613,1,0,0:0:0:0:
207,303,123800,2,0,L|212:266,1,35
295,324,124175,1,0,0:0:0:0:
81,110,124550,6,0,L|44:105,1,35,2|0,0:0|0:0,0:0:0:0:
16,24,124925,1,0,0:0:0:0:
16,24,125113,1,0,0:0:0:0:
213,172,125675,2,0,L|250:167,1,35
278,86,126050,1,0,0:0:0:0:
278,86,126238,1,0,0:0:0:0:
59,227,126612,1,0,0:0:0:0:
30,242,126799,1,0,0:0:0:0:
45,270,126986,1,0,0:0:0:0:
72,256,127174,1,0,0:0:0:0:
394,316,127550,102,0,L|397:351,2,35,2|0|0,0:0|0:0|0:0,0:0:0:0:
311,333,128112,1,0,0:0:0:0:
428,200,128675,2,0,L|425:163,2,35,2|0|0,0:0|0:0|0:0,0:0:0:0:
512,188,129237,1,0,0:0:0:0:
209,249,129612,1,0,0:0:0:0:
209,249,129800,2,0,L|166:244,2,35
347,87,130550,6,0,L|352:43,1,35,2|0,0:0|0:0,0:0:0:0:
272,11,130925,1,0,0:0:0:0:
272,11,131113,1,0,0:0:0:0:
52,175,131675,2,0,L|47:219,1,35
124,251,132050,1,0,0:0:0:0:
208,229,132238,1,0,0:0:0:0:
208,229,132425,1,0,0:0:0:0:
282,180,132612,1,0,0:0:0:0:
282,180,132706,1,0,0:0:0:0:
282,180,132800,1,0,0:0:0:0:
368,180,132987,1,0,0:0:0:0:
428,242,133175,1,2,0:0:0:0:
293,384,133550,101,2,0:0:0:0:
293,384,133737,2,0,L|289:350,1,35
332,276,134112,1,2,0:0:0:0:
164,240,134675,1,0,0:0:0:0:
164,240,134863,1,0,0:0:0:0:
122,166,135050,2,0,L|126:131,1,35,2|0,0:0|0:0,0:0:0:0:
260,91,135612,1,2,0:0:0:0:
260,91,135800,1,0,0:0:0:0:
343,80,135987,1,0,0:0:0:0:
323,0,136175,1,0,0:0:0:0:
463,254,136550,5,2,0:0:0:0:
463,254,136737,2,0,L|429:259,1,35
398,341,137113,1,2,0:0:0:0:
333,175,137675,2,0,L|296:170,1,35
260,91,138050,1,2,0:0:0:0:
209,162,138238,1,0,0:0:0:0:
209,162,138612,1,2,0:0:0:0:
9,253,139737,85,0,0:0:0:0:
9,253,140112,2,0,P|10:270|5:295,1,35
171,215,140615,2,0,P|155:207|135:190,1,35
128,367,141218,2,0,P|142:357|167:349,1,35
101,280,142174,1,2,0:0:0:0:
435,31,145350,5,0,0:0:0:0:
435,31,145449,1,0,0:0:0:0:
435,31,145540,2,0,P|441:65|433:99,1,70,2|0,0:0|0:0,0:0:0:0:
363,160,146290,1,0,0:0:0:0:
363,160,146665,2,0,L|328:155,1,35
154,197,147040,2,0,P|146:230|155:264,1,70
139,380,147790,1,2,0:0:0:0:
57,384,148165,1,2,0:0:0:0:
57,384,148915,5,0,0:0:0:0:
31,303,149290,1,0,0:0:0:0:
77,231,149665,1,0,0:0:0:0:
179,108,150040,2,0,P|216:111|253:109,1,70,0|2,0:0|0:0,0:0:0:0:
332,59,150790,2,0,L|339:13,1,35
251,18,151165,1,0,0:0:0:0:
424,44,151540,102,0,P|421:78|427:114,1,70,2|0,0:0|0:0,0:0:0:0:
512,152,152290,1,0,0:0:0:0:
512,152,152665,2,0,L|506:186,1,35
506,186,153415,1,0,0:0:0:0:
430,225,153790,1,0,0:0:0:0:
351,192,154165,1,2,0:0:0:0:
351,192,154915,5,0,0:0:0:0:
272,159,155290,1,0,0:0:0:0:
196,198,155665,2,0,L|199:238,1,35,2|0,0:0|0:0,0:0:0:0:
119,342,156040,2,0,P|79:356|40:357,1,70,2|0,0:0|0:0,0:0:0:0:
252,353,156790,1,2,0:0:0:0:
330,330,157165,1,2,0:0:0:0:
507,331,157540,5,2,0:0:0:0:
438,239,157914,1,0,0:0:0:0:
493,142,158290,1,0,0:0:0:0:
493,142,158665,2,0,L|458:137,1,35
310,75,159040,2,0,P|302:114|304:148,1,70,2|0,0:0|0:0,0:0:0:0:
187,218,159790,1,2,0:0:0:0:
100,61,160165,1,2,0:0:0:0:
11,212,160540,86,0,P|17:243|18:281,1,70,2|0,0:0|0:0,0:0:0:0:
88,353,161102,1,0,0:0:0:0:
88,353,161290,1,2,0:0:0:0:
162,303,161477,1,2,0:0:0:0:
250,319,161665,2,0,P|253:338|253:356,1,35
340,349,162040,1,0,0:0:0:0:
340,349,162415,1,2,0:0:0:0:
428,350,162602,1,0,0:0:0:0:
502,302,162790,2,0,P|504:270|499:233,1,70,2|0,0:0|0:0,0:0:0:0:
151,91,163540,21,2,0:0:0:0:
250,0,163915,1,0,0:0:0:0:
279,131,164290,1,0,0:0:0:0:
279,131,164477,2,0,P|272:168|275:211,1,70
387,243,165040,1,0,0:0:0:0:
304,330,165414,1,0,0:0:0:0:
189,286,165789,1,0,0:0:0:0:
273,200,166164,1,0,0:0:0:0:
78,197,166540,86,0,P|78:183|83:163,1,35
9,121,166915,2,0,P|7:105|3:87,1,35
60,17,167290,1,2,0:0:0:0:
60,17,167477,1,0,0:0:0:0:
172,196,167665,2,0,L|259:202,1,68.2499968757631,2|0,0:0|0:0,0:0:0:0:
251,191,168040,21,0,0:0:0:0:
265,183,168133,1,0,0:0:0:0:
286,179,168227,1,0,0:0:0:0:
311,185,168321,1,0,0:0:0:0:
336,197,168415,1,0,0:0:0:0:
369,197,168508,1,0,0:0:0:0:
395,183,168602,2,0,L|400:150,5,26.2500010013581
489,213,169165,2,2,P|486:260|505:293,1,78.7500030040742,2|0,0:0|0:0,1:0:0:0:
493,313,169540,6,0,L|383:306,1,105.000004005432,4|0,1:2|0:0,1:0:0:0:
344,384,170102,1,2,1:2:0:0:
344,384,170290,1,10,0:1:0:0:
117,276,170665,1,0,0:0:0:0:
117,276,170852,2,0,L|227:269,1,105.000004005432,0|0,1:0|1:0,0:0:0:0:
286,47,171602,1,2,0:0:0:0:
286,47,171696,1,0,0:0:0:0:
286,47,171790,1,8,0:0:0:0:
191,8,171977,1,0,1:0:0:0:
203,101,172165,1,2,1:2:0:0:
2,324,172540,102,0,P|6:278|0:217,1,105.000004005432,0|0,1:0|0:0,1:0:0:0:
74,158,173102,1,0,1:0:0:0:
74,158,173290,1,10,0:1:0:0:
221,269,173665,1,0,0:0:0:0:
221,269,173758,1,0,0:0:0:0:
221,269,173852,2,0,P|246:271|274:269,1,52.5000020027161,0|0,1:0|0:0,0:0:0:0:
371,354,174227,2,0,P|344:352|318:355,1,52.5000020027161,0|0,1:0|0:0,0:0:0:0:
496,267,174602,1,0,0:0:0:0:
496,267,174696,1,0,0:0:0:0:
496,267,174790,1,8,0:0:0:0:
477,371,174978,1,0,1:0:0:0:
390,251,175165,1,2,1:1:0:0:
390,251,175352,1,2,0:1:0:0:
470,140,175540,6,0,P|463:89|463:22,1,105.000004005432,0|0,1:0|0:0,1:0:0:0:
376,25,176102,1,2,1:2:0:0:
376,25,176290,1,10,0:1:0:0:
197,0,176665,1,2,0:0:0:0:
197,0,176852,2,0,P|203:52|201:111,1,105.000004005432,0|0,1:0|1:0,0:0:0:0:
341,306,177602,1,0,0:0:0:0:
341,306,177697,1,0,0:0:0:0:
341,306,177790,1,8,0:0:0:0:
353,200,177977,1,0,1:0:0:0:
248,246,178165,2,0,P|246:279|249:310,1,52.5000020027161,0|0,1:0|0:0,0:0:0:0:
447,269,178540,102,0,P|451:222|448:153,1,105.000004005432,0|2,1:0|0:2,1:0:0:0:
512,95,179102,1,0,1:0:0:0:
512,95,179290,1,10,0:1:0:0:
145,228,179665,1,2,0:0:0:0:
145,228,179758,1,0,0:0:0:0:
145,228,179852,2,0,P|148:262|144:291,1,52.5000020027161,0|2,1:0|0:0,0:0:0:0:
46,301,180227,2,0,P|43:275|45:248,1,52.5000020027161,0|0,1:0|0:0,0:0:0:0:
266,221,180602,5,0,0:0:0:0:
266,221,180696,1,0,0:0:0:0:
266,221,180789,1,8,0:0:0:0:
230,323,180976,1,0,1:0:0:0:
187,149,181164,1,2,1:1:0:0:
187,149,181351,1,2,0:1:0:0:
373,202,181540,102,0,P|430:205|492:199,1,105.000004005432,2|0,1:2|0:0,1:0:0:0:
510,287,182102,1,2,1:2:0:0:
510,287,182290,1,8,0:1:0:0:
287,105,182665,2,0,P|281:79|280:43,1,52.5000020027161,2|0,0:0|1:0,0:0:0:0:
187,157,183040,2,0,P|192:133|191:103,1,52.5000020027161,2|0,0:0|1:0,0:0:0:0:
196,21,183415,1,0,0:0:0:0:
266,221,183602,1,2,0:0:0:0:
266,221,183697,1,0,0:0:0:0:
266,221,183790,1,8,0:0:0:0:
254,319,183977,1,0,1:0:0:0:
350,278,184165,2,0,P|383:280|414:277,1,52.5000020027161,2|0,1:2|0:0,0:0:0:0:
131,240,184540,6,0,P|73:236|11:242,1,105.000004005432,2|0,1:2|0:0,1:0:0:0:
0,162,185102,1,2,1:2:0:0:
0,162,185290,1,10,0:1:0:0:
242,180,185665,1,2,0:0:0:0:
242,180,185758,1,0,0:0:0:0:
242,180,185852,2,0,P|239:229|242:286,1,105.000004005432,8|0,0:0|1:0,0:0:0:0:
300,384,186415,2,0,P|274:380|247:380,1,52.5000020027161,10|2,0:0|1:2,0:0:0:0:
89,312,186790,2,0,P|115:315|142:315,1,52.5000020027161,8|0,0:0|1:0,0:0:0:0:
477,315,187165,1,2,1:0:0:0:
477,315,187258,1,0,1:0:0:0:
477,315,187352,1,2,1:0:0:0:
477,315,187446,1,0,1:0:0:0:
477,315,187540,5,4,0:3:0:0:
378,335,187726,1,0,0:0:0:0:
299,272,187914,1,0,0:0:0:0:
511,168,188290,1,0,0:0:0:0:
511,168,188665,2,0,P|509:200|513:228,1,52.5000020027161,0|2,0:0|0:0,0:0:0:0:
348,173,189040,1,2,0:0:0:0:
153,112,189415,1,0,0:0:0:0:
93,307,189790,1,0,0:0:0:0:
287,366,190165,1,0,0:0:0:0:
253,250,190540,53,2,0:0:0:0:
253,250,190915,2,0,P|250:217|259:178,1,52.5000020027161
344,148,191290,1,0,0:0:0:0:
189,326,191664,1,0,0:0:0:0:
0,187,192039,1,2,0:0:0:0:
88,139,192227,1,0,0:0:0:0:
39,52,192414,1,0,0:0:0:0:
256,99,192790,1,2,0:0:0:0:
304,11,192978,1,0,0:0:0:0:
391,60,193165,1,0,0:0:0:0:
344,148,193353,1,0,0:0:0:0:
470,225,193540,53,2,0:0:0:0:
426,317,193727,1,0,0:0:0:0:
509,381,193915,1,0,0:0:0:0:
509,381,194290,2,0,P|512:358|507:316,1,52.5000020027161,0|2,0:0|0:0,0:0:0:0:
248,327,194665,1,2,0:0:0:0:
187,132,195040,1,0,0:0:0:0:
382,72,195415,1,0,0:0:0:0:
441,266,195790,1,0,0:0:0:0:
329,183,196165,2,0,P|301:184|277:182,1,52.5000020027161,0|2,0:0|0:0,0:0:0:0:
106,262,196540,54,0,P|158:259|210:264,1,105.000004005432,2|0,0:0|0:0,0:0:0:0:
311,278,197102,1,0,0:0:0:0:
311,278,197290,1,0,0:0:0:0:
122,115,197665,1,2,0:0:0:0:
122,115,197852,1,0,0:0:0:0:
22,123,198040,1,2,0:0:0:0:
0,220,198227,1,0,0:0:0:0:
85,271,198415,1,0,0:0:0:0:
160,204,198602,1,2,0:0:0:0:
312,137,198790,2,2,P|308:190|312:241,1,105.000004005432,2|0,0:0|0:0,0:1:0:0:
252,326,199352,1,0,0:0:0:0:
252,326,199540,53,2,0:0:0:0:
339,384,199728,1,0,0:0:0:0:
397,298,199914,1,0,0:0:0:0:
460,94,200290,1,0,0:0:0:0:
460,94,200665,2,0,P|458:62|462:34,1,52.5000020027161,0|2,0:0|0:0,0:0:0:0:
512,179,201040,1,2,0:0:0:0:
332,122,201415,1,0,0:0:0:0:
218,262,201790,1,0,0:0:0:0:
39,208,202165,1,0,0:0:0:0:
171,74,202540,53,2,0:0:0:0:
171,74,202915,2,0,P|174:107|165:146,1,52.5000020027161
261,178,203290,1,2,0:0:0:0:
195,379,203664,1,0,0:0:0:0:
0,298,204039,1,2,0:0:0:0:
42,207,204227,1,0,0:0:0:0:
135,244,204414,1,0,0:0:0:0:
346,221,204790,1,2,0:0:0:0:
388,312,204978,1,0,0:0:0:0:
481,275,205165,2,0,P|478:248|481:212,1,52.5000020027161,0|2,0:0|0:0,0:0:0:0:
355,49,205540,53,2,0:0:0:0:
263,12,205727,1,0,0:0:0:0:
220,103,205915,1,0,0:0:0:0:
220,103,206290,2,0,P|223:132|222:161,1,52.5000020027161
362,238,206665,1,2,0:0:0:0:
177,284,207040,1,0,0:0:0:0:
48,140,207414,1,0,0:0:0:0:
237,93,207790,1,0,0:0:0:0:
166,187,208165,2,0,P|157:163|153:133,1,52.5000020027161,0|2,0:0|0:0,0:0:0:0:
57,333,208540,54,0,P|76:284|79:232,1,105.000004005432,2|0,0:0|0:0,0:0:0:0:
177,284,209102,1,0,0:0:0:0:
177,284,209290,1,0,0:0:0:0:
260,376,209477,1,0,0:0:0:0:
334,307,209665,2,0,P|331:275|335:249,1,52.5000020027161,2|0,0:0|0:0,0:0:0:0:
419,310,210040,1,2,0:0:0:0:
419,310,210790,1,2,0:0:0:0:
311,149,211540,6,0,P|309:114|314:70,1,70
227,112,212102,1,0,0:0:0:0:
242,25,212290,1,2,0:0:0:0:
43,178,212665,2,0,P|44:212|40:257,1,70
127,215,213227,1,0,0:0:0:0:
112,302,213415,1,2,0:0:0:0:
194,272,213602,1,0,0:0:0:0:
194,272,213790,1,2,0:0:0:0:
294,317,213977,1,2,0:0:0:0:
388,260,214165,2,0,L|436:264,1,35
470,325,214540,102,0,P|464:272|468:220,1,105
394,172,215290,1,2,0:0:0:0:
232,68,215665,1,0,0:0:0:0:
232,68,216040,2,0,P|197:74|162:71,1,70,0|2,0:0|0:0,0:0:0:0:
84,139,216602,1,0,0:0:0:0:
4,127,216790,1,2,0:0:0:0:
56,63,216977,1,0,0:0:0:0:
33,206,217165,2,0,L|35:249,1,35
119,309,217540,6,0,P|117:274|122:230,1,70
194,191,218102,1,0,0:0:0:0:
200,275,218290,1,2,0:0:0:0:
512,218,218665,2,0,P|509:253|511:287,1,70
427,250,219227,1,0,0:0:0:0:
439,337,219415,1,2,0:0:0:0:
357,307,219602,1,0,0:0:0:0:
357,307,219790,1,2,0:0:0:0:
263,381,219977,1,2,0:0:0:0:
160,318,220165,2,0,L|156:270,1,35
255,153,220540,102,0,P|250:205|253:257,1,105
160,198,221290,1,2,0:0:0:0:
179,68,221665,1,0,0:0:0:0:
179,68,222040,2,2,P|131:48|116:-11,1,105,0|0,0:0|0:0,0:0:0:0:
0,170,222790,2,2,P|36:133|28:72,1,105,0|0,0:0|0:0,0:0:0:0:
160,198,223540,22,0,B|261:198|206:159|309:157,1,154.000004699707,2|0,0:0|0:0,0:0:0:0:
412,266,224665,1,0,0:0:0:0:
509,302,225040,2,0,P|456:363|375:363,1,154.000004699707
312,284,226165,1,0,0:0:0:0:
226,21,226540,6,0,P|307:21|361:83,1,154.000004699707,2|0,0:0|0:0,0:0:0:0:
141,141,227665,1,0,0:0:0:0:
48,228,228040,2,0,B|24:141|80:168|57:74,1,154.000004699707
123,0,229164,1,0,0:0:0:0:
133,266,229540,102,0,P|51:262|-5:320,1,154.000004699707,2|0,0:0|0:0,0:0:0:0:
95,369,230664,1,0,0:0:0:0:
267,177,231040,2,0,P|348:179|401:241,1,154.000004699707
299,282,232164,1,0,0:0:0:0:
136,128,232540,86,0,P|139:95|136:59,1,62.9999980773926,2|2,0:0|0:0,0:0:0:0:
237,95,233290,1,2,0:0:0:0:
237,95,234040,1,2,0:0:0:0:
281,0,234601,53,0,1:0:0:0:
281,0,234695,1,0,1:0:0:0:
281,0,234790,1,8,0:1:0:0:
240,259,234977,1,0,1:0:0:0:
55,76,235165,1,8,0:1:0:0:
55,76,235540,38,0,B|98:58|98:58|142:69,1,90.9999958343508,4|0,1:0|0:0,1:0:0:0:
281,0,235915,1,2,0:0:0:0:
404,94,236102,1,0,1:0:0:0:
259,165,236290,2,0,L|249:254,1,90.9999958343508,10|0,0:1|0:0,0:0:0:0:
348,227,236665,1,0,1:0:0:0:
127,380,236852,102,0,L|110:199,1,181.999991668702,0|0,1:0|1:0,1:0:0:0:
25,300,237415,1,0,1:0:0:0:
330,344,237602,1,0,1:0:0:0:
330,344,237697,1,0,1:0:0:0:
330,344,237790,2,0,B|374:350|374:350|414:328,1,90.9999958343508,10|0,0:1|0:0,0:0:0:0:
350,246,238165,1,0,1:0:0:0:
512,277,238352,1,8,0:1:0:0:
228,209,238540,6,0,B|160:216|160:216|129:244|129:244|58:252,1,181.999991668702,4|0,1:0|0:0,1:0:0:0:
130,341,239103,1,0,1:0:0:0:
243,384,239290,2,0,L|254:284,1,90.9999958343508,10|0,0:1|0:0,0:0:0:0:
145,122,239665,2,0,L|135:26,1,90.9999958343508,0|0,1:0|0:0,0:0:0:0:
492,166,240040,102,0,B|402:179|402:179|322:135,1,181.999991668702,0|0,1:1|0:0,1:0:0:0:
370,309,240602,1,0,1:0:0:0:
370,309,240696,1,0,1:0:0:0:
370,309,240790,1,10,0:1:0:0:
240,128,240977,1,0,1:0:0:0:
240,128,241071,1,2,1:0:0:0:
240,128,241165,1,8,0:1:0:0:
432,0,241352,1,2,1:0:0:0:
491,352,241540,6,0,L|474:234,1,90.9999958343508,4|0,1:0|0:0,1:0:0:0:
511,180,241915,1,2,0:0:0:0:
372,284,242102,1,0,1:0:0:0:
372,284,242196,1,0,1:0:0:0:
372,284,242290,1,10,0:1:0:0:
140,194,242477,1,0,1:0:0:0:
140,194,242571,1,2,1:0:0:0:
140,194,242665,1,0,1:0:0:0:
0,384,242852,1,2,1:0:0:0:
206,334,243040,102,0,L|216:218,1,90.9999958343508,0|0,0:0|1:0,1:0:0:0:
310,159,243415,1,0,1:0:0:0:
222,80,243602,1,0,0:0:0:0:
222,80,243696,1,0,0:0:0:0:
222,80,243790,1,10,0:1:0:0:
133,161,243977,1,0,1:2:0:0:
388,85,244165,1,8,0:1:0:0:
411,68,244258,1,8,0:1:0:0:
434,50,244353,1,8,0:1:0:0:
466,56,244447,1,8,0:1:0:0:
496,65,244540,6,0,L|505:158,1,90.9999958343508,4|0,1:0|0:0,1:0:0:0:
321,342,244915,1,2,0:0:0:0:
308,241,245102,1,0,1:0:0:0:
421,282,245290,2,0,L|527:291,1,90.9999958343508,10|0,0:1|0:0,0:0:0:0:
205,300,245665,2,0,L|99:309,1,90.9999958343508,0|0,1:1|0:0,0:0:0:0:
4,85,246040,102,0,B|81:132|81:132|169:108,1,181.999991668702,0|0,1:1|0:0,1:0:0:0:
70,228,246602,1,0,1:0:0:0:
70,228,246696,1,0,1:0:0:0:
70,228,246790,1,10,0:1:0:0:
262,125,246977,1,0,1:0:0:0:
470,204,247165,1,10,0:1:0:0:
470,204,247540,6,0,B|491:243|491:243|480:295,1,90.9999958343508,4|0,1:0|0:0,1:0:0:0:
224,263,247915,1,2,0:0:0:0:
332,294,248102,1,0,1:0:0:0:
73,365,248290,2,0,B|62:320|62:320|82:280,1,90.9999958343508,10|0,0:1|0:0,0:0:0:0:
4,242,248665,1,0,1:0:0:0:
240,384,248852,102,0,L|257:203,1,181.999991668702,0|0,1:0|1:0,1:0:0:0:
488,344,249415,1,0,1:0:0:0:
394,378,249602,1,0,1:0:0:0:
394,378,249697,1,0,1:0:0:0:
394,378,249790,2,0,B|383:334|383:334|401:292,1,90.9999958343508,10|0,0:1|0:0,0:0:0:0:
361,200,250165,1,0,1:0:0:0:
158,224,250352,1,8,0:1:0:0:
496,140,250540,6,0,B|428:133|428:133|397:105|397:105|326:97,1,181.999991668702,4|2,1:0|0:0,1:0:0:0:
85,145,251103,1,0,1:0:0:0:
235,161,251290,2,0,L|224:71,1,90.9999958343508,10|0,0:1|0:0,0:0:0:0:
146,314,251665,2,0,L|159:216,1,90.9999958343508,0|0,1:0|0:0,0:0:0:0:
466,306,252040,102,0,B|376:319|376:319|296:275,1,181.999991668702,0|0,1:1|0:0,1:0:0:0:
400,193,252602,1,0,1:0:0:0:
400,193,252696,1,0,1:0:0:0:
400,193,252790,1,10,0:1:0:0:
173,87,252977,1,0,1:0:0:0:
173,87,253071,1,2,1:0:0:0:
173,87,253165,1,8,0:1:0:0:
0,270,253352,1,2,1:0:0:0:
308,163,253540,6,0,L|317:43,1,90.9999958343508,4|0,1:0|0:0,1:0:0:0:
409,90,253914,1,2,0:0:0:0:
505,296,254102,1,0,1:0:0:0:
505,296,254196,1,0,1:0:0:0:
505,296,254290,1,10,0:1:0:0:
252,373,254477,1,0,1:0:0:0:
252,373,254571,1,2,1:0:0:0:
252,373,254665,1,0,1:0:0:0:
110,197,254852,1,2,1:0:0:0:
396,252,255040,102,0,L|406:368,1,90.9999958343508,0|0,1:0|0:0,1:0:0:0:
505,296,255415,1,2,0:0:0:0:
493,191,255602,1,0,1:0:0:0:
245,285,255790,2,2,B|174:296|174:296|137:278|137:278|69:290,1,181.999991668702,10|0,0:1|0:0,1:0:0:0:
8,212,256352,1,8,0:1:0:0:
222,49,256540,6,0,B|301:93|301:93|389:71,1,181.999991668702,4|0,1:0|0:0,1:0:0:0:
129,80,257102,1,0,1:0:0:0:
0,180,257290,2,0,L|90:167,1,90.9999958343508,10|0,0:1|0:0,0:0:0:0:
284,227,257665,2,0,L|193:214,1,90.9999958343508,0|0,1:1|0:0,0:0:0:0:
416,283,258040,102,0,B|407:237|407:237|430:195,1,90.9999958343508,0|0,1:0|0:0,1:0:0:0:
358,113,258415,1,0,1:0:0:0:
442,42,258602,1,0,1:0:0:0:
442,42,258697,1,0,1:0:0:0:
442,42,258790,1,10,0:1:0:0:
512,127,258977,1,2,0:0:0:0:
329,307,259165,1,10,0:1:0:0:
265,312,259258,1,8,0:1:0:0:
201,319,259352,1,8,0:1:0:0:
137,325,259446,1,8,0:1:0:0:
90,375,259540,86,0,B|104:334|104:334|93:294,1,83.9999974365235,6|0,1:0|0:0,1:0:0:0:
195,49,259915,2,0,B|181:90|181:90|195:145,1,83.9999974365235,0|2,1:0|0:0,0:0:0:0:
84,186,260290,2,0,B|-5:194,1,83.9999974365235,8|0,0:1|0:0,0:0:0:0:
310,96,260665,2,0,L|394:103,1,83.9999974365235,0|0,1:0|0:0,0:0:0:0:
458,208,261040,6,0,L|374:215,1,83.9999974365235,4|2,1:0|0:0,1:0:0:0:
494,28,261415,2,0,L|415:0,1,83.9999974365235,2|0,1:2|0:0,0:0:0:0:
191,129,261790,2,0,B|205:170|205:170|191:225,1,83.9999974365235,10|0,0:1|0:0,0:0:0:0:
299,280,262165,2,0,B|285:321|285:321|295:360,1,83.9999974365235,2|0,1:1|0:0,0:0:0:0:
95,168,262540,102,0,L|11:160,1,83.9999974365235,4|0,1:0|0:0,1:0:0:0:
180,28,262915,2,0,L|263:20,1,83.9999974365235,0|2,1:0|0:0,0:0:0:0:
413,195,263290,2,0,L|329:187,1,83.9999974365235,8|0,0:1|0:0,0:0:0:0:
158,343,263665,2,0,L|241:335,1,83.9999974365235,2|0,1:2|0:0,0:0:0:0:
506,144,264040,6,0,B|520:185|520:185|506:240,1,83.9999974365235,4|0,1:1|0:0,1:0:0:0:
227,237,264415,2,0,B|213:196|213:196|227:141,1,83.9999974365235,0|2,1:1|0:0,0:0:0:0:
367,191,264790,1,10,0:1:0:0:
349,311,264977,1,0,1:0:0:0:
307,303,265071,1,0,1:0:0:0:
266,307,265165,1,8,0:1:0:0:
229,330,265259,1,8,0:1:0:0:
193,354,265353,1,8,0:1:0:0:
151,359,265447,1,8,0:1:0:0:
111,350,265540,102,0,L|102:259,1,83.9999974365235,4|0,1:0|0:0,1:0:0:0:
16,190,265915,1,0,1:0:0:0:
0,284,266102,1,2,0:0:0:0:
223,156,266290,2,0,L|136:147,1,83.9999974365235,8|0,0:1|0:0,0:0:0:0:
0,42,266665,2,0,L|89:32,1,83.9999974365235,2|0,1:2|0:0,0:0:0:0:
248,252,267040,6,0,L|337:242,1,83.9999974365235,4|0,1:0|0:0,1:0:0:0:
512,176,267415,1,0,1:0:0:0:
428,167,267602,1,2,0:0:0:0:
441,384,267790,2,0,B|456:347|456:347|447:304,1,83.9999974365235,10|0,0:1|0:0,0:0:0:0:
130,293,268165,2,0,B|121:250|121:250|136:213,1,83.9999974365235,10|0,0:1|0:0,0:0:0:0:
321,10,268540,102,0,L|326:93,1,83.9999974365235,4|0,1:0|0:0,1:0:0:0:
248,252,268915,1,0,1:0:0:0:
139,37,269102,1,2,0:0:0:0:
47,132,269290,2,0,L|145:125,1,83.9999974365235,8|0,0:1|0:0,0:0:0:0:
364,190,269665,2,0,L|448:196,1,83.9999974365235,0|2,1:0|0:0,0:0:0:0:
469,187,269946,1,2,0:0:0:0:
487,176,270040,6,0,B|496:219|496:219|480:255,1,83.9999974365235,14|0,0:1|0:0,1:0:0:0:
248,252,270415,1,0,1:0:0:0:
355,335,270602,1,2,0:0:0:0:
366,318,270696,1,2,0:0:0:0:
367,298,270790,1,10,0:1:0:0:
371,138,270977,1,0,1:0:0:0:
371,120,271071,1,0,1:0:0:0:
379,103,271165,2,0,P|379:77|370:53,3,41.9999987182618,8|8|8|8,0:1|0:1|0:1|0:1,0:0:0:0:
281,144,271540,69,4,1:0:0:0:
240,121,271633,1,0,1:0:0:0:
193,124,271727,1,2,1:2:0:0:
157,151,271821,1,0,1:0:0:0:
135,198,271915,1,2,1:2:0:0:
121,233,272009,1,0,1:0:0:0:
92,255,272103,1,0,1:0:0:0:
58,257,272197,1,0,1:0:0:0:
30,243,272290,2,0,P|29:218|40:191,1,41.9999987182618,8|0,0:1|0:0,0:0:0:0:
163,331,272477,1,2,1:2:0:0:
163,331,272571,1,0,1:0:0:0:
163,331,272665,2,0,P|168:351|167:372,1,41.9999987182618,8|0,0:1|0:0,0:0:0:0:
67,384,272852,2,0,P|65:363|71:342,1,41.9999987182618,8|0,0:1|0:0,0:0:0:0:
241,279,273040,5,4,1:0:0:0:
278,261,273133,1,0,1:0:0:0:
320,260,273227,1,2,1:2:0:0:
357,279,273321,1,0,1:0:0:0:
386,303,273415,1,2,1:2:0:0:
425,311,273508,1,0,1:0:0:0:
453,299,273602,1,2,1:2:0:0:
466,277,273696,1,0,1:0:0:0:
469,253,273790,2,0,P|464:232|463:201,3,41.9999987182618,8|8|4|4,1:0|0:3|0:3|0:3,0:0:0:0:
377,166,274165,1,8,0:1:0:0:
379,150,274258,1,8,0:1:0:0:
380,135,274352,1,8,0:1:0:0:
383,119,274446,1,8,0:1:0:0:
416,90,274540,101,4,1:0:0:0:
382,69,274633,1,0,1:0:0:0:
344,61,274727,1,0,1:0:0:0:
305,69,274821,1,0,1:0:0:0:
271,89,274915,1,0,1:0:0:0:
249,121,275008,1,0,1:0:0:0:
217,144,275102,1,2,1:2:0:0:
180,156,275196,1,0,1:0:0:0:
141,153,275290,2,0,P|137:133|127:114,1,41.9999987182618,8|0,0:1|0:0,0:0:0:0:
2,141,275477,1,2,1:2:0:0:
2,141,275571,1,0,1:0:0:0:
2,141,275665,2,0,P|13:123|29:110,1,41.9999987182618,8|0,0:1|0:0,0:0:0:0:
49,233,275853,2,0,P|69:240|90:241,1,41.9999987182618,8|0,0:1|0:0,0:0:0:0:
242,247,276040,5,4,1:0:0:0:
299,223,276133,1,0,1:0:0:0:
356,248,276227,1,0,1:0:0:0:
380,305,276321,1,0,1:0:0:0:
357,363,276415,1,2,1:2:0:0:
308,384,276509,1,0,1:0:0:0:
259,363,276603,1,0,1:0:0:0:
239,314,276697,1,0,1:0:0:0:
259,266,276790,1,8,0:1:0:0:
293,235,276884,1,0,0:0:0:0:
334,216,276978,1,2,0:0:0:0:
351,175,277072,1,2,0:2:0:0:
336,138,277165,1,4,0:3:0:0:
336,138,277540,6,0,P|333:87|336:41,1,83.9999974365235,6|0,1:2|0:0,0:0:0:0:
246,13,277915,1,0,1:0:0:0:
246,13,278102,1,2,0:0:0:0:
178,204,278290,2,0,P|182:245|180:287,1,83.9999974365235,8|0,0:1|0:0,0:0:0:0:
88,250,278664,1,2,1:2:0:0:
88,250,279040,6,0,L|2:257,1,83.9999974365235,2|0,1:2|0:0,0:0:0:0:
0,164,279415,1,0,1:0:0:0:
101,159,279602,1,2,0:0:0:0:
101,159,279696,1,2,0:0:0:0:
101,159,279790,1,8,0:1:0:0:
297,277,279977,1,0,1:0:0:0:
297,277,280071,1,0,1:0:0:0:
297,277,280165,1,8,0:1:0:0:
398,266,280352,1,8,0:1:0:0:
469,107,280540,22,0,L|464:201,1,83.9999974365235,4|0,1:0|0:0,0:0:0:0:
172,367,280915,2,0,L|167:273,1,83.9999974365235,4|2,1:0|0:0,0:0:0:0:
323,88,281290,1,2,1:2:0:0:
346,123,281383,1,0,0:0:0:0:
343,164,281477,1,0,0:0:0:0:
318,196,281571,1,0,0:0:0:0:
279,215,281665,1,2,1:2:0:0:
251,258,281758,1,0,0:0:0:0:
259,308,281852,1,2,0:0:0:0:
300,339,281946,1,2,0:0:0:0:
350,334,282040,102,0,L|354:250,1,83.9999974365235,4|0,1:0|0:0,0:0:0:0:
53,74,282415,2,0,L|58:168,1,83.9999974365235,4|0,1:0|0:0,0:0:0:0:
323,88,282790,1,8,0:1:0:0:
323,88,282883,1,8,0:3:0:0:
323,88,282977,1,4,0:3:0:0:
323,88,283071,1,4,0:3:0:0:
323,88,283165,1,8,0:1:0:0:
271,71,283258,1,8,0:1:0:0:
220,86,283352,1,8,0:1:0:0:
187,129,283446,1,8,0:1:0:0:
184,182,283540,1,4,1:0:0:0:
256,192,283633,12,2,286540,0:0:0:0:
354,236,289540,38,0,L|319:239,2,35,2|0|0,0:0|0:0|0:0,0:0:0:0:
401,162,290102,1,0,0:0:0:0:
195,305,290665,2,0,L|160:302,2,35,2|0|0,0:0|0:0|0:0,0:0:0:0:
242,379,291227,1,0,0:0:0:0:
0,359,291602,1,0,0:0:0:0:
0,359,291790,2,0,L|5:316,2,35
105,120,292540,102,0,L|100:76,1,35,2|0,0:0|0:0,0:0:0:0:
180,44,292915,1,0,0:0:0:0:
180,44,293103,1,0,0:0:0:0:
297,160,293665,2,0,L|292:204,1,35
369,236,294040,1,0,0:0:0:0:
369,236,294228,1,0,0:0:0:0:
481,101,294602,1,0,0:0:0:0:
510,86,294789,1,0,0:0:0:0:
495,58,294976,1,0,0:0:0:0:
468,72,295164,1,0,0:0:0:0:
360,322,295540,6,0,L|364:364,3,35,2|0|0|0,0:0|0:0|0:0|0:0,0:0:0:0:
462,255,296665,2,0,L|466:213,3,35,2|0|0|0,0:0|0:0|0:0|0:0,0:0:0:0:
257,253,297602,1,0,0:0:0:0:
257,253,297790,2,0,L|214:248,2,35
4,128,298540,102,0,L|0:86,3,35,2|0|0|0,0:0|0:0|0:0|0:0,0:0:0:0:
125,74,299665,2,0,L|128:39,1,35
207,2,300040,1,0,0:0:0:0:
289,32,300228,1,0,0:0:0:0:
510,133,300602,2,0,L|511:150,2,17.5
431,96,300977,1,0,0:0:0:0:
349,126,301165,1,2,0:0:0:0:
207,208,301559,6,0,L|165:212,3,35,2|0|0|0,0:0|0:0|0:0|0:0,0:0:0:0:
274,310,302752,2,0,L|316:314,1,35
215,381,303124,2,0,L|180:384,1,35,2|0,0:0|0:0,0:0:0:0:
5,298,303699,1,2,0:0:0:0:
5,298,303890,2,0,L|0:260,1,35
53,199,304271,1,0,0:0:0:0:
132,217,304462,1,0,0:0:0:0:
257,159,304654,102,0,L|251:117,2,35
337,126,305250,1,0,0:0:0:0:
392,254,305725,2,0,L|386:296,2,35
459,194,306391,1,0,0:0:0:0:
471,279,306656,1,0,0:0:0:0:
471,279,307393,1,2,0:0:0:0:
