osu file format v12

[General]
AudioFilename: Uta ni Katachi wa nai keredo.mp3
AudioLeadIn: 1000
PreviewTime: -1
Countdown: 0
SampleSet: Soft
StackLeniency: 0.7
Mode: 0
LetterboxInBreaks: 1
WidescreenStoryboard: 0

[Editor]
DistanceSpacing: 1.2
BeatDivisor: 4
GridSize: 8

[Metadata]
Title:Uta ni Katachi wa nai keredo
TitleUnicode:歌に形はないけれど
Artist:Hanatan
ArtistUnicode:花たん
Creator:ShiauKe
Version:Hard
Source:FLOWER
Tags:doriko flower hatsune miku Hanatan
BeatmapID:289933
BeatmapSetID:111474

[Difficulty]
HPDrainRate:6
CircleSize:4
OverallDifficulty:6
ApproachRate:7
SliderMultiplier:1.4
SliderTickRate:1

[Events]
//Background and Video events
0,0,"bg.jpg",0,0
//Break Periods
2,32254,34522
2,144907,163399
//Storyboard Layer 0 (Background)
//Storyboard Layer 1 (Fail)
//Storyboard Layer 2 (Pass)
//Storyboard Layer 3 (Foreground)
//Storyboard Sound Samples
//Background Colour Transformations
3,100,163,162,255

[TimingPoints]
2667,612.244897959184,4,2,0,40,1,0
10013,-100,4,2,1,50,0,0
11238,-100,4,2,2,50,0,0
12462,-66.6666666666667,4,2,2,60,0,1
16748,-66.6666666666667,4,2,1,60,0,1
17360,-66.6666666666667,4,2,2,60,0,1
26544,-66.6666666666667,4,2,1,60,0,1
27156,-66.6666666666667,4,2,2,60,0,1
28993,-66.6666666666667,4,2,1,60,0,1
32054,-66.6666666666667,4,2,0,60,0,0
35422,-100,4,2,0,40,0,0
53177,-100,4,2,1,40,0,0
54707,-100,4,2,0,40,0,0
56544,-100,4,2,1,40,0,0
57156,-100,4,2,0,40,0,0
58075,-100,4,2,1,40,0,0
59605,-100,4,2,0,40,0,0
61442,-100,4,2,1,40,0,0
62054,-100,4,2,0,40,0,0
62667,-100,4,2,1,40,0,0
63279,-100,4,2,1,50,0,0
63585,-100,4,2,1,40,0,0
63891,-100,4,2,0,40,0,0
66340,-100,4,2,1,40,0,0
66952,-100,4,2,0,40,0,0
68789,-100,4,2,1,40,0,0
69401,-100,4,2,0,40,0,0
71238,-100,4,2,1,40,0,0
71850,-100,4,2,0,45,0,0
72462,-100,4,2,1,50,0,0
73075,-100,4,2,2,55,0,0
73687,-66.6666666666667,4,2,2,60,0,0
83177,-66.6666666666667,4,2,1,60,0,0
83483,-66.6666666666667,4,2,2,60,0,0
94503,-66.6666666666667,4,2,2,60,0,0
95728,-66.6666666666667,4,2,2,60,0,1
105218,-66.6666666666667,4,2,1,60,0,1
105524,-66.6666666666667,4,2,2,60,0,1
124809,-66.6666666666667,4,2,1,60,0,1
125115,-66.6666666666667,4,2,2,60,0,1
141646,-66.6666666666667,4,2,1,60,0,1
144707,-66.6666666666667,4,2,2,60,0,0
173483,-66.6666666666667,4,2,1,60,0,0
174095,-66.6666666666667,4,2,2,60,0,0
178075,-66.6666666666667,4,2,1,60,0,0
178993,-66.6666666666667,4,2,2,60,0,0
181442,-66.6666666666667,4,2,1,40,0,0
181748,-66.6666666666667,4,2,1,45,0,0
182054,-66.6666666666667,4,2,1,50,0,0
182360,-66.6666666666667,4,2,1,55,0,0
182667,-66.6666666666667,4,2,1,60,0,0
183585,-66.6666666666667,4,2,1,50,0,0
183891,-80,4,2,0,40,0,0
186340,-80,4,2,1,40,0,0
186952,-80,4,2,0,40,0,0
188177,-80,4,2,1,40,0,0
189401,-80,4,2,0,40,0,0
191238,-80,4,2,1,40,0,0
191850,-80,4,2,0,40,0,0
192462,-80,4,2,1,40,0,0
193687,-80,4,2,0,40,0,0
196136,-80,4,2,1,40,0,0
198585,-66.6666666666667,4,2,2,50,0,0
202871,-66.6666666666667,4,2,1,50,0,0
207156,-66.6666666666667,4,2,2,50,0,0
208381,-66.6666666666667,4,2,2,60,0,1
217871,-66.6666666666667,4,2,1,60,0,1
218177,-66.6666666666667,4,2,2,60,0,1
237462,-66.6666666666667,4,2,1,60,0,1
237769,-66.6666666666667,4,2,2,60,0,1
246952,-100,4,2,2,60,0,0
247564,-66.6666666666667,4,2,2,70,0,1
257054,-66.6666666666667,4,2,1,70,0,1
257360,-66.6666666666667,4,2,2,70,0,1
266544,-66.6666666666667,4,2,1,70,0,1
267156,-66.6666666666667,4,2,2,70,0,1
281238,-66.6666666666667,4,2,1,70,0,1
281850,-66.6666666666667,4,2,2,50,0,0
284299,-66.6666666666667,4,2,1,50,0,1
284605,-66.6666666666667,4,2,1,55,0,1
284911,-66.6666666666667,4,2,1,60,0,1
285218,-66.6666666666667,4,2,1,65,0,1
285524,-66.6666666666667,4,2,1,70,0,1
286136,-66.6666666666667,4,2,1,70,0,1
286748,-66.6666666666667,4,2,2,70,0,0

[Colours]
Combo1 : 27,126,237
Combo2 : 45,242,134
Combo3 : 232,249,28
Combo4 : 29,237,206

[HitObjects]
88,88,2667,2,0,L|160:112,1,70
240,88,3279,1,2,0:0:0:0:
240,88,3585,2,0,P|312:72|368:104,1,140
408,184,4503,1,2,0:0:0:0:
272,168,5115,6,0,L|296:240,1,70
192,216,5728,1,2,0:0:0:0:
192,216,6034,2,0,P|168:144|112:128,1,140
32,176,6952,1,2,0:0:0:0:
88,352,7564,6,0,P|112:320|144:304,1,70
224,288,8177,1,2,0:0:0:0:
304,328,8483,1,0,0:0:0:0:
232,376,8789,1,0,0:0:0:0:
224,288,9095,5,0,0:0:0:0:
304,240,9401,1,2,0:0:0:0:
384,288,9707,1,0,0:0:0:0:
456,232,10013,6,0,L|472:160,1,70,8|0,0:0|0:0,0:0:0:0:
471,163,10473,1,8,0:0:0:0:
471,163,10626,2,0,L|400:136,1,70,0|8,0:0|0:0,0:0:0:0:
352,64,11238,1,8,0:0:0:0:
352,64,11391,1,8,0:0:0:0:
352,64,11544,2,0,P|328:40|288:32,1,70,8|4,0:0|0:0,0:0:0:0:
224,96,12156,1,0,0:0:0:0:
304,152,12462,6,0,L|336:256,1,105.000004005432,4|0,0:0|0:0,0:0:0:0:
416,312,13075,1,8,0:0:0:0:
304,352,13381,2,0,P|224:280|240:176,1,210.000008010865,4|0,0:0|0:0,0:0:0:0:
312,104,14299,1,8,0:0:0:0:
208,64,14605,5,0,0:0:0:0:
208,64,14758,1,0,0:0:0:0:
208,64,14911,2,0,L|112:120,1,105.000004005432,4|0,0:0|0:0,0:0:0:0:
117,116,15524,1,8,0:0:0:0:
48,208,15830,2,0,P|152:240|240:184,1,210.000008010865,4|0,0:0|0:0,0:0:0:0:
344,160,16748,6,0,L|360:104,1,52.5000020027161,8|8,0:0|0:0,0:0:0:0:
400,104,17054,2,0,L|416:48,1,52.5000020027161,8|8,0:0|0:0,0:0:0:0:
456,48,17360,2,0,P|480:96|472:144,2,105.000004005432,4|0|8,0:0|0:0|0:0,0:0:0:0:
352,40,18279,6,0,P|280:104|168:80,1,210.000008010865,4|0,0:0|0:0,0:0:0:0:
88,128,19197,2,0,B|66:170|66:170|80:224,1,105.000004005432,8|0,0:0|0:0,0:0:0:0:
168,280,19809,1,4,0:0:0:0:
224,200,20115,1,0,0:0:0:0:
312,160,20422,1,8,0:0:0:0:
408,176,20728,1,0,0:0:0:0:
344,248,21034,5,0,0:0:0:0:
272,184,21340,1,0,0:0:0:0:
280,96,21646,1,4,0:0:0:0:
352,40,21952,1,0,0:0:0:0:
440,56,22258,6,0,L|424:160,1,105.000004005432,4|0,0:0|0:0,0:0:0:0:
464,248,22871,1,8,0:0:0:0:
376,288,23177,2,0,B|296:328|296:328|261:329|261:329|176:368,1,210.000008010865,4|0,0:0|0:0,0:0:0:0:
104,304,24095,2,0,P|74:258|82:210,1,105.000004005432,8|0,0:0|0:0,0:0:0:0:
82,210,24554,5,0,0:0:0:0:
82,210,24707,2,0,L|128:112,2,105.000004005432,4|0|8,0:0|0:0|0:0,0:0:0:0:
176,240,25626,2,0,P|272:192|288:96,1,210.000008010865,4|0,0:0|0:0,0:0:0:0:
376,32,26544,6,0,L|392:88,1,52.5000020027161,8|8,0:0|0:0,0:0:0:0:
432,104,26850,2,0,L|448:160,1,52.5000020027161,8|8,0:0|0:0,0:0:0:0:
488,184,27156,2,0,P|448:224|440:280,1,105.000004005432,4|0,0:0|0:0,0:0:0:0:
376,352,27769,1,8,0:0:0:0:
320,272,28075,2,0,B|312:176|312:176|320:168|320:168|312:64,1,210.000008010865,4|0,0:0|0:0,0:0:0:0:
224,32,28993,6,0,P|184:24|144:32,1,70.0000026702882,8|8,0:0|0:0,0:0:0:0:
120,112,29401,2,0,P|160:120|200:112,1,70.0000026702882,8|12,0:0|0:0,0:0:0:0:
256,192,29758,12,0,32054,0:0:0:0:
184,80,35422,6,0,P|152:56|120:48,2,70
248,144,36340,2,0,L|232:216,1,70,0|0,0:0|0:0,0:0:0:0:
328,224,36952,6,0,P|328:296|272:352,1,140,2|0,0:0|0:0,0:0:0:0:
200,312,37871,1,0,0:0:0:0:
200,312,38177,2,0,L|56:296,1,140
60,296,39401,1,2,0:0:0:0:
224,232,40320,5,0,0:0:0:0:
288,168,40626,2,0,P|306:131|306:98,2,70
208,128,41544,1,0,0:0:0:0:
184,48,41850,6,0,P|112:32|56:72,1,140,2|0,0:0|0:0,0:0:0:0:
40,152,42769,1,0,0:0:0:0:
40,152,43075,2,0,P|112:168|168:128,1,140
256,256,44299,5,2,0:0:0:0:
336,208,44605,2,0,L|408:224,1,70
480,160,45218,2,0,L|411:144,1,70,0|2,0:0|0:0,0:0:0:0:
368,72,45830,1,0,0:0:0:0:
368,72,45983,2,0,P|320:40|272:40,1,105
192,80,46748,6,0,P|160:104|112:104,2,70,2|0|0,0:0|0:0|0:0,0:0:0:0:
280,112,47667,1,0,0:0:0:0:
280,112,47973,2,0,L|304:256,1,140,2|0,0:0|0:0,0:0:0:0:
303,250,49197,5,2,0:0:0:0:
224,208,49503,2,0,P|184:192|144:192,1,70
72,208,50115,1,0,0:0:0:0:
200,360,50728,6,0,L|256:304,1,70
303,250,51340,1,0,0:0:0:0:
328,168,51646,2,0,P|386:130|448:166,1,140,2|0,0:0|0:0,0:0:0:0:
448,248,52564,1,0,0:0:0:0:
448,248,52871,2,0,L|440:320,1,70,0|2,0:0|0:0,0:0:0:0:
344,344,53483,2,0,L|264:336,1,70,2|0,0:0|0:0,0:0:0:0:
274,337,53942,1,0,0:0:0:0:
274,337,54095,6,0,P|248:272|184:248,1,140,8|2,0:0|0:0,0:0:0:0:
112,192,55013,2,0,P|72:192|48:208,2,70
200,160,55932,2,0,L|216:88,1,70,2|0,0:0|0:0,0:0:0:0:
304,48,56544,6,0,P|352:96|336:176,1,140,8|2,0:0|0:0,0:0:0:0:
272,232,57462,1,0,0:0:0:0:
272,232,57769,2,0,P|256:272|264:320,1,70,0|2,0:0|0:0,0:0:0:0:
352,288,58381,2,0,P|360:328|384:368,1,70,2|0,0:0|0:0,0:0:0:0:
456,296,58993,6,0,L|488:152,1,140,8|2,0:0|0:0,0:0:0:0:
432,80,59911,1,0,0:0:0:0:
368,152,60218,1,0,0:0:0:0:
272,168,60524,2,0,P|232:160|200:136,2,70,0|2|0,0:0|0:0|0:0,0:0:0:0:
336,240,61442,6,0,P|280:288|216:296,1,140,8|0,0:0|0:0,0:0:0:0:
136,240,62360,1,0,0:0:0:0:
136,240,62667,2,0,L|112:168,1,70,8|2,0:0|0:0,0:0:0:0:
32,248,63279,5,8,0:0:0:0:
80,328,63585,1,8,0:0:0:0:
184,328,63891,1,0,0:0:0:0:
256,248,64197,6,0,P|288:224|328:216,1,70,0|2,0:0|0:0,0:0:0:0:
408,168,64809,2,0,L|432:96,1,70
344,48,65422,1,0,0:0:0:0:
344,48,65575,1,0,0:0:0:0:
344,48,65728,2,0,P|312:72|304:104,1,70,2|0,0:0|0:0,0:0:0:0:
256,184,66340,6,0,P|248:224|224:256,2,70,8|0|2,0:0|0:0|0:0,0:0:0:0:
208,104,67258,1,0,0:0:0:0:
208,104,67564,2,0,P|168:56|88:56,1,140,0|2,0:0|0:0,0:0:0:0:
40,136,68483,1,0,0:0:0:0:
40,136,68636,1,0,0:0:0:0:
40,136,68789,6,0,L|96:264,1,140,8|2,0:0|0:0,0:0:0:0:
176,328,69707,2,0,P|216:336|248:328,2,70
192,240,70626,1,2,0:0:0:0:
280,224,70932,2,0,L|304:152,1,70,0|8,0:0|0:0,0:0:0:0:
384,112,71544,5,0,0:0:0:0:
488,120,71850,2,0,L|465:186,1,70,2|0,0:0|0:0,0:0:0:0:
400,264,72462,2,0,L|352:280,1,35,8|8,0:0|0:0,0:0:0:0:
336,312,72769,2,0,L|288:328,1,35,8|8,0:0|0:0,0:0:0:0:
272,360,73075,2,0,L|200:336,1,70,4|0,0:0|0:0,0:0:0:0:
176,248,73687,6,0,P|144:208|88:200,1,105.000004005432,0|0,0:0|0:0,0:0:0:0:
64,104,74299,1,8,0:0:0:0:
168,120,74605,1,0,0:0:0:0:
168,120,74758,2,0,B|252:115|252:115|320:80,1,157.500006008148,8|0,0:0|0:0,0:0:0:0:
400,136,75524,1,8,0:0:0:0:
352,224,75830,1,0,0:0:0:0:
352,224,75983,1,0,0:0:0:0:
352,224,76136,2,0,P|336:280|352:328,1,105.000004005432
440,232,76748,5,8,0:0:0:0:
464,120,77054,1,0,0:0:0:0:
368,56,77360,1,0,0:0:0:0:
368,56,77513,1,8,0:0:0:0:
368,56,77667,2,0,P|328:96|320:144,1,105.000004005432,0|8,0:0|0:0,0:0:0:0:
264,232,78279,1,0,0:0:0:0:
248,208,78432,1,0,0:0:0:0:
232,184,78585,2,0,L|128:160,1,105.000004005432,4|0,0:0|0:0,0:0:0:0:
72,48,79197,1,8,0:0:0:0:
208,40,79503,5,0,0:0:0:0:
209,41,79656,2,0,P|248:112|232:184,1,157.500006008148,8|0,0:0|0:0,0:0:0:0:
144,256,80422,2,0,L|176:360,1,105.000004005432,8|0,0:0|0:0,0:0:0:0:
280,376,81034,2,0,B|384:352|320:264|432:240,1,210.000008010865,0|8,0:0|0:0,0:0:0:0:
448,336,81952,5,0,0:0:0:0:
448,336,82105,1,8,0:0:0:0:
448,336,82258,2,0,B|400:328|400:328|360:280,1,105.000004005432
328,176,82871,2,0,P|336:120|376:88,1,105.000004005432,8|8,0:0|0:0,0:0:0:0:
371,89,83330,1,8,0:0:0:0:
371,89,83483,2,0,L|480:80,2,105.000004005432,4|0|8,0:0|0:0|0:0,0:0:0:0:
264,40,84401,5,0,0:0:0:0:
264,40,84554,2,0,P|192:64|168:144,1,157.500006008148
256,216,85320,1,8,0:0:0:0:
176,304,85626,1,0,0:0:0:0:
72,248,85932,2,0,P|64:184|88:144,1,105.000004005432
160,64,86544,6,0,L|264:32,1,105.000004005432,12|0,0:0|0:0,0:0:0:0:
360,88,87156,1,0,0:0:0:0:
360,88,87309,1,8,0:0:0:0:
360,88,87462,1,0,0:0:0:0:
288,168,87769,2,0,P|296:224|344:264,1,105.000004005432,8|0,0:0|0:0,0:0:0:0:
328,257,88228,1,0,0:0:0:0:
328,257,88381,2,0,P|376:280|400:328,1,105.000004005432,4|0,0:0|0:0,0:0:0:0:
296,360,88993,6,0,B|272:368|272:368|192:360,1,105.000004005432,8|0,0:0|0:0,0:0:0:0:
112,296,89605,1,0,0:0:0:0:
32,232,89911,1,0,0:0:0:0:
128,192,90218,2,0,P|168:152|176:96,1,105.000004005432,8|0,0:0|0:0,0:0:0:0:
120,32,90830,5,0,0:0:0:0:
72,112,91136,1,0,0:0:0:0:
128,192,91442,1,8,0:0:0:0:
232,200,91748,1,0,0:0:0:0:
304,120,92054,5,0,0:0:0:0:
224,64,92360,1,0,0:0:0:0:
144,128,92667,1,8,0:0:0:0:
144,128,92820,1,8,0:0:0:0:
144,128,92973,1,8,0:0:0:0:
152,224,93279,2,0,B|176:320|256:312|392:280|232:200|368:168|448:160|472:256,1,420.000016021729,4|8,0:0|0:0,0:0:0:0:
471,254,94656,1,8,0:0:0:0:
471,254,94809,2,0,B|464:336|464:336|448:360,1,105.000004005432,8|0,0:0|0:0,0:0:0:0:
352,352,95422,6,0,P|304:328|256:336,2,105.000004005432,0|4|0,0:0|0:0|0:0,0:0:0:0:
392,272,96340,1,8,0:0:0:0:
352,192,96646,2,0,P|368:88|456:48,1,210.000008010865
452,161,97564,2,0,L|352:192,1,105.000004005432,8|0,0:0|0:0,0:0:0:0:
272,120,98177,6,0,P|224:88|176:96,1,105.000004005432
56,120,98789,1,8,0:0:0:0:
156,177,99095,1,0,0:0:0:0:
156,177,99248,1,0,0:0:0:0:
156,177,99401,2,0,B|184:224|184:224|192:280,1,105.000004005432
296,352,100013,2,0,L|280:237,1,105.000004005432,8|0,0:0|0:0,0:0:0:0:
344,160,100626,6,0,P|400:144|440:168,1,105.000004005432,4|0,0:0|0:0,0:0:0:0:
438,165,101085,1,0,0:0:0:0:
438,165,101238,2,0,L|456:272,2,105.000004005432,8|0|0,0:0|0:0|0:0,0:0:0:0:
392,56,102156,1,0,0:0:0:0:
280,64,102462,1,8,0:0:0:0:
264,168,102769,2,0,P|274:218|238:261,1,105.000004005432
144,192,103381,5,0,0:0:0:0:
144,192,103534,1,0,0:0:0:0:
144,192,103687,2,0,B|128:136|128:136|136:80,1,105.000004005432,8|0,0:0|0:0,0:0:0:0:
280,64,104299,2,0,B|296:120|296:120|289:166,1,105.000004005432
224,272,104911,1,8,0:0:0:0:
96,264,105218,5,8,0:0:0:0:
96,264,105371,1,8,0:0:0:0:
96,264,105524,2,0,P|40:176|72:80,1,210.000008010865,4|8,0:0|0:0,0:0:0:0:
176,24,106442,1,0,0:0:0:0:
176,24,106595,1,0,0:0:0:0:
176,24,106748,2,0,B|208:56|208:56|272:64,1,105.000004005432
376,24,107360,2,0,P|424:56|440:104,1,105.000004005432,8|0,0:0|0:0,0:0:0:0:
376,184,107973,6,0,L|392:288,2,105.000004005432,0|0|8,0:0|0:0|0:0,0:0:0:0:
272,136,108891,1,0,0:0:0:0:
272,136,109044,2,0,P|216:184|216:272,1,157.500006008148
309,337,109809,2,0,P|360:328|392:288,1,105.000004005432,8|0,0:0|0:0,0:0:0:0:
392,287,110269,1,0,0:0:0:0:
392,287,110422,6,0,B|400:192|512:232|504:120,1,210.000008010865,4|8,0:0|0:0,0:0:0:0:
432,24,111340,2,0,L|424:128,1,105.000004005432
328,208,111952,2,0,L|336:104,1,105.000004005432,0|8,0:0|0:0,0:0:0:0:
248,32,112564,1,0,0:0:0:0:
176,128,112871,6,0,B|160:192|200:248|255:262|255:262|216:296,1,210.000008010865,0|8,0:0|0:0,0:0:0:0:
120,336,113789,1,0,0:0:0:0:
120,336,113942,1,0,0:0:0:0:
120,336,114095,1,0,0:0:0:0:
88,216,114401,1,0,0:0:0:0:
16,120,114707,2,0,L|72:104,1,52.5000020027161,12|0,0:0|0:0,0:0:0:0:
88,72,115013,2,0,L|144:56,1,52.5000020027161
160,24,115320,6,0,P|176:72|152:128,2,105.000004005432,4|0|8,0:0|0:0|0:0,0:0:0:0:
256,72,116238,2,0,P|360:64|432:144,1,210.000008010865
464,235,117156,2,0,B|400:272|400:272|376:251,1,105.000004005432,8|0,0:0|0:0,0:0:0:0:
376,251,117615,1,0,0:0:0:0:
376,251,117769,2,0,P|328:224|280:232,1,105.000004005432
208,296,118381,6,0,P|184:248|192:192,2,105.000004005432,8|0|0,0:0|0:0|0:0,0:0:0:0:
312,336,119299,1,0,0:0:0:0:
376,251,119605,1,8,0:0:0:0:
320,160,119911,1,0,0:0:0:0:
320,160,120064,1,0,0:0:0:0:
320,160,120218,1,4,0:0:0:0:
216,152,120524,5,0,0:0:0:0:
216,152,120677,1,0,0:0:0:0:
216,152,120830,2,0,P|176:120|168:64,2,105.000004005432,8|0|0,0:0|0:0|0:0,0:0:0:0:
304,232,121748,1,0,0:0:0:0:
192,280,122054,1,8,0:0:0:0:
112,184,122360,1,0,0:0:0:0:
112,184,122667,6,0,P|80:136|88:88,1,105.000004005432
112,64,123126,1,0,0:0:0:0:
144,56,123279,2,0,L|248:48,2,105.000004005432,8|0|0,0:0|0:0|0:0,0:0:0:0:
200,136,124197,1,0,0:0:0:0:
304,160,124503,2,0,P|344:120|400:120,1,105.000004005432,8|8,0:0|0:0,0:0:0:0:
390,116,124962,1,8,0:0:0:0:
390,116,125115,6,0,B|400:208|400:208|360:216|328:248|336:296,1,210.000008010865
248,360,126034,1,0,0:0:0:0:
248,360,126187,1,0,0:0:0:0:
248,360,126340,2,0,B|272:280|168:256|192:152,1,210.000008010865,0|8,0:0|0:0,0:0:0:0:
112,80,127258,5,0,0:0:0:0:
24,168,127564,2,0,L|48:272,1,105.000004005432
160,336,128177,2,0,L|264:312,1,105.000004005432,8|0,0:0|0:0,0:0:0:0:
262,312,128636,1,0,0:0:0:0:
262,312,128789,2,0,P|280:256|328:240,1,105.000004005432
432,240,129401,1,8,0:0:0:0:
392,344,129707,5,0,0:0:0:0:
392,344,129860,1,0,0:0:0:0:
392,344,130013,2,0,P|320:256|352:160,1,210.000008010865,4|8,0:0|0:0,0:0:0:0:
400,80,130932,2,0,P|456:56|496:72,2,105.000004005432
288,72,131850,2,0,P|232:96|192:80,1,105.000004005432,8|0,0:0|0:0,0:0:0:0:
96,48,132462,5,4,0:0:0:0:
152,128,132769,1,0,0:0:0:0:
128,224,133075,1,8,0:0:0:0:
32,264,133381,1,0,0:0:0:0:
48,160,133687,5,4,0:0:0:0:
160,184,133993,1,0,0:0:0:0:
224,272,134299,1,8,0:0:0:0:
224,376,134605,1,0,0:0:0:0:
112,320,134911,6,0,B|88:264|88:264|88:208,1,105.000004005432,4|0,0:0|0:0,0:0:0:0:
112,104,135524,2,0,P|152:56|192:48,1,105.000004005432,8|0,0:0|0:0,0:0:0:0:
288,112,136136,1,0,0:0:0:0:
200,200,136442,1,0,0:0:0:0:
200,200,136595,1,0,0:0:0:0:
200,200,136748,2,0,P|208:256|248:296,1,105.000004005432,8|0,0:0|0:0,0:0:0:0:
360,288,137360,6,0,P|352:344|312:384,2,105.000004005432,0|0|8,0:0|0:0|0:0,0:0:0:0:
320,192,138279,1,0,0:0:0:0:
424,184,138585,2,0,P|464:96|400:8,1,210.000008010865,0|8,0:0|0:0,0:0:0:0:
360,104,139503,5,0,0:0:0:0:
360,104,139656,1,0,0:0:0:0:
360,104,139809,2,0,P|320:144|272:152,1,105.000004005432,4|0,0:0|0:0,0:0:0:0:
160,128,140422,1,8,0:0:0:0:
192,24,140728,1,0,0:0:0:0:
192,24,140881,2,0,P|112:24|64:96,1,157.500006008148,0|4,0:0|0:0,0:0:0:0:
40,192,141646,1,8,0:0:0:0:
40,192,141952,2,0,L|80:296,1,105.000004005432,8|4,0:0|0:0,0:0:0:0:
256,192,142411,12,0,144707,0:0:0:0:
88,208,164299,6,0,P|72:152|96:104,1,105.000004005432,4|0,0:0|0:0,0:0:0:0:
176,48,164911,1,8,0:0:0:0:
192,152,165218,1,0,0:0:0:0:
192,152,165371,1,0,0:0:0:0:
192,152,165524,2,0,L|296:176,2,105.000004005432,0|0|8,0:0|0:0|0:0,0:0:0:0:
192,272,166442,1,0,0:0:0:0:
320,296,166748,6,0,P|416:248|424:144,2,210.000008010865,0|8|0,0:0|0:0|0:0,0:0:0:0:
272,192,168279,1,0,0:0:0:0:
344,104,168585,1,8,0:0:0:0:
344,104,168738,1,0,0:0:0:0:
344,104,168891,1,0,0:0:0:0:
232,24,169197,6,0,B|208:64|208:64|208:80|208:80|176:128,1,105.000004005432,4|0,0:0|0:0,0:0:0:0:
72,144,169809,2,0,P|32:184|32:240,1,105.000004005432,8|0,0:0|0:0,0:0:0:0:
28,230,170269,1,0,0:0:0:0:
28,230,170422,2,0,P|64:272|64:320,1,105.000004005432
160,264,171034,1,8,0:0:0:0:
216,360,171340,1,0,0:0:0:0:
288,280,171646,6,0,B|360:248|424:352|504:304,1,210.000008010865,0|8,0:0|0:0,0:0:0:0:
456,216,172564,1,0,0:0:0:0:
360,176,172871,1,8,0:0:0:0:
360,176,173024,2,0,L|352:120,1,52.5000020027161,4|0,0:0|0:0,0:0:0:0:
272,40,173483,1,12,0:0:0:0:
240,56,173636,1,8,0:0:0:0:
216,88,173789,1,8,0:0:0:0:
208,120,173942,1,8,0:0:0:0:
208,120,174095,6,0,L|222:223,1,105.000004005432,4|0,0:0|0:0,0:0:0:0:
160,312,174707,1,8,0:0:0:0:
56,256,175013,1,0,0:0:0:0:
56,256,175167,1,0,0:0:0:0:
56,256,175320,2,0,P|40:200|56:144,1,105.000004005432
144,56,175932,2,0,P|160:112|144:168,1,105.000004005432,8|0,0:0|0:0,0:0:0:0:
150,156,176391,1,8,0:0:0:0:
150,156,176544,6,0,P|128:264|192:336,2,210.000008010865,4|12|4,0:0|0:0|0:0,0:0:0:0:
256,104,178075,6,0,L|296:112,8,35.0000013351441,0|8|8|8|8|8|8|8|8,0:0|0:0|0:0|0:0|0:0|0:0|0:0|0:0|0:0,0:0:0:0:
328,120,178993,2,0,P|368:80|416:80,1,105.000004005432,4|0,0:0|0:0,0:0:0:0:
384,208,179605,1,12,0:0:0:0:
280,280,179911,1,0,0:0:0:0:
280,280,180064,1,0,0:0:0:0:
280,280,180218,2,0,L|248:176,1,105.000004005432
144,128,180830,2,0,L|174:228,1,105.000004005432,8|0,0:0|0:0,0:0:0:0:
168,328,181442,5,12,0:0:0:0:
88,304,181748,1,8,0:0:0:0:
32,208,182054,1,8,0:0:0:0:
72,88,182360,1,8,0:0:0:0:
224,32,182667,2,0,L|200:144,1,105.000004005432,4|0,0:0|0:0,0:0:0:0:
232,256,183279,2,0,L|288:240,1,52.5000020027161,8|8,0:0|0:0,0:0:0:0:
296,208,183585,2,0,L|352:192,1,52.5000020027161,8|8,0:0|0:0,0:0:0:0:
360,160,183891,6,0,P|368:112|408:80,2,87.5,4|0|2,0:0|0:0|0:0,0:0:0:0:
408,240,184809,1,0,0:0:0:0:
408,240,184962,1,0,0:0:0:0:
408,240,185115,2,0,P|392:328|312:360,1,175,0|2,0:0|0:0,0:0:0:0:
240,304,186034,5,0,0:0:0:0:
288,224,186340,1,8,0:0:0:0:
240,144,186646,1,0,0:0:0:0:
152,104,186952,2,0,P|144:152|160:192,1,87.5,2|0,0:0|0:0,0:0:0:0:
104,272,187564,2,0,L|56:96,1,175,0|2,0:0|0:0,0:0:0:0:
112,24,188483,5,0,0:0:0:0:
112,24,188636,1,0,0:0:0:0:
112,24,188789,2,0,L|200:40,1,87.5,8|0,0:0|0:0,0:0:0:0:
248,128,189401,1,2,0:0:0:0:
328,72,189707,1,0,0:0:0:0:
328,72,189860,2,0,P|384:128|376:192,1,131.25
288,232,190626,1,2,0:0:0:0:
288,232,190932,1,0,0:0:0:0:
328,328,191238,6,0,B|408:304|408:304|440:208,1,175,8|2,0:0|0:0,0:0:0:0:
472,120,192156,1,0,0:0:0:0:
472,120,192309,1,0,0:0:0:0:
472,120,192462,2,0,L|384:88,1,87.5,8|2,0:0|0:0,0:0:0:0:
320,16,193075,2,0,L|288:104,1,87.5,8|8,0:0|0:0,0:0:0:0:
192,128,193687,6,0,P|112:152|88:240,1,175,0|2,0:0|0:0,0:0:0:0:
184,224,194605,1,0,0:0:0:0:
184,224,194758,1,0,0:0:0:0:
184,224,194911,2,0,P|232:224|264:192,1,87.5
344,136,195524,1,2,0:0:0:0:
432,192,195830,6,0,L|400:280,1,87.5,0|8,0:0|0:0,0:0:0:0:
304,304,196442,2,0,L|333:221,1,87.5
344,136,197054,2,0,B|304:56|240:128|200:56,1,175,8|8,0:0|0:0,0:0:0:0:
104,40,197973,1,8,0:0:0:0:
104,40,198126,1,8,0:0:0:0:
104,40,198279,1,8,0:0:0:0:
64,128,198585,6,0,P|96:176|88:224,1,105.000004005432,4|0,0:0|0:0,0:0:0:0:
152,320,199197,1,8,0:0:0:0:
240,240,199503,1,0,0:0:0:0:
240,240,199656,2,0,P|328:248|368:304,1,157.500006008148
480,336,200422,2,0,B|456:248|456:248|440:232,1,105.000004005432,8|0,0:0|0:0,0:0:0:0:
352,168,201034,2,0,P|328:112|344:64,2,105.000004005432,4|0|8,0:0|0:0|0:0,0:0:0:0:
432,112,201952,5,0,0:0:0:0:
432,112,202258,2,4,L|320:120,1,105.000004005432,0|4,0:0|0:0,0:0:0:0:
208,88,202871,1,8,0:0:0:0:
184,120,203024,1,8,0:0:0:0:
176,160,203177,1,8,0:0:0:0:
184,200,203330,1,8,0:0:0:0:
208,232,203483,1,4,0:0:0:0:
256,192,203636,12,0,205932,0:0:0:0:
256,80,207156,5,8,0:0:0:0:
256,80,207309,1,8,0:0:0:0:
256,80,207462,1,8,0:0:0:0:
376,128,207769,2,0,P|384:184|352:232,1,105.000004005432
256,280,208381,2,0,B|240:328|240:328|248:328|248:328|232:384,2,105.000004005432,4|0|8,0:0|0:0|0:0,0:0:0:0:
224,176,209299,2,0,P|120:160|72:240,1,210.000008010865
168,248,210218,6,0,P|208:232|224:176,1,105.000004005432,8|0,0:0|0:0,0:0:0:0:
192,72,210830,1,0,0:0:0:0:
288,24,211136,1,0,0:0:0:0:
384,88,211442,1,8,0:0:0:0:
280,152,211748,1,0,0:0:0:0:
280,152,211901,1,0,0:0:0:0:
280,152,212054,2,0,P|248:192|256:256,1,105.000004005432
328,328,212667,6,0,P|384:344|432:320,2,105.000004005432,8|0|4,0:0|0:0|0:0,0:0:0:0:
224,304,213585,1,0,0:0:0:0:
224,304,213738,1,0,0:0:0:0:
224,304,213891,2,0,P|168:288|120:312,1,105.000004005432,8|0,0:0|0:0,0:0:0:0:
72,216,214503,1,0,0:0:0:0:
168,160,214809,1,0,0:0:0:0:
168,160,214962,1,0,0:0:0:0:
168,160,215115,1,8,0:0:0:0:
216,56,215422,1,0,0:0:0:0:
296,128,215728,6,0,L|240:224,1,105.000004005432
244,218,216187,1,0,0:0:0:0:
244,218,216340,2,0,P|200:255|152:255,1,105.000004005432,8|0,0:0|0:0,0:0:0:0:
72,168,216952,2,0,P|128:80|224:88,1,210.000008010865,0|8,0:0|0:0,0:0:0:0:
320,176,217871,5,8,0:0:0:0:
320,176,218024,1,8,0:0:0:0:
320,176,218177,2,0,B|344:216|344:216|336:280,1,105.000004005432,4|0,0:0|0:0,0:0:0:0:
216,344,218789,2,0,L|231:230,1,105.000004005432,8|0,0:0|0:0,0:0:0:0:
229,239,219248,1,0,0:0:0:0:
229,239,219401,2,0,P|208:192|216:136,1,105.000004005432
319,76,220013,6,0,B|335:108|335:108|320:176,2,105.000004005432,8|0|0,0:0|0:0|0:0,0:0:0:0:
208,32,220932,1,0,0:0:0:0:
144,128,221238,1,8,0:0:0:0:
256,168,221544,1,0,0:0:0:0:
256,168,221697,1,0,0:0:0:0:
256,168,221850,2,0,P|232:216|176:232,1,105.000004005432
80,216,222462,1,8,0:0:0:0:
48,80,222769,5,0,0:0:0:0:
48,80,222922,1,0,0:0:0:0:
48,80,223075,2,0,B|104:48|104:48|136:80|192:96|240:48,1,210.000008010865,4|8,0:0|0:0,0:0:0:0:
344,64,223993,2,0,P|400:48|440:72,2,105.000004005432
280,144,224911,2,0,L|312:248,1,105.000004005432,8|0,0:0|0:0,0:0:0:0:
408,328,225524,6,0,P|464:216|424:152,1,210.000008010865,0|8,0:0|0:0,0:0:0:0:
328,96,226442,1,0,0:0:0:0:
328,96,226595,1,0,0:0:0:0:
328,96,226748,1,0,0:0:0:0:
272,184,227054,1,0,0:0:0:0:
320,280,227360,2,0,L|264:296,1,52.5000020027161,4|0,0:0|0:0,0:0:0:0:
248,320,227667,2,0,L|192:336,1,52.5000020027161
176,360,227973,6,0,P|168:304|200:256,2,105.000004005432,4|0|8,0:0|0:0|0:0,0:0:0:0:
64,304,228891,2,0,B|56:208|152:200|136:112,1,210.000008010865
48,32,229809,2,0,L|56:136,1,105.000004005432,8|0,0:0|0:0,0:0:0:0:
56,136,230269,1,0,0:0:0:0:
56,136,230422,6,0,P|80:184|128:200,1,105.000004005432
240,160,231034,1,8,0:0:0:0:
160,96,231340,1,0,0:0:0:0:
160,96,231493,1,0,0:0:0:0:
160,96,231646,1,0,0:0:0:0:
280,40,231952,1,0,0:0:0:0:
344,144,232258,2,0,P|360:200|336:256,1,105.000004005432,8|0,0:0|0:0,0:0:0:0:
240,320,232871,1,4,0:0:0:0:
168,224,233177,5,0,0:0:0:0:
168,224,233330,1,0,0:0:0:0:
168,224,233483,2,0,P|152:168|176:112,1,105.000004005432,8|0,0:0|0:0,0:0:0:0:
264,64,234095,1,0,0:0:0:0:
384,88,234401,1,0,0:0:0:0:
384,88,234554,1,0,0:0:0:0:
384,88,234707,2,0,B|408:72|408:72|488:88,2,105.000004005432,8|0|0,0:0|0:0|0:0,0:0:0:0:
296,160,235626,5,0,0:0:0:0:
296,160,235779,1,0,0:0:0:0:
296,160,235932,2,0,L|288:264,1,105.000004005432,8|0,0:0|0:0,0:0:0:0:
400,216,236544,2,0,P|424:168|416:120,1,105.000004005432
415,119,237003,1,0,0:0:0:0:
415,119,237156,1,8,0:0:0:0:
296,48,237462,5,8,0:0:0:0:
296,48,237615,1,8,0:0:0:0:
296,48,237769,2,0,B|198:42|201:146|102:124,1,210.000008010865,4|8,0:0|0:0,0:0:0:0:
48,48,238687,1,0,0:0:0:0:
48,48,238840,1,0,0:0:0:0:
48,48,238993,2,0,P|16:88|16:144,2,105.000004005432,0|0|8,0:0|0:0|0:0,0:0:0:0:
152,48,239911,1,0,0:0:0:0:
200,144,240218,6,0,L|224:248,1,105.000004005432
336,216,240830,1,8,0:0:0:0:
376,104,241136,1,0,0:0:0:0:
376,104,241289,1,0,0:0:0:0:
376,104,241442,2,0,P|424:128|456:176,1,105.000004005432
440,280,242054,1,8,0:0:0:0:
328,336,242360,5,0,0:0:0:0:
328,336,242513,1,0,0:0:0:0:
328,336,242667,2,0,B|304:280|232:272|184:312|184:312|176:272,1,210.000008010865,4|12,0:0|0:0,0:0:0:0:
72,232,243585,2,0,L|96:352,2,105.000004005432
0,144,244503,2,0,P|-8:88|24:48,1,105.000004005432,12|0,0:0|0:0,0:0:0:0:
128,16,245115,2,0,B|152:24|152:24|136:48|136:48|188:66|208:128|192:184,1,210.000008010865,4|8,0:0|0:0,0:0:0:0:
168,296,246034,1,0,0:0:0:0:
168,296,246340,2,0,P|224:280|272:296,1,105.000004005432,4|0,0:0|0:0,0:0:0:0:
384,360,246952,6,0,L|376:288,1,70
456,208,247564,2,0,P|472:104|400:32,1,210.000008010865,4|12,0:0|0:0,0:0:0:0:
272,72,248483,2,0,P|256:176|328:248,1,210.000008010865
360,144,249401,1,8,0:0:0:0:
272,72,249707,5,0,0:0:0:0:
272,72,249860,1,0,0:0:0:0:
272,72,250013,2,0,P|232:32|184:32,2,105.000004005432,0|0|8,0:0|0:0|0:0,0:0:0:0:
280,184,250932,2,0,B|248:192|248:192|216:272,1,105.000004005432
120,312,251544,1,0,0:0:0:0:
16,248,251850,1,8,0:0:0:0:
118,188,252156,1,0,0:0:0:0:
118,188,252462,6,0,P|160:152|176:96,1,105.000004005432,4|0,0:0|0:0,0:0:0:0:
175,106,252922,1,0,0:0:0:0:
175,106,253075,1,8,0:0:0:0:
280,56,253381,2,0,P|389:75|422:160,1,210.000008010865
360,256,254299,1,8,0:0:0:0:
280,176,254605,1,0,0:0:0:0:
280,176,254911,2,0,L|176:224,1,105.000004005432
176,272,255371,1,0,0:0:0:0:
202,309,255524,6,0,P|216:264|184:220,1,105.000004005432,8|0,0:0|0:0,0:0:0:0:
88,160,256136,2,0,L|72:56,2,105.000004005432,0|0|8,0:0|0:0|0:0,0:0:0:0:
32,256,257054,1,8,0:0:0:0:
32,256,257207,1,8,0:0:0:0:
32,256,257360,2,0,P|136:280|176:368,1,210.000008010865,4|8,0:0|0:0,0:0:0:0:
256,304,258279,5,0,0:0:0:0:
256,304,258432,1,0,0:0:0:0:
256,304,258585,2,0,P|304:328|360:320,2,105.000004005432,0|0|8,0:0|0:0|0:0,0:0:0:0:
176,208,259503,1,0,0:0:0:0:
176,208,259656,1,0,0:0:0:0:
176,208,259809,2,0,L|208:104,1,105.000004005432
312,32,260422,1,8,0:0:0:0:
320,152,260728,5,0,0:0:0:0:
320,152,260881,1,0,0:0:0:0:
320,152,261034,2,0,P|376:144|408:104,2,105.000004005432,0|0|8,0:0|0:0|0:0,0:0:0:0:
256,248,261952,1,0,0:0:0:0:
256,248,262105,1,0,0:0:0:0:
256,248,262258,2,0,P|136:240|80:320,1,210.000008010865,4|8,0:0|0:0,0:0:0:0:
192,336,263177,5,0,0:0:0:0:
256,248,263483,1,0,0:0:0:0:
368,240,263789,1,0,0:0:0:0:
464,296,264095,2,0,P|432:336|376:352,1,105.000004005432,8|0,0:0|0:0,0:0:0:0:
296,272,264707,2,0,L|280:168,1,105.000004005432,4|0,0:0|0:0,0:0:0:0:
264,64,265320,5,8,0:0:0:0:
376,48,265626,1,0,0:0:0:0:
391,151,265932,1,4,0:0:0:0:
280,168,266238,1,0,0:0:0:0:
176,120,266544,2,0,L|144:96,5,35.0000013351441,8|8|8|8|8|8,0:0|0:0|0:0|0:0|0:0|0:0,0:0:0:0:
112,96,267156,6,0,P|64:120|48:168,1,105.000004005432,4|0,0:0|0:0,0:0:0:0:
120,296,267769,2,0,B|168:232|168:232|169:206,1,105.000004005432,8|0,0:0|0:0,0:0:0:0:
232,104,268381,1,0,0:0:0:0:
320,176,268687,1,0,0:0:0:0:
320,176,268840,1,0,0:0:0:0:
320,176,268993,1,8,0:0:0:0:
280,288,269299,1,0,0:0:0:0:
376,360,269605,6,0,P|400:312|400:256,2,105.000004005432,0|0|8,0:0|0:0|0:0,0:0:0:0:
280,288,270524,1,0,0:0:0:0:
320,176,270830,2,0,P|384:96|480:112,2,210.000008010865,0|8|4,0:0|0:0|0:0,0:0:0:0:
256,80,272360,5,0,0:0:0:0:
192,176,272667,1,8,0:0:0:0:
88,136,272973,1,0,0:0:0:0:
88,136,273126,1,0,0:0:0:0:
88,136,273279,2,0,L|152:48,1,105.000004005432
256,128,273891,2,0,P|272:184|248:232,1,105.000004005432,8|0,0:0|0:0,0:0:0:0:
132,318,274503,6,0,P|72:240|88:136,1,210.000008010865,0|8,0:0|0:0,0:0:0:0:
179,61,275422,1,0,0:0:0:0:
179,61,275575,1,0,0:0:0:0:
179,61,275728,2,0,B|208:104|208:104|256:128,1,105.000004005432
376,112,276340,2,0,P|408:144|416:208,1,105.000004005432,8|0,0:0|0:0,0:0:0:0:
336,296,276952,6,0,L|320:192,2,105.000004005432,4|0|8,0:0|0:0|0:0,0:0:0:0:
224,296,277871,1,0,0:0:0:0:
224,296,278024,2,0,P|168:352|80:344,1,157.500006008148
24,272,278789,1,8,0:0:0:0:
128,256,279095,1,0,0:0:0:0:
192,168,279401,6,0,P|200:112|232:72,2,105.000004005432,0|0|8,0:0|0:0|0:0,0:0:0:0:
272,240,280320,1,0,0:0:0:0:
304,144,280626,2,0,L|408:128,1,105.000004005432,0|4,0:0|0:0,0:0:0:0:
472,216,281238,2,0,L|456:272,1,52.5000020027161,8|8,0:0|0:0,0:0:0:0:
424,280,281544,2,0,L|408:336,1,52.5000020027161,8|8,0:0|0:0,0:0:0:0:
376,344,281850,6,0,P|328:320|280:336,2,105.000004005432,4|0|0,0:0|0:0|0:0,0:0:0:0:
352,232,282769,1,0,0:0:0:0:
352,232,282922,2,0,L|320:72,1,157.500006008148
232,40,283687,2,0,P|184:64|160:112,1,105.000004005432
160,208,284299,5,12,0:0:0:0:
192,296,284605,1,8,0:0:0:0:
312,320,284911,1,8,0:0:0:0:
448,216,285218,1,8,0:0:0:0:
400,32,285524,2,0,L|304:80,1,105.000004005432,4|0,0:0|0:0,0:0:0:0:
215,158,286136,5,8,0:0:0:0:
192,120,286289,1,8,0:0:0:0:
154,103,286442,1,8,0:0:0:0:
112,109,286595,1,8,0:0:0:0:
79,143,286748,1,4,0:0:0:0:
