osu file format v13

[General]
AudioFilename: Hanatan - Uta ni Katachi wa Nai Keredo.mp3
AudioLeadIn: 1000
PreviewTime: 94521
Countdown: 0
SampleSet: Soft
StackLeniency: 0.4
Mode: 0
LetterboxInBreaks: 0
WidescreenStoryboard: 0

[Editor]
DistanceSpacing: 1.2
BeatDivisor: 4
GridSize: 4
TimelineZoom: 1

[Metadata]
Title:Uta ni Katachi wa Nai keredo
TitleUnicode:歌に形はないけれど
Artist:Hanatan
ArtistUnicode:花たん
Creator:Rakuen
Version:Normal
Source:
Tags:Flower ユリカ YURiCa Yurika Kin Oracle doriko Vocaloid Hatsune Miku
BeatmapID:435499
BeatmapSetID:181430

[Difficulty]
HPDrainRate:3
CircleSize:3
OverallDifficulty:3
ApproachRate:4
SliderMultiplier:1.4
SliderTickRate:1

[Events]
//Background and Video events
0,0,"women_vocaloid_dress_hatsune_m_2560x1440.jpg",0,0
//Break Periods
2,144925,162997
2,184109,192385
2,306358,313916
//Storyboard Layer 0 (Background)
//Storyboard Layer 1 (Fail)
//Storyboard Layer 2 (Pass)
//Storyboard Layer 3 (Foreground)
//Storyboard Sound Samples
//Background Colour Transformations
3,100,163,162,255

[TimingPoints]
236,612.244897959184,4,2,1,40,1,0
2684,-100,4,2,1,40,0,0
6970,-100,4,2,1,30,0,0
7123,-100,4,2,1,40,0,0
12480,-100,4,2,1,50,0,0
29623,-100,4,2,1,40,0,0
34521,-100,4,2,1,30,0,0
54113,-100,4,2,1,40,0,0
73705,-100,4,2,1,50,0,0
95746,-100,4,2,1,60,0,1
142276,-100,4,2,1,50,0,0
164317,-100,4,2,1,50,0,0
183909,-100,4,2,1,40,0,0
198603,-100,4,2,1,50,0,0
208399,-100,4,2,1,60,0,1
246970,-100,4,2,1,60,0,0
247582,-100,4,2,1,60,0,1
281868,-100,4,2,1,50,0,0
286766,-100,4,2,1,60,0,1
286919,-100,4,2,1,60,0,0
304062,-100,4,2,1,45,0,0
305746,-100,4,2,1,35,0,0
306358,-100,4,2,1,30,0,0
323501,-100,4,2,1,25,0,0
325950,-100,4,2,1,20,0,0
326868,-100,4,2,1,15,0,0

[Colours]
Combo1 : 119,0,238
Combo2 : 57,57,255
Combo3 : 251,0,182
Combo4 : 54,234,243

[HitObjects]
88,164,2684,6,0,B|117:190|153:198|153:198|205:238,1,140,2|0,0:0|0:0,0:0:0:0:
276,192,3603,2,0,P|328:144|404:157,1,140,2|0,0:0|0:0,0:0:0:0:
355,225,4521,1,2,0:0:0:0:
192,276,5133,6,0,B|168:216|168:216|184:176|176:120,1,140,2|0,0:0|0:0,0:0:0:0:
116,84,6052,1,2,0:0:0:0:
12,216,6664,2,0,L|72:268,1,70,0|10,0:0|0:0,0:0:0:0:
122,323,7276,1,0,0:0:0:0:
192,276,7582,6,0,P|234:247|278:244,1,70,2|0,0:0|0:0,0:0:0:0:
262,159,8195,2,0,P|308:180|332:217,1,70,2|0,0:0|0:0,0:0:0:0:
328,276,8807,1,2,0:0:0:0:
400,320,9113,2,0,L|472:276,1,70,2|2,0:0|0:0,0:0:0:0:
452,200,9725,1,2,0:0:0:0:
372,180,10031,6,0,P|332:148|308:60,1,140,10|0,0:0|0:0,0:0:0:0:
388,44,10950,1,0,0:0:0:0:
464,80,11256,1,8,0:0:0:0:
480,248,11868,1,12,0:0:0:0:
312,256,12480,6,0,P|348:220|360:180,1,70,4|0,0:0|0:0,0:0:0:0:
276,180,13093,2,0,P|276:129|256:92,1,70,8|4,0:0|0:0,0:0:0:0:
104,92,14011,1,0,0:0:0:0:
56,160,14317,1,8,0:0:0:0:
144,304,14929,6,0,B|180:302|215:276|215:276|260:264|300:284,1,140,4|8,0:0|0:0,0:0:0:0:
356,308,15848,1,4,0:0:0:0:
464,180,16460,2,0,L|424:116,1,70,0|8,0:0|0:0,0:0:0:0:
260,132,17378,6,0,P|212:120|136:40,1,140,4|8,0:0|0:0,0:0:0:0:
76,108,18297,2,0,P|101:150|98:260,1,140,4|0,0:0|0:0,0:0:0:0:
144,312,19215,2,0,L|216:268,1,70,8|0,0:0|0:0,0:0:0:0:
280,312,19827,6,0,B|308:272|304:232|304:232|280:208|268:172,1,140,4|8,0:0|0:0,0:0:0:0:
284,104,20746,1,0,0:0:0:0:
360,64,21052,2,0,L|432:32,1,70,8|0,0:0|0:0,0:0:0:0:
456,112,21664,2,0,L|430:177,1,70,12|0,0:0|0:0,0:0:0:0:
360,224,22276,6,0,P|292:192|208:208,1,140,4|8,0:0|0:0,0:0:0:0:
176,264,23195,1,4,0:0:0:0:
44,160,23807,2,0,L|68:76,2,70,0|8|0,0:0|0:0|0:0,0:0:0:0:
68,240,24725,6,0,P|136:272|220:256,1,140,4|8,0:0|0:0,0:0:0:0:
216,184,25644,2,0,P|194:119|233:58,1,140,4|0,0:0|0:0,0:0:0:0:
278,128,26562,2,0,P|298:166|296:209,1,70,8|0,0:0|0:0,0:0:0:0:
348,260,27174,6,0,B|392:220|392:220|400:172|436:132,1,140,4|8,0:0|0:0,0:0:0:0:
420,64,28093,2,0,P|377:79|349:108,1,70,4|0,0:0|0:0,0:0:0:0:
312,164,28705,1,0,0:0:0:0:
232,192,29011,2,0,L|184:136,2,46.6666666666667,8|0|0,0:0|0:0|0:0,0:0:0:0:
232,192,29623,6,0,B|204:248|204:248|168:264|144:296,1,140,4|2,0:0|0:0,0:0:0:0:
53,154,30848,1,2,0:0:0:0:
200,72,31460,1,6,0:0:0:0:
356,128,32072,6,0,L|424:80,2,70,2|2|0,0:0|0:0|0:0,0:0:0:0:
360,212,32991,2,0,P|283:171|310:57,1,210,2|8,0:0|0:0,0:0:0:0:
356,128,34215,1,0,0:0:0:0:
356,128,34521,5,2,0:0:0:0:
160,288,35440,2,0,L|84:220,1,70
111,157,36052,1,0,0:0:0:0:
192,132,36358,2,0,P|224:96|232:56,1,70,0|0,0:0|0:0,0:0:0:0:
312,52,36970,6,0,B|364:92|420:88|420:88|472:112|504:156,1,210,2|0,0:0|0:0,0:0:0:0:
448,216,38195,2,0,P|344:188|268:256,1,210
212,308,39419,6,0,B|156:340|156:340|108:332|60:360,1,140,2|0,0:0|0:0,0:0:0:0:
56,268,40338,2,0,P|72:232|68:180,1,70
151,172,40950,2,0,P|127:140|80:117,2,70,0|0|0,0:0|0:0|0:0,0:0:0:0:
216,224,41868,6,0,B|264:180|264:180|308:192|352:168,1,140,2|0,0:0|0:0,0:0:0:0:
297,100,42787,1,0,0:0:0:0:
297,100,43093,2,0,L|316:260,1,140
173,331,44317,5,2,0:0:0:0:
161,247,44623,2,0,L|125:179,1,70
52,152,45236,2,0,L|74:78,1,70,0|2,0:0|0:0,0:0:0:0:
155,84,45848,2,0,P|179:76|199:60,1,35
256,176,46460,1,0,0:0:0:0:
339,166,46766,5,2,0:0:0:0:
400,108,47072,1,0,0:0:0:0:
418,190,47378,2,0,P|446:222|490:250,2,70,0|0|2,0:0|0:0|0:0,0:0:0:0:
92,108,49215,5,2,0:0:0:0:
164,152,49521,2,0,L|236:92,2,70,0|0|0,0:0|0:0|0:0,0:0:0:0:
284,272,50746,2,0,P|308:304|340:320,1,70
363,239,51358,1,0,0:0:0:0:
296,188,51664,6,0,P|232:205|199:272,1,140,2|0,0:0|0:0,0:0:0:0:
284,272,52582,1,0,0:0:0:0:
352,320,52889,2,0,L|424:344,1,70,0|0,0:0|0:0,0:0:0:0:
464,272,53501,2,0,P|440:236|436:184,1,70,6|0,0:0|0:0,0:0:0:0:
460,128,54113,6,0,P|400:92|328:100,1,140,2|2,0:0|0:0,0:0:0:0:
296,172,55031,1,0,0:0:0:0:
212,192,55338,2,0,P|176:168|152:124,1,70
80,176,55950,2,0,P|37:184|-10:170,1,70,2|0,0:0|0:0,0:0:0:0:
41,101,56562,6,0,L|50:270,1,140,2|2,0:0|0:0,0:0:0:0:
120,284,57480,1,0,0:0:0:0:
196,248,57787,2,0,P|224:212|260:192,2,70,0|2|6,0:0|0:0|0:0,0:0:0:0:
340,336,59011,6,0,P|392:284|408:212,1,140,2|2,0:0|0:0,0:0:0:0:
356,156,59929,1,0,0:0:0:0:
276,132,60236,2,0,P|252:112|234:55,2,70,0|0|2,0:0|0:0|0:0,0:0:0:0:
317,59,61154,1,0,0:0:0:0:
317,59,61460,6,0,P|260:96|204:184,1,140,2|0,0:0|0:0,0:0:0:0:
232,236,62378,1,0,0:0:0:0:
152,260,62684,2,0,P|115:203|27:147,1,140,2|0,0:0|0:0,0:0:0:0:
8,92,63603,1,0,0:0:0:0:
80,48,63909,6,0,L|168:26,1,70,2|0,0:0|0:0,0:0:0:0:
199,96,64521,2,0,L|276:142,1,70,2|0,0:0|0:0,0:0:0:0:
316,68,65133,2,0,P|349:58|378:38,1,70,0|0,0:0|0:0,0:0:0:0:
424,112,65746,2,0,P|418:146|400:176,1,70,0|0,0:0|0:0,0:0:0:0:
316,164,66358,6,0,P|344:240|426:256,2,140,2|2|2,0:0|0:0|0:0,0:0:0:0:
232,148,67889,2,0,P|196:132|168:80,1,70,0|2,0:0|0:0,0:0:0:0:
249,67,68501,1,0,0:0:0:0:
320,20,68807,5,2,0:0:0:0:
449,126,69419,1,2,0:0:0:0:
384,180,69725,2,0,P|352:212|336:248,1,70,0|2,0:0|0:0,0:0:0:0:
256,228,70338,2,0,P|267:271|290:303,1,70,0|2,0:0|0:0,0:0:0:0:
208,336,70950,1,0,0:0:0:0:
132,296,71256,6,0,L|148:216,1,70,2|0,0:0|0:0,0:0:0:0:
64,220,71868,2,0,L|18:152,1,70,6|0,0:0|0:0,0:0:0:0:
32,80,72480,1,10,0:0:0:0:
116,64,72787,2,0,P|156:64|200:36,1,70,0|10,0:0|0:0,0:0:0:0:
256,92,73399,1,2,0:0:0:0:
324,144,73705,6,0,B|368:120|416:124|416:124|456:92,1,140,4|8,0:0|0:0,0:0:0:0:
496,168,74623,1,0,0:0:0:0:
496,168,74776,2,0,L|456:276,1,105,8|0,0:0|0:0,0:0:0:0:
392,316,75542,2,0,P|356:328|312:324,1,70,8|0,0:0|0:0,0:0:0:0:
248,292,76154,6,0,L|188:248,2,70,0|0|8,0:0|0:0|0:0,0:0:0:0:
310,234,77072,1,0,0:0:0:0:
310,234,77225,2,0,P|291:196|299:120,1,105,8|0,0:0|0:0,0:0:0:0:
365,90,77991,1,8,0:0:0:0:
436,136,78297,1,0,0:0:0:0:
432,220,78603,6,0,L|312:312,1,140,4|8,0:0|0:0,0:0:0:0:
252,256,79521,1,0,0:0:0:0:
252,256,79674,2,0,P|268:208|252:148,1,105,8|0,0:0|0:0,0:0:0:0:
175,179,80440,2,0,P|135:159|111:119,1,70,8|0,0:0|0:0,0:0:0:0:
192,97,81052,5,0,0:0:0:0:
356,56,81664,1,8,0:0:0:0:
432,88,81970,2,0,L|468:176,1,70,0|8,0:0|0:0,0:0:0:0:
392,204,82582,2,0,L|355:291,1,70,0|8,0:0|0:0,0:0:0:0:
288,308,83195,1,0,0:0:0:0:
204,296,83501,6,0,B|156:268|156:268|112:272|68:256,1,140,4|8,0:0|0:0,0:0:0:0:
60,176,84419,1,0,0:0:0:0:
60,176,84572,2,0,B|84:132|84:132|132:96,1,105,8|0,0:0|0:0,0:0:0:0:
168,176,85338,2,0,L|237:182,1,70,8|0,0:0|0:0,0:0:0:0:
224,268,85950,6,0,L|268:322,1,70
332,268,86562,2,0,P|360:204|428:160,1,140,12|0,0:0|0:0,0:0:0:0:
396,84,87480,2,0,P|360:72|312:76,1,70,0|8,0:0|0:0,0:0:0:0:
256,116,88093,1,0,0:0:0:0:
184,160,88399,6,0,L|112:300,1,140,4|8,0:0|0:0,0:0:0:0:
191,324,89317,2,0,P|223:309|258:307,1,70
336,340,89929,1,0,0:0:0:0:
408,292,90236,2,0,P|430:265|443:233,1,70,8|0,0:0|0:0,0:0:0:0:
392,164,90848,6,0,B|352:124|352:124|344:68|296:32,2,140,0|8|0,0:0|0:0|0:0,0:0:0:0:
336,228,92378,1,0,0:0:0:0:
252,236,92684,2,0,L|215:296,1,70,8|0,0:0|0:0,0:0:0:0:
132,312,93297,5,4,0:0:0:0:
328,324,95746,6,0,P|392:268|412:196,1,140,4|8,0:0|0:0,0:0:0:0:
328,192,96664,1,0,0:0:0:0:
248,164,96970,2,0,L|220:84,1,70
304,76,97582,2,0,P|348:96|392:100,1,70,8|0,0:0|0:0,0:0:0:0:
440,144,98195,6,0,L|340:268,1,140,0|8,0:0|0:0,0:0:0:0:
272,232,99113,1,0,0:0:0:0:
140,128,99725,2,0,P|116:104|68:84,2,70,0|8|0,0:0|0:0|0:0,0:0:0:0:
224,144,100644,6,0,B|276:124|276:124|296:80|356:52,1,140,4|8,0:0|0:0,0:0:0:0:
400,116,101562,2,0,P|448:120|480:104,1,70
496,192,102174,2,0,P|459:223|447:257,1,70,0|8,0:0|0:0,0:0:0:0:
380,288,102787,1,0,0:0:0:0:
296,292,103093,6,0,L|180:196,1,140,0|8,0:0|0:0,0:0:0:0:
129,262,104011,1,0,0:0:0:0:
72,200,104317,2,0,P|124:140|108:68,1,140,0|8,0:0|0:0,0:0:0:0:
42,121,105236,1,0,0:0:0:0:
72,200,105542,6,0,B|124:232|124:232|172:228|224:264,1,140,4|8,0:0|0:0,0:0:0:0:
256,312,106460,1,0,0:0:0:0:
340,316,106766,2,0,P|380:256|368:180,1,140,0|8,0:0|0:0,0:0:0:0:
332,120,107684,1,0,0:0:0:0:
252,92,107991,6,0,P|212:152|224:228,1,140,0|8,0:0|0:0,0:0:0:0:
260,288,108909,1,0,0:0:0:0:
340,316,109215,2,0,L|404:260,1,70
376,188,109827,1,8,0:0:0:0:
412,112,110133,1,0,0:0:0:0:
332,92,110440,6,0,P|272:104|188:72,1,140,4|8,0:0|0:0,0:0:0:0:
116,88,111358,2,0,L|60:152,1,70
132,200,111970,2,0,L|137:284,1,70,0|8,0:0|0:0,0:0:0:0:
204,320,112582,1,0,0:0:0:0:
284,292,112889,5,0,0:0:0:0:
396,168,113501,1,8,0:0:0:0:
316,144,113807,2,0,P|288:112|280:76,1,70,0|8,0:0|0:0,0:0:0:0:
196,92,114419,2,0,P|153:89|122:69,2,70,0|12|0,0:0|0:0|0:0,0:0:0:0:
212,176,115338,6,0,L|108:288,1,140,4|8,0:0|0:0,0:0:0:0:
68,212,116256,2,0,P|136:200|200:264,1,140
240,308,117174,2,0,P|272:328|328:324,1,70,8|0,0:0|0:0,0:0:0:0:
380,300,117787,6,0,B|404:252|404:252|376:212|392:160,1,140,0|8,0:0|0:0,0:0:0:0:
424,92,118705,1,0,0:0:0:0:
268,152,119317,2,0,P|228:148|196:128,1,70,0|8,0:0|0:0,0:0:0:0:
136,84,119929,1,0,0:0:0:0:
64,128,120236,6,0,P|39:191|69:252,1,140,4|8,0:0|0:0,0:0:0:0:
123,188,121154,1,0,0:0:0:0:
172,120,121460,2,0,L|216:52,2,70,0|0|8,0:0|0:0|0:0,0:0:0:0:
232,180,122378,1,0,0:0:0:0:
316,192,122684,6,0,P|392:196|436:272,1,140,0|8,0:0|0:0,0:0:0:0:
351,270,123603,1,0,0:0:0:0:
313,345,123909,2,0,P|285:322|270:291,1,70
187,296,124521,2,0,P|192:261|212:233,1,70,8|0,0:0|0:0,0:0:0:0:
296,212,125133,6,0,L|384:104,1,140,4|8,0:0|0:0,0:0:0:0:
312,56,126052,1,0,0:0:0:0:
236,92,126358,2,0,L|148:200,1,140,0|8,0:0|0:0,0:0:0:0:
96,264,127276,1,0,0:0:0:0:
31,208,127582,6,0,P|33:173|47:141,1,70,0|0,0:0|0:0,0:0:0:0:
108,84,128195,1,8,0:0:0:0:
188,104,128501,2,0,P|220:91|245:67,1,70,0|0,0:0|0:0,0:0:0:0:
320,108,129113,2,0,P|343:133|356:165,1,70,0|8,0:0|0:0,0:0:0:0:
300,228,129725,1,0,0:0:0:0:
216,244,130031,5,4,0:0:0:0:
64,170,130644,1,8,0:0:0:0:
104,96,130950,2,0,L|148:28,2,70,0|0|0,0:0|0:0|0:0,0:0:0:0:
176,140,131868,2,0,P|216:132|264:144,1,70,8|0,0:0|0:0,0:0:0:0:
320,176,132480,6,0,B|356:172|380:144|380:144|420:128|472:144,1,140,4|8,0:0|0:0,0:0:0:0:
496,208,133399,1,0,0:0:0:0:
444,272,133705,2,0,P|412:288|360:288,1,70,12|0,0:0|0:0,0:0:0:0:
308,248,134317,2,0,L|280:200,2,46.6666666666667,8|0|0,0:0|0:0|0:0,0:0:0:0:
268,284,134929,6,0,L|232:352,1,70,4|0,0:0|0:0,0:0:0:0:
168,296,135542,2,0,L|147:229,1,70,8|0,0:0|0:0,0:0:0:0:
92,164,136154,2,0,P|136:104|124:20,2,140,0|8|0,0:0|0:0|0:0,0:0:0:0:
44,232,137684,5,0,0:0:0:0:
100,296,137991,1,8,0:0:0:0:
180,268,138297,2,0,P|220:252|268:260,1,70
332,248,138909,2,0,P|356:222|368:190,2,70,4|8|0,0:0|0:0|0:0,0:0:0:0:
283,179,139827,6,0,L|131:131,1,140,4|8,0:0|0:0,0:0:0:0:
72,164,140746,1,0,0:0:0:0:
40,244,141052,2,0,P|64:276|104:296,1,70,0|4,0:0|0:0,0:0:0:0:
172,272,141664,2,0,P|206:264|240:270,1,70,8|0,0:0|0:0,0:0:0:0:
308,320,142276,5,4,0:0:0:0:
256,192,142582,12,4,144725,0:0:0:0:
56,204,164317,6,0,L|184:104,1,140,4|8,0:0|0:0,0:0:0:0:
248,104,165236,1,0,0:0:0:0:
308,164,165542,2,0,P|368:156|424:88,1,140,0|8,0:0|0:0,0:0:0:0:
488,256,166766,6,0,B|436:292|436:292|388:288|336:324,2,140,0|8|0,0:0|0:0|0:0,0:0:0:0:
360,148,168603,2,0,P|308:140|280:116,1,70,8|0,0:0|0:0,0:0:0:0:
232,72,169215,6,0,P|168:104|84:92,1,140,4|8,0:0|0:0,0:0:0:0:
20,120,170133,1,0,0:0:0:0:
20,204,170440,2,0,L|132:324,1,140,0|8,0:0|0:0,0:0:0:0:
284,312,171664,5,0,0:0:0:0:
444,264,172276,1,8,0:0:0:0:
328,144,172889,2,0,L|360:80,1,70,8|0,0:0|0:0,0:0:0:0:
280,56,173501,2,0,L|248:118,1,70,4|0,0:0|0:0,0:0:0:0:
176,160,174113,6,0,B|140:128|140:128|124:80|76:48,1,140,4|8,0:0|0:0,0:0:0:0:
16,100,175031,1,0,0:0:0:0:
8,184,175338,2,0,P|40:224|72:236,1,70
84,312,175950,2,0,P|134:304|161:282,1,70,8|0,0:0|0:0,0:0:0:0:
196,223,176562,6,0,P|264:222|321:260,1,140,4|12,0:0|0:0,0:0:0:0:
314,344,177480,1,0,0:0:0:0:
237,309,177787,2,0,P|235:240|273:183,1,140,4|8,0:0|0:0,0:0:0:0:
356,184,178705,1,0,0:0:0:0:
432,148,179011,6,0,P|448:112|444:68,2,70,4|0|12,0:0|0:0|0:0,0:0:0:0:
280,80,180236,2,0,L|220:124,1,70
140,112,180848,2,0,L|128:185,1,70,8|0,0:0|0:0,0:0:0:0:
184,244,181460,5,4,0:0:0:0:
256,192,181766,12,4,183909,0:0:0:0:
368,192,193705,6,0,L|412:124,1,70,0|0,0:0|0:0,0:0:0:0:
336,84,194317,2,0,P|284:100|176:80,1,140,2|0,0:0|0:0,0:0:0:0:
124,56,195236,1,0,0:0:0:0:
48,96,195542,1,2,0:0:0:0:
52,180,195848,1,0,0:0:0:0:
128,212,196154,6,0,P|168:240|196:340,1,140,0|2,0:0|0:0,0:0:0:0:
280,337,197072,2,0,P|275:274|235:193,1,140,2|0,0:0|0:0,0:0:0:0:
184,148,197991,2,0,P|156:116|140:68,1,70,8|0,0:0|0:0,0:0:0:0:
64,112,198603,6,0,P|66:69|89:24,2,70,4|0|8,0:0|0:0|0:0,0:0:0:0:
116,180,199521,1,0,0:0:0:0:
124,264,199827,2,0,L|68:344,1,70
164,352,200440,2,0,L|204:294,1,70,8|0,0:0|0:0,0:0:0:0:
288,308,201052,6,0,B|332:292|356:252|356:252|408:224,1,140,4|8,0:0|0:0,0:0:0:0:
440,156,201970,1,0,0:0:0:0:
384,96,202276,2,0,P|356:76|332:36,2,70,0|12|8,0:0|0:0|0:0,0:0:0:0:
336,164,203195,1,0,0:0:0:0:
256,192,203501,5,4,0:0:0:0:
256,192,203807,12,4,205950,0:0:0:0:
180,316,208399,6,0,L|64:204,1,140,4|8,0:0|0:0,0:0:0:0:
120,144,209317,2,0,P|180:136|244:88,1,140
316,128,210236,2,0,P|356:124|392:100,1,70,8|0,0:0|0:0,0:0:0:0:
452,156,210848,6,0,P|416:232|444:304,1,140,0|8,0:0|0:0,0:0:0:0:
356,328,211766,2,0,L|280:292,1,70
212,324,212378,1,0,0:0:0:0:
132,300,212684,2,0,P|104:272|92:240,1,70,8|0,0:0|0:0,0:0:0:0:
175,228,213297,6,0,P|192:160|256:108,1,140,4|8,0:0|0:0,0:0:0:0:
308,164,214215,1,0,0:0:0:0:
384,200,214521,1,0,0:0:0:0:
460,164,214827,1,0,0:0:0:0:
444,80,215133,2,0,P|408:72|380:40,1,70,8|0,0:0|0:0,0:0:0:0:
300,48,215746,6,0,B|264:72|248:100|248:100|252:136|220:176,1,140,0|8,0:0|0:0,0:0:0:0:
148,180,216664,1,0,0:0:0:0:
68,156,216970,2,0,P|44:120|44:76,1,70
124,95,217582,2,0,P|160:71|204:71,1,70,8|0,0:0|0:0,0:0:0:0:
244,128,218195,6,0,L|372:188,1,140,4|8,0:0|0:0,0:0:0:0:
398,266,219113,1,0,0:0:0:0:
315,250,219419,2,0,P|287:178|337:110,1,140,0|8,0:0|0:0,0:0:0:0:
370,187,220338,1,0,0:0:0:0:
452,184,220644,6,0,L|504:124,1,70
448,64,221256,2,0,L|368:69,1,70,8|0,0:0|0:0,0:0:0:0:
300,96,221868,1,0,0:0:0:0:
220,124,222174,2,0,P|172:100|148:68,1,70,0|8,0:0|0:0,0:0:0:0:
76,76,222787,1,0,0:0:0:0:
24,144,223093,6,0,B|52:188|88:196|88:196|112:216|120:256,1,140,4|8,0:0|0:0,0:0:0:0:
161,313,224011,2,0,L|225:257,1,70,0|0,0:0|0:0,0:0:0:0:
298,266,224623,2,0,L|351:313,1,70,0|8,0:0|0:0,0:0:0:0:
432,332,225236,1,0,0:0:0:0:
472,256,225542,6,0,P|440:208|444:124,1,140,0|8,0:0|0:0,0:0:0:0:
484,56,226460,1,8,0:0:0:0:
344,148,227072,2,0,L|284:208,1,70,0|12,0:0|0:0,0:0:0:0:
216,224,227684,1,0,0:0:0:0:
132,204,227991,6,0,P|80:156|68:88,1,140,4|8,0:0|0:0,0:0:0:0:
132,36,228909,1,0,0:0:0:0:
194,91,229215,2,0,P|238:91|276:68,1,70
316,144,229827,2,0,P|284:175|274:218,1,70,8|0,0:0|0:0,0:0:0:0:
358,214,230440,6,0,P|397:160|382:93,1,140,0|8,0:0|0:0,0:0:0:0:
316,144,231358,2,0,P|249:159|194:119,1,140
266,76,232276,1,8,0:0:0:0:
316,144,232582,1,0,0:0:0:0:
356,220,232889,6,0,L|252:328,1,140,4|8,0:0|0:0,0:0:0:0:
176,320,233807,1,0,0:0:0:0:
107,268,234113,2,0,P|126:238|130:203,1,70
64,152,234725,2,0,P|42:124|34:90,1,70,8|0,0:0|0:0,0:0:0:0:
118,89,235338,6,0,P|184:108|272:72,1,140,0|8,0:0|0:0,0:0:0:0:
316,32,236256,1,0,0:0:0:0:
400,44,236562,2,0,L|464:108,1,70
392,156,237174,2,0,L|456:220,1,70,8|0,0:0|0:0,0:0:0:0:
392,272,237787,6,0,B|352:312|352:312|308:316|272:344,1,140,4|8,0:0|0:0,0:0:0:0:
192,332,238705,1,0,0:0:0:0:
119,291,239011,2,0,P|105:260|107:225,1,70
56,160,239623,2,0,P|81:136|94:104,1,70,8|0,0:0|0:0,0:0:0:0:
176,92,240236,6,0,P|232:56|312:64,1,140,0|8,0:0|0:0,0:0:0:0:
352,128,241154,1,0,0:0:0:0:
416,181,241460,2,0,P|433:150|435:115,1,70
352,128,242072,2,0,P|335:158|333:193,1,70,8|0,0:0|0:0,0:0:0:0:
388,260,242684,5,4,0:0:0:0:
236,332,243297,1,12,0:0:0:0:
156,308,243603,2,0,L|116:240,1,70
184,192,244215,2,0,P|212:152|212:104,1,70,0|12,0:0|0:0,0:0:0:0:
131,126,244827,1,0,0:0:0:0:
49,144,245133,6,0,P|62:77|120:42,1,140,4|8,0:0|0:0,0:0:0:0:
131,126,246052,1,0,0:0:0:0:
140,208,246358,2,0,P|198:173|211:106,1,140,4|12,0:0|0:0,0:0:0:0:
336,220,247582,6,0,P|319:285|357:342,1,140,4|12,0:0|0:0,0:0:0:0:
441,346,248501,1,0,0:0:0:0:
469,266,248807,2,0,P|425:262|397:274,1,70
336,220,249419,1,8,0:0:0:0:
368,144,249725,1,0,0:0:0:0:
304,92,250031,5,0,0:0:0:0:
304,92,250338,2,0,L|236:136,1,70,0|8,0:0|0:0,0:0:0:0:
212,208,250950,2,0,P|244:240|252:288,1,70
169,280,251562,1,0,0:0:0:0:
104,224,251868,1,8,0:0:0:0:
24,244,252174,1,0,0:0:0:0:
24,160,252480,6,0,P|76:120|92:44,1,140,4|8,0:0|0:0,0:0:0:0:
176,32,253399,1,0,0:0:0:0:
172,116,253705,2,0,L|232:180,1,70
288,116,254317,2,0,L|375:118,1,70,8|0,0:0|0:0,0:0:0:0:
403,188,254929,6,0,P|441:131|423:65,1,140,0|8,0:0|0:0,0:0:0:0:
358,118,255848,1,0,0:0:0:0:
276,136,256154,2,0,P|217:102|203:35,1,140,0|8,0:0|0:0,0:0:0:0:
285,54,257073,1,0,0:0:0:0:
285,54,257378,6,0,L|148:152,1,140,4|8,0:0|0:0,0:0:0:0:
88,116,258297,1,0,0:0:0:0:
44,188,258603,2,0,P|97:231|116:297,1,140,0|8,0:0|0:0,0:0:0:0:
49,349,259521,1,0,0:0:0:0:
116,298,259827,6,0,P|184:291|245:324,1,140,0|8,0:0|0:0,0:0:0:0:
328,340,260746,1,0,0:0:0:0:
395,292,261052,2,0,P|419:266|428:232,1,70
360,188,261664,2,0,P|343:157|341:122,1,70,8|0,0:0|0:0,0:0:0:0:
288,60,262276,6,0,B|256:100|224:108|224:108|176:104|136:128,1,140,4|8,0:0|0:0,0:0:0:0:
88,148,263195,1,0,0:0:0:0:
68,228,263501,2,0,P|84:260|128:288,1,70,0|0,0:0|0:0,0:0:0:0:
196,284,264113,2,0,P|230:280|263:291,1,70,8|0,0:0|0:0,0:0:0:0:
340,324,264725,6,0,L|456:232,1,140,4|8,0:0|0:0,0:0:0:0:
472,156,265644,1,0,0:0:0:0:
400,116,265950,2,0,P|372:88|360:48,1,70,12|0,0:0|0:0,0:0:0:0:
280,84,266562,2,0,L|228:44,2,46.6666666666667,8|0|0,0:0|0:0|0:0,0:0:0:0:
300,136,267174,6,0,B|276:176|236:196|236:196|208:264,1,140,4|8,0:0|0:0,0:0:0:0:
148,292,268093,1,0,0:0:0:0:
88,232,268399,2,0,P|77:198|54:172,1,70
116,112,269011,2,0,P|118:77|134:46,1,70,8|4,0:0|0:0,0:0:0:0:
220,48,269623,5,0,0:0:0:0:
280,108,269929,1,0,0:0:0:0:
364,124,270236,1,8,0:0:0:0:
364,208,270542,1,0,0:0:0:0:
412,276,270848,2,0,L|484:232,2,70,0|4|8,0:0|0:0|0:0,0:0:0:0:
336,312,271766,1,0,0:0:0:0:
252,300,272072,6,0,B|224:272|192:264|192:264|160:236|156:184,1,140,4|8,0:0|0:0,0:0:0:0:
172,120,272991,1,0,0:0:0:0:
252,96,273297,2,0,P|271:124|300:143,1,70
290,226,273909,2,0,P|324:223|355:207,1,70,8|4,0:0|0:0,0:0:0:0:
432,240,274521,6,0,P|464:172|452:100,1,140,0|8,0:0|0:0,0:0:0:0:
392,56,275440,1,0,0:0:0:0:
312,84,275746,2,0,L|244:136,1,70,0|4,0:0|0:0,0:0:0:0:
172,112,276358,2,0,L|160:196,1,70,8|0,0:0|0:0,0:0:0:0:
88,224,276970,6,0,B|128:276|128:276|168:288|200:316,1,140,4|8,0:0|0:0,0:0:0:0:
272,340,277889,1,0,0:0:0:0:
348,308,278195,2,0,L|404:244,1,70
328,204,278807,2,0,P|288:212|252:204,1,70,8|4,0:0|0:0,0:0:0:0:
196,152,279419,5,0,0:0:0:0:
121,190,279725,1,0,0:0:0:0:
61,130,280031,1,8,0:0:0:0:
99,55,280338,1,0,0:0:0:0:
182,69,280644,1,0,0:0:0:0:
196,152,280950,2,0,P|226:141|254:114,1,70,4|8,0:0|0:0,0:0:0:0:
332,148,281562,1,0,0:0:0:0:
404,104,281868,5,4,0:0:0:0:
472,156,282174,1,0,0:0:0:0:
432,232,282480,2,0,P|360:256|296:324,1,140,0|0,0:0|0:0,0:0:0:0:
236,336,283399,2,0,P|212:296|200:260,1,70
216,192,284011,1,0,0:0:0:0:
216,108,284317,6,0,P|152:134|131:212,2,140,4|8|4,0:0|0:0|0:0,0:0:0:0:
328,232,286154,1,8,0:0:0:0:
328,232,286460,1,0,0:0:0:0:
328,232,286766,6,0,L|388:176,2,70,4|0|8,0:0|0:0|0:0,0:0:0:0:
256,276,287684,1,0,0:0:0:0:
184,232,287991,2,0,L|124:176,2,70,0|0|8,0:0|0:0|0:0,0:0:0:0:
256,192,288909,1,0,0:0:0:0:
324,144,289215,6,0,P|332:110|325:76,1,70
248,109,289827,2,0,P|222:85|189:73,1,70,8|0,0:0|0:0,0:0:0:0:
179,157,290440,2,0,P|145:166|119:189,1,70,0|4,0:0|0:0,0:0:0:0:
187,240,291052,2,0,P|178:273|185:307,1,70,8|0,0:0|0:0,0:0:0:0:
263,276,291664,6,0,L|395:184,1,140,4|8,0:0|0:0,0:0:0:0:
428,128,292582,1,0,0:0:0:0:
372,64,292889,2,0,L|257:144,1,140,0|8,0:0|0:0,0:0:0:0:
176,172,293807,1,0,0:0:0:0:
96,148,294113,6,0,L|52:224,1,70
104,280,294725,2,0,P|144:272|176:280,1,70,8|0,0:0|0:0,0:0:0:0:
244,324,295338,2,0,P|304:296|344:228,1,140,4|8,0:0|0:0,0:0:0:0:
316,156,296256,1,0,0:0:0:0:
236,128,296562,6,0,P|216:96|212:60,2,70,4|0|8,0:0|0:0|0:0,0:0:0:0:
188,196,297480,1,0,0:0:0:0:
140,128,297786,2,0,P|103:119|74:96,2,70,0|0|8,0:0|0:0|0:0,0:0:0:0:
216,88,298705,1,0,0:0:0:0:
288,47,299011,5,0,0:0:0:0:
361,88,299317,1,0,0:0:0:0:
362,172,299623,1,8,0:0:0:0:
288,214,299929,1,0,0:0:0:0:
216,172,300236,1,4,0:0:0:0:
216,88,300542,1,0,0:0:0:0:
136,64,300848,2,0,P|104:84|60:88,1,70,8|0,0:0|0:0,0:0:0:0:
24,160,301460,6,0,P|84:200|116:268,1,140,4|12,0:0|0:0,0:0:0:0:
180,312,302378,1,0,0:0:0:0:
256,276,302684,2,0,P|241:205|267:134,1,140,0|8,0:0|0:0,0:0:0:0:
328,88,303603,1,0,0:0:0:0:
396,140,303909,5,4,0:0:0:0:
256,192,304215,12,0,305746,0:0:0:0:
136,244,315236,6,0,L|84:172,1,70,2|2,0:0|0:0,0:0:0:0:
144,120,315848,1,0,0:0:0:0:
216,160,316154,6,0,P|304:144|352:100,1,140,2|2,0:0|0:0,0:0:0:0:
380,40,317072,1,2,0:0:0:0:
492,164,317684,2,0,L|456:248,1,70,0|0,0:0|0:0,0:0:0:0:
392,272,318297,1,2,0:0:0:0:
308,268,318603,6,0,P|280:240|264:192,1,70,2|0,0:0|0:0,0:0:0:0:
272,128,319215,1,2,0:0:0:0:
336,72,319521,2,0,P|408:84|456:148,1,140,2|0,0:0|0:0,0:0:0:0:
432,216,320440,2,0,P|418:237|410:269,1,35,2|0,0:0|0:0,0:0:0:0:
288,260,321052,6,0,L|240:320,1,70,2|0,0:0|0:0,0:0:0:0:
168,280,321664,2,0,L|91:288,1,70,2|2,0:0|0:0,0:0:0:0:
264,96,322889,6,0,L|304:32,2,46.6666666666667,2|2|0,0:0|0:0|0:0,0:0:0:0:
256,192,323501,12,2,326868,0:0:0:0:
