osu file format v13

[General]
AudioFilename: Hanatan - Uta ni Katachi wa Nai Keredo.mp3
AudioLeadIn: 1000
PreviewTime: 94521
Countdown: 0
SampleSet: Soft
StackLeniency: 0.6
Mode: 0
LetterboxInBreaks: 0
WidescreenStoryboard: 0

[Editor]
DistanceSpacing: 1.6
BeatDivisor: 4
GridSize: 4
TimelineZoom: 1

[Metadata]
Title:Uta ni Katachi wa Nai keredo
TitleUnicode:歌に形はないけれど
Artist:Hanatan
ArtistUnicode:花たん
Creator:Rakuen
Version:Hard
Source:
Tags:Flower ユリカ YURiCa Yurika Kin Oracle doriko Vocaloid Hatsune Miku
BeatmapID:439466
BeatmapSetID:181430

[Difficulty]
HPDrainRate:5
CircleSize:4
OverallDifficulty:5
ApproachRate:6.8
SliderMultiplier:1.8
SliderTickRate:1

[Events]
//Background and Video events
0,0,"women_vocaloid_dress_hatsune_m_2560x1440.jpg",0,0
//Break Periods
2,144925,163388
//Storyboard Layer 0 (Background)
//Storyboard Layer 1 (Fail)
//Storyboard Layer 2 (Pass)
//Storyboard Layer 3 (Foreground)
//Storyboard Sound Samples
//Background Colour Transformations
3,100,163,162,255

[TimingPoints]
236,612.244897959184,4,2,1,40,1,0
2684,-125,4,2,1,40,0,0
6970,-125,4,2,1,30,0,0
7276,-125,4,2,1,40,0,0
12480,-100,4,2,1,50,0,0
29623,-100,4,2,1,40,0,0
34521,-111.111111111111,4,2,1,30,0,0
54113,-105.263157894737,4,2,1,40,0,0
73705,-100,4,2,1,50,0,0
95746,-90.9090909090909,4,2,1,60,0,1
142276,-90.9090909090909,4,2,1,50,0,0
164317,-100,4,2,1,50,0,0
183909,-105.263157894737,4,2,1,40,0,0
198603,-100,4,2,1,50,0,0
208399,-90.9090909090909,4,2,1,60,0,1
246970,-90.9090909090909,4,2,1,60,0,0
247582,-90.9090909090909,4,2,1,60,0,1
281868,-100,4,2,1,50,0,0
284317,-90.9090909090909,4,2,1,50,0,0
286766,-100,4,2,1,60,0,1
286919,-100,4,2,1,60,0,0
304062,-100,4,2,1,45,0,0
306358,-111.111111111111,4,2,1,30,0,0
323654,-111.111111111111,4,2,1,25,0,0
325950,-111.111111111111,4,2,1,20,0,0
326868,-111.111111111111,4,2,1,15,0,0

[Colours]
Combo1 : 119,0,238
Combo2 : 57,57,255
Combo3 : 251,0,182
Combo4 : 54,234,243

[HitObjects]
72,248,2684,6,0,P|112:248|164:216,1,72,2|0,0:0|0:0,0:0:0:0:
188,164,3297,2,0,L|144:84,2,72,2|0|0,0:0|0:0|0:0,0:0:0:0:
266,199,4215,1,0,0:0:0:0:
352,212,4521,2,0,P|388:176|440:160,1,72,2|0,0:0|0:0,0:0:0:0:
352,100,5133,6,0,P|280:88|224:28,1,144,2|2,0:0|0:0,0:0:0:0:
152,72,6052,1,0,0:0:0:0:
40,204,6664,1,0,0:0:0:0:
96,272,6970,2,0,L|136:304,1,36,8|8,0:0|0:0,0:0:0:0:
160,268,7276,2,0,L|210:262,1,36,0|0,0:0|0:0,0:0:0:0:
236,284,7582,6,0,P|272:256|320:248,1,72,2|0,0:0|0:0,0:0:0:0:
368,296,8195,1,2,0:0:0:0:
436,244,8501,1,0,0:0:0:0:
448,160,8807,1,2,0:0:0:0:
372,120,9113,2,0,L|320:64,1,72,2|2,0:0|0:0,0:0:0:0:
244,104,9725,2,0,P|204:112|160:148,1,72,0|10,0:0|0:0,0:0:0:0:
120,192,10338,6,0,L|88:216,1,36,0|0,0:0|0:0,0:0:0:0:
128,276,10644,2,0,P|180:288|208:320,1,72,2|0,0:0|0:0,0:0:0:0:
328,328,11256,1,8,0:0:0:0:
328,328,11409,1,8,0:0:0:0:
328,328,11562,1,0,0:0:0:0:
424,192,11868,1,12,0:0:0:0:
408,40,12174,1,0,0:0:0:0:
272,88,12480,6,0,P|216:136|148:104,1,135,4|0,0:0|0:0,0:0:0:0:
100,160,13093,2,0,P|128:200|184:256,1,90,8|4,0:0|0:0,0:0:0:0:
76,348,13705,1,0,0:0:0:0:
204,284,14011,1,0,0:0:0:0:
68,240,14317,1,8,0:0:0:0:
140,116,14623,1,0,0:0:0:0:
199,75,14776,1,0,0:0:0:0:
248,128,14929,6,0,P|290:142|334:140,1,90,4|0,0:0|0:0,0:0:0:0:
354,210,15389,1,0,0:0:0:0:
291,245,15542,2,0,P|276:287|278:331,1,90,8|4,0:0|0:0,0:0:0:0:
420,308,16154,1,0,0:0:0:0:
492,184,16460,1,0,0:0:0:0:
360,124,16766,2,0,L|316:84,1,45,8|0,0:0|0:0,0:0:0:0:
227,142,17072,2,0,L|272:140,1,45,0|0,0:0|0:0,0:0:0:0:
177,90,17378,6,0,P|161:174|247:211,1,180,4|8,0:0|0:0,0:0:0:0:
380,208,18297,2,0,P|408:268|404:312,1,90,4|0,0:0|0:0,0:0:0:0:
264,292,18909,2,0,P|226:346|185:364,1,90,0|8,0:0|0:0,0:0:0:0:
100,264,19521,1,0,0:0:0:0:
136,124,19827,6,0,P|196:128|272:68,1,135,4|0,0:0|0:0,0:0:0:0:
212,36,20440,2,0,P|204:80|232:144,1,90,8|0,0:0|0:0,0:0:0:0:
336,200,21052,1,8,0:0:0:0:
432,96,21358,1,0,0:0:0:0:
292,136,21664,1,12,0:0:0:0:
432,172,21970,1,0,0:0:0:0:
344,284,22276,6,0,P|292:296|256:328,1,90,4|0,0:0|0:0,0:0:0:0:
120,308,22889,2,0,L|72:284,1,45,8|0,0:0|0:0,0:0:0:0:
52,220,23195,2,0,B|92:208|104:172|104:172|136:132|188:140,1,135,4|0,0:0|0:0,0:0:0:0:
172,212,23807,2,0,P|216:216|264:184,1,90,0|8,0:0|0:0,0:0:0:0:
379,269,24419,2,0,L|344:296,1,45,0|0,0:0|0:0,0:0:0:0:
440,308,24725,6,0,P|472:272|476:200,1,90,4|0,0:0|0:0,0:0:0:0:
432,180,25184,1,0,0:0:0:0:
364,152,25338,2,0,P|341:113|339:69,1,90,8|4,0:0|0:0,0:0:0:0:
196,48,25950,1,0,0:0:0:0:
84,140,26256,1,0,0:0:0:0:
124,280,26562,2,0,L|176:312,1,45,8|0,0:0|0:0,0:0:0:0:
247,233,26868,2,0,L|204:244,1,45,0|0,0:0|0:0,0:0:0:0:
260,304,27174,6,0,B|312:332|312:332|352:320|396:328,1,135,4|0,0:0|0:0,0:0:0:0:
456,348,27787,2,0,B|480:316|480:316|468:280|480:240,1,90,8|4,0:0|0:0,0:0:0:0:
364,176,28399,1,0,0:0:0:0:
244,256,28705,1,0,0:0:0:0:
120,184,29011,6,0,L|64:136,2,60,10|2|2,0:0|0:0|0:0,0:0:0:0:
120,184,29623,6,0,P|184:152|288:184,1,180,4|2,0:0|0:0,0:0:0:0:
276,324,30542,1,0,0:0:0:0:
404,260,30848,1,2,0:0:0:0:
284,180,31154,1,0,0:0:0:0:
276,324,31460,1,6,0:0:0:0:
132,300,31766,2,0,L|160:248,1,45,0|0,0:0|0:0,0:0:0:0:
116,200,32072,5,2,0:0:0:0:
28,88,32378,1,2,0:0:0:0:
164,132,32684,1,0,0:0:0:0:
280,48,32991,1,2,0:0:0:0:
280,48,33909,2,0,P|312:52|344:44,2,45,8|8|0,0:0|0:0|0:0,0:0:0:0:
160,100,34521,5,2,0:0:0:0:
160,100,35440,2,0,L|96:168,1,80.9999975280763,0|0,0:0|0:0,0:0:0:0:
136,252,36052,1,0,0:0:0:0:
220,296,36358,2,0,P|280:276|304:248,1,80.9999975280763,0|0,0:0|0:0,0:0:0:0:
376,216,36970,6,0,P|324:144|348:56,1,161.999995056153,2|0,0:0|0:0,0:0:0:0:
417,127,37889,1,0,0:0:0:0:
376,216,38195,2,0,B|316:256|316:256|272:244|216:272,1,161.999995056153,0|0,0:0|0:0,0:0:0:0:
40,216,39419,5,2,0:0:0:0:
40,216,40338,2,0,P|96:172|136:168,1,80.9999975280763,0|0,0:0|0:0,0:0:0:0:
192,212,40950,1,0,0:0:0:0:
220,120,41256,2,0,P|190:92|173:56,1,80.9999975280763,0|0,0:0|0:0,0:0:0:0:
305,74,41868,6,0,B|331:115|306:165|306:165|313:202|340:220,1,161.999995056153,2|0,0:0|0:0,0:0:0:0:
256,268,42787,1,0,0:0:0:0:
171,220,43093,2,0,B|199:202|206:165|206:165|181:115|207:74,1,161.999995056153,0|0,0:0|0:0,0:0:0:0:
400,40,44317,5,2,0:0:0:0:
396,136,44623,2,0,L|344:224,1,80.9999975280763,0|0,0:0|0:0,0:0:0:0:
264,172,45236,2,0,L|165:197,1,80.9999975280763,0|2,0:0|0:0,0:0:0:0:
100,240,45848,2,0,L|52:188,1,40.4999987640381,0|0,0:0|0:0,0:0:0:0:
184,116,46460,1,0,0:0:0:0:
264,172,46766,5,2,0:0:0:0:
252,268,47072,1,0,0:0:0:0:
168,220,47378,2,0,P|134:197|95:190,1,80.9999975280763,0|0,0:0|0:0,0:0:0:0:
252,268,47991,2,0,B|300:260|324:220|324:220|368:216|404:172,1,161.999995056153,2|0,0:0|0:0,0:0:0:0:
224,88,49215,5,2,0:0:0:0:
316,116,49521,2,0,P|352:84|364:52,2,80.9999975280763,0|0|0,0:0|0:0|0:0,0:0:0:0:
420,280,50746,2,0,L|450:204,1,80.9999975280763,0|0,0:0|0:0,0:0:0:0:
324,268,51358,1,0,0:0:0:0:
232,300,51664,6,0,P|152:248|136:164,1,161.999995056153,2|0,0:0|0:0,0:0:0:0:
164,96,52582,1,0,0:0:0:0:
256,68,52889,1,0,0:0:0:0:
336,120,53195,2,0,L|408:76,1,80.9999975280763,0|4,0:0|0:0,0:0:0:0:
464,272,54113,5,2,0:0:0:0:
264,312,54725,1,0,0:0:0:0:
176,260,55031,2,0,P|152:216|124:192,1,85.4999977169037,0|0,0:0|0:0,0:0:0:0:
200,124,55644,2,0,P|244:100|268:72,1,85.4999977169037,0|0,0:0|0:0,0:0:0:0:
368,60,56256,1,0,0:0:0:0:
448,124,56562,6,0,B|440:168|440:168|448:224,1,85.4999977169037,2|0,0:0|0:0,0:0:0:0:
388,292,57174,1,0,0:0:0:0:
288,316,57480,1,0,0:0:0:0:
200,264,57787,2,0,B|188:232|188:232|196:200|188:176,2,85.4999977169037,0|0|6,0:0|0:0|0:0,0:0:0:0:
404,260,59011,6,0,B|428:220|432:196|432:196|404:148|416:96,1,170.999995433807,2|0,0:0|0:0,0:0:0:0:
317,154,59929,1,0,0:0:0:0:
216,172,60236,2,0,P|180:140|168:96,1,85.4999977169037,0|0,0:0|0:0,0:0:0:0:
80,160,60848,2,0,P|47:195|3:208,1,85.4999977169037,0|0,0:0|0:0,0:0:0:0:
56,300,61460,6,0,P|132:280|220:324,1,170.999995433807,2|0,0:0|0:0,0:0:0:0:
296,256,62378,1,0,0:0:0:0:
395,280,62684,2,0,P|426:250|439:210,1,85.4999977169037,0|4,0:0|0:0,0:0:0:0:
345,59,63297,2,0,P|345:102|364:140,1,85.4999977169037,0|0,0:0|0:0,0:0:0:0:
276,192,63909,5,2,0:0:0:0:
176,164,64215,2,0,L|128:80,1,85.4999977169037,0|0,0:0|0:0,0:0:0:0:
44,136,64827,1,0,0:0:0:0:
48,240,65133,2,0,P|88:256|116:300,1,85.4999977169037,2|0,0:0|0:0,0:0:0:0:
92,336,65593,1,0,0:0:0:0:
92,336,65746,1,0,0:0:0:0:
216,288,66052,6,0,L|276:224,1,85.4999977169037,0|2,0:0|0:0,0:0:0:0:
288,124,66664,1,0,0:0:0:0:
388,96,66970,2,0,P|432:56|472:48,1,85.4999977169037,2|0,0:0|0:0,0:0:0:0:
475,149,67582,1,2,0:0:0:0:
338,302,68195,1,0,0:0:0:0:
256,240,68501,1,0,0:0:0:0:
164,192,68807,6,0,P|132:152|84:124,2,85.4999977169037,2|0|0,0:0|0:0|0:0,0:0:0:0:
128,288,69725,1,0,0:0:0:0:
220,332,70031,2,0,L|312:280,1,85.4999977169037,2|0,0:0|0:0,0:0:0:0:
396,316,70644,2,0,L|424:214,1,85.4999977169037,0|0,0:0|0:0,0:0:0:0:
408,132,71256,6,0,P|356:120|316:84,1,85.4999977169037,2|0,0:0|0:0,0:0:0:0:
330,101,71715,1,0,0:0:0:0:
330,101,71868,1,6,0:0:0:0:
347,202,72174,1,0,0:0:0:0:
269,267,72480,1,10,0:0:0:0:
172,232,72787,1,0,0:0:0:0:
154,131,73093,1,2,0:0:0:0:
233,65,73399,1,0,0:0:0:0:
330,101,73705,6,0,P|372:144|420:152,1,90,4|0,0:0|0:0,0:0:0:0:
360,292,74317,1,8,0:0:0:0:
224,240,74623,2,0,L|236:196,2,45,0|8|0,0:0|0:0|0:0,0:0:0:0:
84,280,75236,1,0,0:0:0:0:
28,148,75542,2,0,P|64:104|76:60,1,90,8|0,0:0|0:0,0:0:0:0:
216,96,76154,6,0,P|272:90|312:67,1,90,0|0,0:0|0:0,0:0:0:0:
444,96,76766,1,8,0:0:0:0:
472,236,77072,2,0,P|448:240|420:236,1,45,0|0,0:0|0:0,0:0:0:0:
392,300,77378,2,0,L|432:352,2,45,0|8|0,0:0|0:0|0:0,0:0:0:0:
268,228,77991,1,8,0:0:0:0:
124,212,78297,2,0,L|152:176,1,45,0|0,0:0|0:0,0:0:0:0:
112,116,78603,6,0,P|77:88|62:46,1,90,4|0,0:0|0:0,0:0:0:0:
252,76,79215,2,0,P|305:73|350:107,1,90,8|0,0:0|0:0,0:0:0:0:
356,160,79674,1,8,0:0:0:0:
356,160,79827,1,0,0:0:0:0:
240,244,80133,1,0,0:0:0:0:
108,188,80440,2,0,B|124:152|124:152|112:128|112:96,1,90,8|0,0:0|0:0,0:0:0:0:
252,76,81052,5,0,0:0:0:0:
356,160,81358,1,0,0:0:0:0:
408,292,81664,2,0,L|496:248,1,90,8|0,0:0|0:0,0:0:0:0:
480,180,82123,2,0,P|464:168|448:144,1,45,8|0,0:0|0:0,0:0:0:0:
380,166,82429,2,0,P|377:146|382:117,1,45,8|0,0:0|0:0,0:0:0:0:
260,44,82889,1,8,0:0:0:0:
188,168,83195,1,0,0:0:0:0:
236,224,83348,1,0,0:0:0:0:
228,296,83501,6,0,P|196:328|148:336,1,90,4|0,0:0|0:0,0:0:0:0:
18,179,84113,2,0,P|62:179|100:204,1,90,8|0,0:0|0:0,0:0:0:0:
43,247,84572,2,0,L|87:99,1,135,0|0,0:0|0:0,0:0:0:0:
208,48,85338,1,8,0:0:0:0:
312,148,85644,1,0,0:0:0:0:
452,188,85950,6,0,P|456:132|484:96,1,90,0|0,0:0|0:0,0:0:0:0:
312,148,86562,2,0,P|256:144|220:116,1,90,12|0,0:0|0:0,0:0:0:0:
176,76,87021,1,0,0:0:0:0:
160,144,87174,2,0,P|140:140|116:144,1,45,0|8,0:0|0:0,0:0:0:0:
139,212,87480,2,0,P|122:223|107:243,1,45,0|0,0:0|0:0,0:0:0:0:
172,274,87787,1,8,0:0:0:0:
312,300,88093,1,0,0:0:0:0:
360,248,88246,1,0,0:0:0:0:
428,268,88399,6,0,P|468:224|476:184,2,90,4|0|8,0:0|0:0|0:0,0:0:0:0:
292,216,89317,1,0,0:0:0:0:
340,80,89623,1,0,0:0:0:0:
200,104,89929,1,0,0:0:0:0:
292,216,90236,2,0,L|240:304,1,90,8|0,0:0|0:0,0:0:0:0:
104,280,90848,6,0,P|84:228|40:192,2,90,0|0|8,0:0|0:0|0:0,0:0:0:0:
246,293,91766,1,0,0:0:0:0:
380,240,92072,2,0,P|402:189|396:132,2,90,0|0|8,0:0|0:0|0:0,0:0:0:0:
246,293,92991,1,0,0:0:0:0:
144,192,93297,5,4,0:0:0:0:
284,160,95746,6,0,P|263:108|216:72,2,99.0000030212403,4|0|8,0:0|0:0|0:0,0:0:0:0:
380,284,96664,1,0,0:0:0:0:
440,140,96970,2,0,P|461:88|508:52,1,99.0000030212403,0|0,0:0|0:0,0:0:0:0:
284,160,97582,1,8,0:0:0:0:
164,264,97889,1,0,0:0:0:0:
96,224,98042,1,0,0:0:0:0:
76,148,98195,6,0,P|120:124|148:76,1,99.0000030212403,0|0,0:0|0:0,0:0:0:0:
284,160,98807,1,8,0:0:0:0:
164,264,99113,2,0,B|220:292|220:292|260:268|336:296,1,148.50000453186,0|0,0:0|0:0,0:0:0:0:
378,311,99725,2,0,P|426:279|442:215,2,99.0000030212403,0|8|0,0:0|0:0|0:0,0:0:0:0:
295,175,100644,6,0,B|282:130|304:107|304:107|346:106|374:63,2,148.50000453186,4|0|0,0:0|0:0|0:0,0:0:0:0:
148,115,101868,2,0,L|72:23,1,99.0000030212403,0|0,0:0|0:0,0:0:0:0:
3,174,102480,2,0,P|19:222|4:277,1,99.0000030212403,8|0,0:0|0:0,0:0:0:0:
168,280,103093,6,0,B|200:256|200:256|248:268|288:236,1,99.0000030212403,0|0,0:0|0:0,0:0:0:0:
227,180,103552,2,0,P|211:132|225:76,1,99.0000030212403,0|0,0:0|0:0,0:0:0:0:
349,53,104011,2,0,P|328:97|288:125,1,99.0000030212403,0|0,0:0|0:0,0:0:0:0:
144,192,104623,1,0,0:0:0:0:
256,304,104929,1,8,0:0:0:0:
396,232,105236,2,0,P|404:200|420:176,1,49.5000015106202,0|0,0:0|0:0,0:0:0:0:
360,128,105542,6,0,B|328:172|328:172|300:180|276:200,2,99.0000030212403,4|0|8,0:0|0:0|0:0,0:0:0:0:
216,60,106460,2,0,L|188:112,1,49.5000015106202,0|0,0:0|0:0,0:0:0:0:
116,128,106766,2,0,L|156:224,2,99.0000030212403,0|0|8,0:0|0:0|0:0,0:0:0:0:
276,120,107684,1,0,0:0:0:0:
383,236,107991,6,0,P|418:200|429:153,1,99.0000030212403,0|0,0:0|0:0,0:0:0:0:
228,256,108603,1,8,0:0:0:0:
84,192,108909,2,0,P|68:168|63:136,1,49.5000015106202,0|0,0:0|0:0,0:0:0:0:
142,139,109215,2,0,P|154:87|198:31,1,99.0000030212403,0|0,0:0|0:0,0:0:0:0:
336,64,109827,1,8,0:0:0:0:
452,172,110133,1,0,0:0:0:0:
452,172,110287,1,0,0:0:0:0:
452,172,110440,6,0,L|412:268,1,99.0000030212403,4|0,0:0|0:0,0:0:0:0:
264,312,111052,1,8,0:0:0:0:
304,160,111358,2,0,B|292:120|292:120|264:96|252:64,2,99.0000030212403,0|0|0,0:0|0:0|0:0,0:0:0:0:
148,289,112276,2,0,L|168:244,1,49.5000015106202,8|0,0:0|0:0,0:0:0:0:
111,174,112582,2,0,L|92:220,1,49.5000015106202,0|0,0:0|0:0,0:0:0:0:
32,160,112889,6,0,B|40:132|36:108|36:108|44:84|72:60,1,99.0000030212403,0|0,0:0|0:0,0:0:0:0:
220,76,113501,1,8,0:0:0:0:
372,124,113807,2,0,L|408:80,2,49.5000015106202,8|12|0,0:0|0:0|0:0,0:0:0:0:
224,184,114419,1,0,0:0:0:0:
352,280,114725,1,12,0:0:0:0:
372,124,115031,1,0,0:0:0:0:
220,76,115338,6,0,P|160:88|100:72,1,99.0000030212403,4|0,0:0|0:0,0:0:0:0:
52,224,115950,2,0,P|71:269|105:304,1,99.0000030212403,8|0,0:0|0:0,0:0:0:0:
264,312,116562,1,0,0:0:0:0:
352,180,116868,1,0,0:0:0:0:
224,88,117174,1,8,0:0:0:0:
352,180,117480,2,0,L|392:144,1,49.5000015106202,0|0,0:0|0:0,0:0:0:0:
328,96,117787,6,0,L|254:162,1,99.0000030212403,0|0,0:0|0:0,0:0:0:0:
108,104,118399,1,8,0:0:0:0:
8,228,118705,1,0,0:0:0:0:
124,336,119011,2,0,P|152:344|188:340,1,49.5000015106202,0|0,0:0|0:0,0:0:0:0:
248,320,119317,2,0,P|296:296|372:304,2,99.0000030212403,0|8|0,0:0|0:0|0:0,0:0:0:0:
219,163,120236,6,0,P|257:101|210:25,1,148.50000453186,4|0,0:0|0:0,0:0:0:0:
178,97,120848,2,0,P|134:119|85:122,1,99.0000030212403,8|0,0:0|0:0,0:0:0:0:
32,272,121460,2,0,L|120:360,1,99.0000030212403,0|0,0:0|0:0,0:0:0:0:
260,356,122072,1,8,0:0:0:0:
200,212,122378,1,0,0:0:0:0:
200,212,122684,6,0,P|191:164|156:130,1,99.0000030212403,0|0,0:0|0:0,0:0:0:0:
83,99,123144,2,0,P|130:90|164:54,1,99.0000030212403,0|0,0:0|0:0,0:0:0:0:
92,19,123603,1,0,0:0:0:0:
244,64,123909,2,0,B|288:76|288:76|316:68|352:72,1,99.0000030212403,0|0,0:0|0:0,0:0:0:0:
452,184,124521,1,8,0:0:0:0:
328,280,124827,1,0,0:0:0:0:
248,288,124980,1,0,0:0:0:0:
188,236,125133,6,0,L|240:144,1,99.0000030212403,4|0,0:0|0:0,0:0:0:0:
64,120,125746,1,8,0:0:0:0:
64,120,126052,1,0,0:0:0:0:
144,112,126205,1,0,0:0:0:0:
204,164,126358,6,0,L|152:256,1,99.0000030212403,0|0,0:0|0:0,0:0:0:0:
300,312,126970,2,0,P|348:280|408:280,1,99.0000030212403,8|0,0:0|0:0,0:0:0:0:
456,312,127429,1,0,0:0:0:0:
496,244,127582,6,0,P|464:196|464:136,1,99.0000030212403,0|0,0:0|0:0,0:0:0:0:
380,168,128042,2,0,L|352:112,1,49.5000015106202,0|8,0:0|0:0,0:0:0:0:
208,172,128501,2,0,L|100:152,2,99.0000030212403,0|0|0,0:0|0:0|0:0,0:0:0:0:
312,52,129419,1,8,0:0:0:0:
208,172,129725,2,0,P|216:204|240:236,1,49.5000015106202,0|0,0:0|0:0,0:0:0:0:
304,228,130031,6,0,P|356:240|400:276,1,99.0000030212403,4|0,0:0|0:0,0:0:0:0:
496,148,130644,1,8,0:0:0:0:
364,60,130950,2,0,B|336:96|336:96|304:108|272:136,2,99.0000030212403,0|0|0,0:0|0:0|0:0,0:0:0:0:
212,20,131868,2,0,P|176:64|160:128,1,99.0000030212403,8|0,0:0|0:0,0:0:0:0:
272,220,132480,6,0,P|292:273|339:319,1,99.0000030212403,4|8,0:0|0:0,0:0:0:0:
476,272,133093,1,8,0:0:0:0:
460,116,133399,1,8,0:0:0:0:
316,56,133705,2,0,B|276:76|248:72|248:72|212:84,1,99.0000030212403,4|0,0:0|0:0,0:0:0:0:
164,132,134164,1,0,0:0:0:0:
84,136,134317,6,0,P|60:112|40:76,2,66.0000020141602,10|2|2,0:0|0:0|0:0,0:0:0:0:
84,136,134929,6,0,L|56:200,1,49.5000015106202,4|0,0:0|0:0,0:0:0:0:
96,252,135236,2,0,P|152:240|208:264,1,99.0000030212403,0|8,0:0|0:0,0:0:0:0:
328,332,135848,1,0,0:0:0:0:
440,220,136154,2,0,L|360:144,1,99.0000030212403,0|0,0:0|0:0,0:0:0:0:
292,176,136613,1,0,0:0:0:0:
220,144,136766,1,8,0:0:0:0:
112,260,137072,1,0,0:0:0:0:
256,324,137378,6,0,B|296:308|296:308|312:292|312:292|360:276,1,99.0000030212403,0|0,0:0|0:0,0:0:0:0:
416,140,137991,2,0,B|432:100|432:100|432:77|432:77|455:32,2,99.0000030212403,8|0|0,0:0|0:0|0:0,0:0:0:0:
264,100,138909,1,4,0:0:0:0:
108,132,139215,1,8,0:0:0:0:
136,264,139521,2,0,L|92:288,1,49.5000015106202,0|0,0:0|0:0,0:0:0:0:
190,320,139827,6,0,P|213:265|190:208,1,99.0000030212403,4|0,0:0|0:0,0:0:0:0:
108,132,140440,1,8,0:0:0:0:
256,72,140746,1,0,0:0:0:0:
312,128,140899,2,0,P|368:112|416:128,1,99.0000030212403,0|0,0:0|0:0,0:0:0:0:
363,189,141358,1,12,0:0:0:0:
363,189,141511,2,0,P|404:229|415:279,1,99.0000030212403,0|0,0:0|0:0,0:0:0:0:
335,265,141970,2,0,P|305:246|268:240,2,49.5000015106202,0|0|4,0:0|0:0|0:0,0:0:0:0:
256,192,142429,12,4,144725,0:0:0:0:
344,208,164317,6,0,B|384:216|384:216|412:212|412:212|444:216,2,90,4|0|8,0:0|0:0|0:0,0:0:0:0:
216,140,165236,1,0,0:0:0:0:
152,172,165389,1,0,0:0:0:0:
79,159,165542,2,0,P|50:126|41:82,1,90,0|0,0:0|0:0,0:0:0:0:
208,224,166154,2,0,P|202:274|165:317,1,90,8|0,0:0|0:0,0:0:0:0:
324,308,166766,6,0,B|372:288|392:244|392:244|428:216|488:232,2,180,0|8|0,0:0|0:0|0:0,0:0:0:0:
324,308,168297,1,0,0:0:0:0:
220,208,168603,2,0,P|252:168|264:120,1,90,8|0,0:0|0:0,0:0:0:0:
120,104,169215,6,0,P|69:109|26:135,2,90,4|0|8,0:0|0:0|0:0,0:0:0:0:
220,208,170133,1,0,0:0:0:0:
156,244,170287,1,0,0:0:0:0:
88,272,170440,2,0,L|188:320,1,90,0|0,0:0|0:0,0:0:0:0:
300,252,171052,2,0,L|336:356,1,90,8|0,0:0|0:0,0:0:0:0:
456,268,171664,6,0,P|424:204|444:88,1,180,0|8,0:0|0:0,0:0:0:0:
300,60,172582,1,4,0:0:0:0:
160,96,172889,1,8,0:0:0:0:
160,96,173042,1,12,0:0:0:0:
160,96,173195,1,0,0:0:0:0:
48,188,173501,2,0,L|100:280,1,90,12|0,0:0|0:0,0:0:0:0:
228,312,174113,5,4,0:0:0:0:
468,156,174725,1,8,0:0:0:0:
336,216,175031,2,0,L|296:172,1,45,0|0,0:0|0:0,0:0:0:0:
240,148,175338,2,0,P|256:92|240:48,2,90,0|0|8,0:0|0:0|0:0,0:0:0:0:
96,152,176256,1,0,0:0:0:0:
156,284,176562,6,0,L|288:328,1,135,4|0,0:0|0:0,0:0:0:0:
344,284,177174,2,0,B|320:248|320:248|292:240|260:208,1,90,12|0,0:0|0:0,0:0:0:0:
216,188,177633,1,0,0:0:0:0:
216,188,177787,2,0,P|168:204|96:188,2,90,4|0|0,0:0|0:0|0:0,0:0:0:0:
96,112,178705,2,0,P|82:94|76:72,1,45,0|0,0:0|0:0,0:0:0:0:
152,60,179011,6,0,B|184:48|184:48|216:60|252:56,1,90,4|0,0:0|0:0,0:0:0:0:
384,48,179623,1,12,0:0:0:0:
452,176,179929,2,0,L|416:212,2,45,0|0|0,0:0|0:0|0:0,0:0:0:0:
452,176,180542,1,0,0:0:0:0:
312,136,180848,2,0,P|264:152|212:140,1,90,8|0,0:0|0:0,0:0:0:0:
100,212,181460,5,4,0:0:0:0:
176,333,181766,1,0,0:0:0:0:
319,350,182072,1,8,0:0:0:0:
421,248,182378,1,0,0:0:0:0:
405,105,182684,1,12,0:0:0:0:
283,28,182991,1,0,0:0:0:0:
147,76,183297,1,8,0:0:0:0:
100,212,183603,1,0,0:0:0:0:
100,212,183756,1,0,0:0:0:0:
100,212,183909,6,0,P|144:208|192:172,1,85.4999977169037,4|0,0:0|0:0,0:0:0:0:
220,92,184521,1,2,0:0:0:0:
320,120,184827,1,0,0:0:0:0:
320,120,184980,1,0,0:0:0:0:
320,120,185133,2,0,P|291:153|283:213,2,85.4999977169037,0|0|2,0:0|0:0|0:0,0:0:0:0:
424,108,186052,1,0,0:0:0:0:
388,204,186358,5,0,0:0:0:0:
472,264,186664,1,0,0:0:0:0:
376,304,186970,2,0,P|338:284|295:284,2,85.4999977169037,2|0|0,0:0|0:0|0:0,0:0:0:0:
192,292,187889,1,0,0:0:0:0:
148,200,188195,1,2,0:0:0:0:
184,104,188501,1,0,0:0:0:0:
184,104,188654,1,0,0:0:0:0:
184,104,188807,6,0,L|268:60,1,85.4999977169037,0|0,0:0|0:0,0:0:0:0:
360,76,189419,1,2,0:0:0:0:
432,152,189725,2,0,L|392:204,1,42.7499988584519,0|0,0:0|0:0,0:0:0:0:
360,208,190031,2,0,B|324:200|308:180|308:180|300:148,1,85.4999977169037,0|0,0:0|0:0,0:0:0:0:
200,132,190644,2,0,L|223:229,1,85.4999977169037,2|0,0:0|0:0,0:0:0:0:
152,292,191256,6,0,P|116:264|72:256,2,85.4999977169037,0|0|2,0:0|0:0|0:0,0:0:0:0:
244,336,192174,1,0,0:0:0:0:
320,268,192480,2,0,L|332:224,1,42.7499988584519,0|0,0:0|0:0,0:0:0:0:
296,188,192787,2,0,L|335:165,1,42.7499988584519,0|0,0:0|0:0,0:0:0:0:
304,124,193093,2,0,P|336:88|344:40,1,85.4999977169037,2|0,0:0|0:0,0:0:0:0:
296,40,193552,1,0,0:0:0:0:
296,40,193705,6,0,P|259:60|216:61,1,85.4999977169037,0|0,0:0|0:0,0:0:0:0:
120,100,194317,1,2,0:0:0:0:
44,168,194623,2,0,L|4:212,1,42.7499988584519,0|0,0:0|0:0,0:0:0:0:
60,224,194929,2,0,P|104:212|144:224,1,85.4999977169037,0|0,0:0|0:0,0:0:0:0:
184,316,195542,1,2,0:0:0:0:
284,300,195848,2,0,L|268:248,1,42.7499988584519,0|0,0:0|0:0,0:0:0:0:
296,212,196154,5,0,0:0:0:0:
400,208,196460,2,0,P|440:172|452:140,2,85.4999977169037,0|2|0,0:0|0:0|0:0,0:0:0:0:
228,92,197684,2,0,L|212:41,1,42.7499988584519,0|0,0:0|0:0,0:0:0:0:
176,84,197991,2,0,L|129:59,1,42.7499988584519,8|8,0:0|0:0,0:0:0:0:
136,117,198297,2,0,L|85:132,1,42.7499988584519,0|0,0:0|0:0,0:0:0:0:
44,148,198603,6,0,B|23:116|23:116|27:86|14:52,2,90,4|0|8,0:0|0:0|0:0,0:0:0:0:
88,248,199521,1,0,0:0:0:0:
88,248,199674,1,0,0:0:0:0:
88,248,199827,2,0,P|138:261|171:291,2,90,0|0|8,0:0|0:0|0:0,0:0:0:0:
140,152,200746,1,0,0:0:0:0:
224,88,201052,5,4,0:0:0:0:
320,140,201358,2,0,L|412:112,1,90,0|8,0:0|0:0,0:0:0:0:
440,216,201970,2,0,L|397:295,1,90,0|0,0:0|0:0,0:0:0:0:
292,284,202582,1,8,0:0:0:0:
216,204,202889,2,0,L|160:232,1,45,8|8,0:0|0:0,0:0:0:0:
136,188,203195,2,0,L|76:168,1,45,0|0,0:0|0:0,0:0:0:0:
72,124,203501,5,4,0:0:0:0:
256,192,203654,12,4,205950,0:0:0:0:
264,80,208399,6,0,P|228:116|176:128,1,99.0000030212403,4|0,0:0|0:0,0:0:0:0:
44,204,209011,2,0,P|88:229|113:276,1,99.0000030212403,8|0,0:0|0:0,0:0:0:0:
252,344,209623,1,0,0:0:0:0:
392,272,209929,2,0,L|456:192,1,99.0000030212403,0|8,0:0|0:0,0:0:0:0:
328,100,210542,2,0,P|336:132|360:160,1,49.5000015106202,0|0,0:0|0:0,0:0:0:0:
312,216,210848,6,0,L|213:226,1,99.0000030212403,0|0,0:0|0:0,0:0:0:0:
68,292,211460,1,8,0:0:0:0:
52,136,211766,2,0,P|112:96|191:131,1,148.50000453186,0|0,0:0|0:0,0:0:0:0:
123,173,212378,2,0,P|80:211|21:208,2,99.0000030212403,0|8|0,0:0|0:0|0:0,0:0:0:0:
250,268,213297,6,0,B|298:240|306:204|306:204|294:176|294:144,1,148.50000453186,4|0,0:0|0:0,0:0:0:0:
255,75,213909,2,0,P|218:118|218:171,1,99.0000030212403,8|0,0:0|0:0,0:0:0:0:
368,124,214521,2,0,L|420:72,1,49.5000015106202,0|0,0:0|0:0,0:0:0:0:
444,156,214827,2,0,L|444:205,1,49.5000015106202,0|0,0:0|0:0,0:0:0:0:
392,264,215133,2,0,B|352:280|352:280|316:276|280:252,1,99.0000030212403,8|0,0:0|0:0,0:0:0:0:
260,108,215746,6,0,L|196:28,1,99.0000030212403,0|0,0:0|0:0,0:0:0:0:
37,69,216205,2,0,L|136:80,1,99.0000030212403,0|0,0:0|0:0,0:0:0:0:
132,160,216664,1,0,0:0:0:0:
88,312,216970,1,0,0:0:0:0:
244,324,217276,1,0,0:0:0:0:
112,236,217582,1,8,0:0:0:0:
45,93,217889,2,0,L|4:120,1,49.5000015106202,0|0,0:0|0:0,0:0:0:0:
96,152,218195,6,0,P|147:157|191:203,1,99.0000030212403,4|0,0:0|0:0,0:0:0:0:
256,48,218807,1,8,0:0:0:0:
466,93,219113,2,0,L|508:120,1,49.5000015106202,0|0,0:0|0:0,0:0:0:0:
416,152,219419,2,0,P|365:157|321:203,2,99.0000030212403,0|0|8,0:0|0:0|0:0,0:0:0:0:
464,304,220338,2,0,L|408:344,1,49.5000015106202,0|0,0:0|0:0,0:0:0:0:
348,308,220644,5,0,0:0:0:0:
192,332,220950,1,0,0:0:0:0:
60,244,221256,2,0,P|92:196|96:148,1,99.0000030212403,8|0,0:0|0:0,0:0:0:0:
24,132,221715,1,0,0:0:0:0:
24,132,221868,2,0,L|0:80,1,49.5000015106202,0|0,0:0|0:0,0:0:0:0:
80,68,222174,2,0,L|99:14,1,49.5000015106202,0|0,0:0|0:0,0:0:0:0:
172,44,222480,2,0,B|212:68|212:68|252:64|280:92,1,99.0000030212403,8|0,0:0|0:0,0:0:0:0:
222,147,222940,1,0,0:0:0:0:
144,164,223093,5,4,0:0:0:0:
180,320,223399,1,0,0:0:0:0:
320,244,223705,1,8,0:0:0:0:
468,300,224011,2,0,P|472:240|520:188,1,99.0000030212403,0|0,0:0|0:0,0:0:0:0:
364,68,224623,2,0,P|363:117|340:160,1,99.0000030212403,0|8,0:0|0:0,0:0:0:0:
180,148,225236,2,0,P|160:128|148:104,1,49.5000015106202,0|0,0:0|0:0,0:0:0:0:
80,148,225542,6,0,L|32:244,1,99.0000030212403,0|0,0:0|0:0,0:0:0:0:
184,292,226154,2,0,P|236:280|292:308,1,99.0000030212403,8|0,0:0|0:0,0:0:0:0:
332,352,226613,2,0,L|392:312,1,49.5000015106202,8|0,0:0|0:0,0:0:0:0:
476,204,227072,1,0,0:0:0:0:
336,132,227378,2,0,P|336:104|344:84,1,49.5000015106202,12|0,0:0|0:0,0:0:0:0:
268,64,227684,2,0,P|248:83|228:92,1,49.5000015106202,0|0,0:0|0:0,0:0:0:0:
196,164,227991,6,0,B|160:152|148:124|148:124|145:89,1,99.0000030212403,4|0,0:0|0:0,0:0:0:0:
64,224,228603,2,0,P|41:267|44:315,1,99.0000030212403,8|0,0:0|0:0,0:0:0:0:
200,304,229215,2,0,B|248:280|248:280|304:280,1,99.0000030212403,0|0,0:0|0:0,0:0:0:0:
452,268,229827,2,0,L|491:238,1,49.5000015106202,8|0,0:0|0:0,0:0:0:0:
420,196,230133,2,0,L|370:188,1,49.5000015106202,0|0,0:0|0:0,0:0:0:0:
296,212,230440,6,0,P|248:168|240:112,2,99.0000030212403,0|0|8,0:0|0:0|0:0,0:0:0:0:
388,84,231358,1,0,0:0:0:0:
460,224,231664,1,0,0:0:0:0:
388,84,231970,2,0,B|348:104|348:104|312:100|280:120,1,99.0000030212403,0|8,0:0|0:0,0:0:0:0:
272,268,232582,1,0,0:0:0:0:
160,156,232889,5,4,0:0:0:0:
48,268,233195,1,0,0:0:0:0:
16,196,233348,1,0,0:0:0:0:
64,132,233501,2,0,L|168:159,1,99.0000030212403,8|0,0:0|0:0,0:0:0:0:
272,268,234113,1,0,0:0:0:0:
404,180,234419,1,0,0:0:0:0:
468,324,234725,1,8,0:0:0:0:
312,344,235031,2,0,L|284:284,1,49.5000015106202,0|0,0:0|0:0,0:0:0:0:
212,300,235338,6,0,L|244:196,1,99.0000030212403,0|0,0:0|0:0,0:0:0:0:
180,156,235797,1,0,0:0:0:0:
109,191,235950,2,0,P|102:138|145:85,1,99.0000030212403,8|0,0:0|0:0,0:0:0:0:
280,116,236562,2,0,P|326:101|354:61,2,99.0000030212403,0|0|8,0:0|0:0|0:0,0:0:0:0:
120,108,237480,1,0,0:0:0:0:
159,39,237633,1,0,0:0:0:0:
200,108,237787,6,0,L|200:212,1,99.0000030212403,4|0,0:0|0:0,0:0:0:0:
320,308,238399,1,8,0:0:0:0:
472,260,238705,1,0,0:0:0:0:
496,184,238858,1,0,0:0:0:0:
424,152,239011,2,0,P|384:108|384:52,1,99.0000030212403,0|0,0:0|0:0,0:0:0:0:
244,152,239623,1,8,0:0:0:0:
316,292,239929,2,0,L|356:248,1,49.5000015106202,0|0,0:0|0:0,0:0:0:0:
280,216,240236,6,0,L|277:156,1,49.5000015106202,0|0,0:0|0:0,0:0:0:0:
200,164,240542,2,0,P|159:136|110:137,1,99.0000030212403,0|8,0:0|0:0,0:0:0:0:
44,280,241154,1,0,0:0:0:0:
44,280,241307,1,0,0:0:0:0:
44,280,241460,2,0,P|91:270|125:235,2,99.0000030212403,0|0|8,0:0|0:0|0:0,0:0:0:0:
60,124,242378,2,0,L|96:76,1,49.5000015106202,0|0,0:0|0:0,0:0:0:0:
144,140,242684,6,0,B|184:128|184:128|220:136|256:128,1,99.0000030212403,4|0,0:0|0:0,0:0:0:0:
380,56,243297,1,12,0:0:0:0:
500,156,243603,2,0,L|444:244,1,99.0000030212403,0|0,0:0|0:0,0:0:0:0:
288,260,244215,1,0,0:0:0:0:
148,188,244521,2,0,P|132:140|152:80,1,99.0000030212403,12|0,0:0|0:0,0:0:0:0:
216,68,244980,1,8,0:0:0:0:
260,136,245133,6,0,P|307:146|353:130,1,99.0000030212403,4|0,0:0|0:0,0:0:0:0:
400,64,245593,1,0,0:0:0:0:
476,100,245746,2,0,P|453:143|456:192,1,99.0000030212403,12|0,0:0|0:0,0:0:0:0:
324,260,246358,1,4,0:0:0:0:
180,216,246664,2,0,L|192:156,1,49.5000015106202,0|0,0:0|0:0,0:0:0:0:
260,136,246970,2,0,L|226:85,1,49.5000015106202,12|0,0:0|0:0,0:0:0:0:
304,56,247276,2,0,P|332:64|364:56,1,49.5000015106202,0|0,0:0|0:0,0:0:0:0:
412,112,247582,6,0,P|440:156|440:212,2,99.0000030212403,4|0|12,0:0|0:0|0:0,0:0:0:0:
280,200,248501,1,0,0:0:0:0:
120,200,248807,1,0,0:0:0:0:
208,68,249113,1,0,0:0:0:0:
64,136,249419,1,8,0:0:0:0:
200,216,249725,1,0,0:0:0:0:
200,216,249878,1,0,0:0:0:0:
200,216,250031,6,0,L|164:328,1,99.0000030212403,0|0,0:0|0:0,0:0:0:0:
328,312,250644,2,0,P|376:288|428:296,1,99.0000030212403,8|0,0:0|0:0,0:0:0:0:
492,152,251256,1,0,0:0:0:0:
336,172,251562,2,0,L|292:200,1,49.5000015106202,0|0,0:0|0:0,0:0:0:0:
220,172,251868,2,0,L|208:222,1,49.5000015106202,8|0,0:0|0:0,0:0:0:0:
136,252,252174,1,0,0:0:0:0:
60,232,252327,1,0,0:0:0:0:
28,160,252480,6,0,B|60:132|60:132|100:132|132:96,1,99.0000030212403,4|0,0:0|0:0,0:0:0:0:
148,44,252940,1,0,0:0:0:0:
228,48,253093,2,0,L|300:116,1,99.0000030212403,8|0,0:0|0:0,0:0:0:0:
446,278,253705,2,0,L|444:180,1,99.0000030212403,0|0,0:0|0:0,0:0:0:0:
392,120,254164,1,0,0:0:0:0:
324,164,254317,2,0,P|300:180|268:184,1,49.5000015106202,8|0,0:0|0:0,0:0:0:0:
267,106,254623,2,0,P|251:82|247:50,1,49.5000015106202,0|0,0:0|0:0,0:0:0:0:
168,48,254929,6,0,P|175:101|207:156,1,99.0000030212403,0|0,0:0|0:0,0:0:0:0:
124,180,255389,2,0,P|166:212|227:228,1,99.0000030212403,0|0,0:0|0:0,0:0:0:0:
190,303,255848,2,0,P|243:296|298:264,1,99.0000030212403,0|0,0:0|0:0,0:0:0:0:
304,120,256460,1,0,0:0:0:0:
440,200,256766,1,8,0:0:0:0:
360,64,257072,1,0,0:0:0:0:
304,120,257225,1,0,0:0:0:0:
228,100,257378,6,0,L|176:64,1,49.5000015106202,4|0,0:0|0:0,0:0:0:0:
132,128,257684,2,0,L|80:92,2,49.5000015106202,0|0|8,0:0|0:0|0:0,0:0:0:0:
228,256,258297,1,0,0:0:0:0:
284,200,258450,1,0,0:0:0:0:
360,220,258603,2,0,L|412:256,1,49.5000015106202,0|0,0:0|0:0,0:0:0:0:
456,192,258909,2,0,L|508:228,1,49.5000015106202,0|0,0:0|0:0,0:0:0:0:
476,296,259215,2,0,P|424:328|372:332,1,99.0000030212403,8|0,0:0|0:0,0:0:0:0:
320,292,259674,1,0,0:0:0:0:
244,272,259827,6,0,P|195:281|155:309,1,99.0000030212403,0|0,0:0|0:0,0:0:0:0:
16,236,260440,2,0,L|40:132,1,99.0000030212403,8|0,0:0|0:0,0:0:0:0:
92,80,260899,1,0,0:0:0:0:
134,146,261052,2,0,P|162:118|169:61,1,99.0000030212403,0|0,0:0|0:0,0:0:0:0:
92,80,261511,1,0,0:0:0:0:
38,139,261664,1,8,0:0:0:0:
100,284,261970,2,0,P|128:284|160:300,1,49.5000015106202,0|0,0:0|0:0,0:0:0:0:
220,320,262276,6,0,P|264:292|284:216,1,99.0000030212403,4|0,0:0|0:0,0:0:0:0:
140,180,262889,1,8,0:0:0:0:
12,88,263195,2,0,P|28:64|52:48,1,49.5000015106202,0|0,0:0|0:0,0:0:0:0:
84,118,263501,2,0,P|108:113|132:116,1,49.5000015106202,0|0,0:0|0:0,0:0:0:0:
20,168,263807,2,0,P|16:236|48:280,1,99.0000030212403,0|8,0:0|0:0,0:0:0:0:
188,244,264419,1,0,0:0:0:0:
240,184,264572,1,0,0:0:0:0:
320,192,264725,6,0,L|368:92,1,99.0000030212403,4|8,0:0|0:0,0:0:0:0:
212,48,265338,1,8,0:0:0:0:
88,144,265644,1,8,0:0:0:0:
240,184,265950,2,0,P|280:220|288:268,1,99.0000030212403,4|0,0:0|0:0,0:0:0:0:
209,258,266409,1,0,0:0:0:0:
132,248,266562,6,0,L|70:225,1,66.0000020141602,2|2,0:0|0:0,0:0:0:0:
4,144,266970,1,2,0:0:0:0:
80,72,267174,6,0,L|176:107,1,99.0000030212403,4|0,0:0|0:0,0:0:0:0:
235,154,267633,1,0,0:0:0:0:
291,210,267787,2,0,P|339:182|363:134,1,99.0000030212403,8|0,0:0|0:0,0:0:0:0:
492,232,268399,2,0,P|477:285|494:336,1,99.0000030212403,0|0,0:0|0:0,0:0:0:0:
408,332,268858,2,0,B|364:324|364:324|332:344|292:332,1,99.0000030212403,0|0,0:0|0:0,0:0:0:0:
319,257,269317,2,0,P|339:237|355:205,1,49.5000015106202,0|0,0:0|0:0,0:0:0:0:
276,189,269623,5,0,0:0:0:0:
146,284,269929,1,0,0:0:0:0:
195,131,270236,1,8,0:0:0:0:
245,284,270542,1,0,0:0:0:0:
115,189,270848,1,0,0:0:0:0:
276,189,271154,2,0,L|356:112,1,99.0000030212403,4|8,0:0|0:0,0:0:0:0:
424,104,271613,1,0,0:0:0:0:
468,172,271766,2,0,P|480:204|496:224,1,49.5000015106202,0|0,0:0|0:0,0:0:0:0:
420,260,272072,6,0,P|368:248|312:272,1,99.0000030212403,4|0,0:0|0:0,0:0:0:0:
176,312,272684,1,8,0:0:0:0:
64,200,272991,2,0,L|92:148,2,49.5000015106202,0|0|0,0:0|0:0|0:0,0:0:0:0:
220,180,273603,1,0,0:0:0:0:
304,48,273909,1,8,0:0:0:0:
144,40,274215,1,0,0:0:0:0:
84,92,274368,1,0,0:0:0:0:
88,172,274521,6,0,P|136:200|164:252,1,99.0000030212403,0|0,0:0|0:0,0:0:0:0:
296,312,275133,1,8,0:0:0:0:
332,156,275440,2,0,L|288:208,1,49.5000015106202,0|0,0:0|0:0,0:0:0:0:
232,152,275746,2,0,P|217:98|234:41,2,99.0000030212403,0|4|8,0:0|0:0|0:0,0:0:0:0:
300,196,276511,1,0,0:0:0:0:
377,212,276664,2,0,L|408:174,1,49.5000015106202,0|0,0:0|0:0,0:0:0:0:
396,96,276970,5,4,0:0:0:0:
240,124,277276,1,0,0:0:0:0:
92,68,277582,1,8,0:0:0:0:
48,220,277889,1,0,0:0:0:0:
48,220,278042,1,0,0:0:0:0:
48,220,278195,2,0,L|128:288,1,99.0000030212403,0|0,0:0|0:0,0:0:0:0:
280,252,278807,2,0,P|252:200|260:140,1,99.0000030212403,8|0,0:0|0:0,0:0:0:0:
412,164,279419,5,0,0:0:0:0:
363,314,279725,1,0,0:0:0:0:
204,314,280031,1,8,0:0:0:0:
155,164,280338,1,0,0:0:0:0:
283,70,280644,1,0,0:0:0:0:
155,164,280950,2,0,L|104:204,1,49.5000015106202,4|0,0:0|0:0,0:0:0:0:
180,240,281256,2,0,L|172:304,1,49.5000015106202,8|0,0:0|0:0,0:0:0:0:
252,304,281562,2,0,P|280:284|304:276,1,49.5000015106202,0|0,0:0|0:0,0:0:0:0:
368,306,281868,6,0,P|400:272|412:224,1,90,4|0,0:0|0:0,0:0:0:0:
266,169,282480,2,0,P|223:156|191:125,1,90,0|0,0:0|0:0,0:0:0:0:
188,46,282940,1,0,0:0:0:0:
188,46,283093,1,0,0:0:0:0:
76,136,283399,2,0,L|38:228,1,90,0|0,0:0|0:0,0:0:0:0:
116,344,284011,1,0,0:0:0:0:
196,208,284317,6,0,L|234:116,1,99.0000030212403,12|0,0:0|0:0,0:0:0:0:
380,60,284929,1,8,0:0:0:0:
470,190,285236,1,0,0:0:0:0:
328,256,285542,2,0,L|236:293,1,99.0000030212403,12|0,0:0|0:0,0:0:0:0:
156,156,286154,2,0,P|109:152|71:114,1,99.0000030212403,8|0,0:0|0:0,0:0:0:0:
142,79,286613,1,0,0:0:0:0:
218,105,286766,6,0,P|235:148|221:204,1,90,4|0,0:0|0:0,0:0:0:0:
108,272,287378,1,8,0:0:0:0:
244,324,287684,2,0,L|280:284,1,45,0|0,0:0|0:0,0:0:0:0:
336,252,287991,2,0,P|319:209|333:153,1,90,0|0,0:0|0:0,0:0:0:0:
452,100,288603,1,8,0:0:0:0:
324,36,288909,2,0,L|264:36,1,45,0|0,0:0|0:0,0:0:0:0:
224,80,289215,5,0,0:0:0:0:
92,136,289521,1,0,0:0:0:0:
208,224,289827,1,8,0:0:0:0:
152,92,290133,1,0,0:0:0:0:
132,236,290440,1,0,0:0:0:0:
248,152,290746,1,4,0:0:0:0:
104,164,291052,1,8,0:0:0:0:
220,80,291358,1,0,0:0:0:0:
220,80,291511,1,0,0:0:0:0:
220,80,291664,6,0,P|176:92|120:76,2,90,4|0|8,0:0|0:0|0:0,0:0:0:0:
292,204,292582,1,0,0:0:0:0:
292,204,292735,1,0,0:0:0:0:
292,204,292888,2,0,P|336:192|392:208,2,90,0|0|8,0:0|0:0|0:0,0:0:0:0:
148,208,293807,2,0,L|88:248,1,45,0|0,0:0|0:0,0:0:0:0:
156,292,294113,6,0,L|244:328,1,90,0|0,0:0|0:0,0:0:0:0:
384,319,294725,2,0,P|412:285|419:241,1,90,8|0,0:0|0:0,0:0:0:0:
276,220,295338,2,0,P|250:183|245:139,1,90,4|0,0:0|0:0,0:0:0:0:
128,56,295950,2,0,L|69:68,1,45,8|0,0:0|0:0,0:0:0:0:
93,137,296256,2,0,L|60:187,1,45,0|0,0:0|0:0,0:0:0:0:
125,220,296562,6,0,L|147:322,1,90,4|0,0:0|0:0,0:0:0:0:
244,204,297174,1,8,0:0:0:0:
232,60,297480,2,0,P|212:80|200:116,1,45,0|0,0:0|0:0,0:0:0:0:
272,120,297787,2,0,P|324:104|356:64,1,90,0|0,0:0|0:0,0:0:0:0:
348,79,298399,1,8,0:0:0:0:
424,200,298705,2,0,L|480:172,1,45,0|0,0:0|0:0,0:0:0:0:
464,108,299011,5,0,0:0:0:0:
324,140,299317,1,0,0:0:0:0:
192,84,299623,1,8,0:0:0:0:
115,205,299929,1,0,0:0:0:0:
216,308,300236,1,4,0:0:0:0:
224,164,300542,2,0,B|266:170|266:170|289:159|324:161,2,90,0|8|0,0:0|0:0|0:0,0:0:0:0:
312,280,301460,6,0,L|400:340,1,90,4|0,0:0|0:0,0:0:0:0:
460,208,302072,2,0,L|443:119,1,90,12|0,0:0|0:0,0:0:0:0:
308,72,302684,2,0,B|276:104|240:116|240:116|188:100|128:132,1,180,0|8,0:0|0:0,0:0:0:0:
88,172,303450,2,0,L|60:228,1,45,0|0,0:0|0:0,0:0:0:0:
132,244,303756,2,0,L|151:303,1,45,0|4,0:0|0:0,0:0:0:0:
256,192,304062,12,2,305746,0:0:0:0:
127,271,306358,6,0,P|166:266|204:278,1,80.9999975280763,2|0,0:0|0:0,0:0:0:0:
285,333,306970,1,2,0:0:0:0:
376,300,307276,2,0,P|381:186|308:73,1,242.999992584229,2|0,0:0|0:0,0:0:0:0:
216,76,308501,6,0,L|172:88,2,40.4999987640381,2|0|2,0:0|0:0|0:0,0:0:0:0:
272,156,309113,1,0,0:0:0:0:
216,232,309419,1,2,0:0:0:0:
264,316,309725,2,0,P|336:288|416:312,1,161.999995056153,2|0,0:0|0:0,0:0:0:0:
468,232,310644,2,0,L|444:176,1,40.4999987640381,2|0,0:0|0:0,0:0:0:0:
360,80,311256,6,0,L|296:148,1,80.9999975280763,2|0,0:0|0:0,0:0:0:0:
208,116,311868,2,0,L|263:57,1,80.9999975280763,2|2,0:0|0:0,0:0:0:0:
84,128,312787,1,0,0:0:0:0:
60,224,313093,2,0,P|92:248|116:320,1,80.9999975280763,2|2,0:0|0:0,0:0:0:0:
203,315,313705,6,0,B|223:271|263:243|263:243|287:171,1,161.999995056153,2|0,0:0|0:0,0:0:0:0:
480,190,314929,2,0,L|456:268,1,80.9999975280763,2|2,0:0|0:0,0:0:0:0:
392,148,315542,2,0,L|349:65,1,80.9999975280763,2|0,0:0|0:0,0:0:0:0:
272,124,316154,6,0,B|240:152|240:152|212:160|180:176,1,80.9999975280763,2|0,0:0|0:0,0:0:0:0:
108,156,316766,2,0,P|72:120|60:80,1,80.9999975280763,2|2,0:0|0:0,0:0:0:0:
160,256,317684,1,0,0:0:0:0:
80,308,317991,1,2,0:0:0:0:
160,256,318297,2,0,L|208:280,1,40.4999987640381,2|0,0:0|0:0,0:0:0:0:
244,272,318603,6,0,B|268:256|292:252|292:252|328:216,1,80.9999975280763,2|0,0:0|0:0,0:0:0:0:
376,156,319215,1,2,0:0:0:0:
332,68,319521,2,0,P|268:120|176:112,1,161.999995056153,2|0,0:0|0:0,0:0:0:0:
96,92,320440,1,2,0:0:0:0:
96,92,320593,2,0,P|68:128|28:148,1,80.9999975280763,0|0,0:0|0:0,0:0:0:0:
44,192,321052,6,0,L|100:256,1,80.9999975280763,2|0,0:0|0:0,0:0:0:0:
184,208,321664,2,0,L|268:213,1,80.9999975280763,2|2,0:0|0:0,0:0:0:0:
444,136,322889,6,0,L|472:64,2,53.9999983520508,2|2|0,0:0|0:0|0:0,0:0:0:0:
473,216,323501,6,0,P|433:221|395:207,1,80.9999975280763,2|0,0:0|0:0,0:0:0:0:
332,279,324113,2,0,P|307:247|301:207,1,80.9999975280763,2|0,0:0|0:0,0:0:0:0:
206,186,324725,2,0,P|221:148|252:123,1,80.9999975280763,2|0,0:0|0:0,0:0:0:0:
221,32,325337,2,0,P|260:26|298:40,1,80.9999975280763,2|0,0:0|0:0,0:0:0:0:
348,124,325950,6,0,L|377:214,1,80.9999975280763,2|2,0:0|0:0,0:0:0:0:
281,234,326562,2,0,L|237:319,1,80.9999975280763,0|2,0:0|0:0,0:0:0:0:
