osu file format v13

[General]
AudioFilename: cake.mp3
AudioLeadIn: 0
PreviewTime: 94675
Countdown: 0
SampleSet: Soft
StackLeniency: 0.4
Mode: 0
LetterboxInBreaks: 0
EpilepsyWarning: 1
WidescreenStoryboard: 1

[Editor]
Bookmarks: 284777
DistanceSpacing: 1.5
BeatDivisor: 4
GridSize: 4
TimelineZoom: 1.7

[Metadata]
Title:Uta ni Katachi wa Nai keredo
TitleUnicode:歌に形はないけれど
Artist:Hanatan
ArtistUnicode:花たん
Creator:Natsu
Version:Flower
Source:
Tags:xinely ユリカ doriko vocaloid hatsune miku YURiCa
BeatmapID:433441
BeatmapSetID:180366

[Difficulty]
HPDrainRate:6
CircleSize:4
OverallDifficulty:6.5
ApproachRate:8
SliderMultiplier:2
SliderTickRate:2

[Events]
//Background and Video events
0,0,"1119815457ed79492co.jpg",0,0
//Break Periods
//Storyboard Layer 0 (Background)
//Storyboard Layer 1 (Fail)
//Storyboard Layer 2 (Pass)
//Storyboard Layer 3 (Foreground)
//Storyboard Sound Samples
//Background Colour Transformations
3,100,163,162,255

[TimingPoints]
237,612.244897959184,4,2,1,25,1,0
6665,-100,4,1,1,25,0,0
7583,-100,4,2,1,25,0,0
9115,-100,4,2,1,30,0,0
10032,-100,4,2,2,40,0,0
12481,-90.9090909090909,4,2,2,55,0,0
32073,-90.9090909090909,4,2,2,45,0,0
35441,-125,4,2,2,40,0,0
72175,-125,4,2,2,45,0,0
73706,-100,4,2,2,50,0,0
95747,-83.3333333333333,4,2,2,60,0,1
115185,-83.3333333333333,4,2,2,60,0,0
115339,-83.3333333333333,4,2,2,60,0,1
134930,-100,4,2,2,55,0,0
157660,-100,4,1,1,30,0,0
158196,-100,4,2,2,55,0,0
163400,-100,4,1,1,50,0,0
164318,-100,4,2,2,50,0,0
178196,-100,4,3,1,40,0,0
179012,-100,4,2,2,50,0,0
183298,-100,4,2,2,40,0,0
183451,-100,4,2,2,35,0,0
183604,-100,4,2,2,30,0,0
183757,-125,4,2,2,35,0,0
207175,-100,4,2,2,55,0,0
208400,-83.3333333333333,4,2,2,60,0,1
227839,-83.3333333333333,4,2,2,60,0,0
227992,-83.3333333333333,4,2,2,60,0,1
247583,-90.9090909090909,4,2,2,55,0,0
266563,-90.9090909090909,4,1,1,50,0,0
267175,-90.9090909090909,4,2,2,50,0,0
286461,-100,4,2,2,50,0,0
295645,-100,4,1,1,50,0,0
296563,-100,4,2,2,50,0,0
300645,-100,4,3,1,50,0,0
301461,-100,4,2,2,50,0,0

[Colours]
Combo1 : 43,255,149
Combo2 : 255,185,255
Combo3 : 176,255,255
Combo4 : 130,143,206

[HitObjects]
72,300,1767,5,2,0:0:0:0:
220,268,2073,1,2,0:0:0:0:
96,188,2379,1,2,0:0:0:0:
260,336,2685,6,0,P|300:260|224:188,1,200,4|8,0:0|0:0,0:0:0:0:
72,300,3604,1,2,0:0:0:0:
72,300,4522,1,8,0:0:0:0:
440,79,5134,6,0,B|380:54|340:89|340:89|306:117|280:103|272:79|284:51,1,200,2|8,0:0|0:0,0:0:0:0:
396,156,6053,1,2,0:0:0:0:
72,300,6665,1,0,0:0:0:0:
181,199,6971,1,0,0:0:0:0:
248,164,7124,1,0,0:0:0:0:
244,240,7277,1,0,0:0:0:0:
176,112,7583,5,4,0:0:0:0:
173,281,7890,1,2,0:0:0:0:
321,199,8196,1,2,0:0:0:0:
125,198,8502,1,2,0:0:0:0:
270,111,8809,1,2,0:0:0:0:
272,280,9114,1,2,0:0:0:0:
176,112,9420,1,2,0:0:0:0:
272,280,9726,1,2,0:0:0:0:
176,112,10032,6,0,P|212:80|264:76,1,100,4|2,3:0|0:0,0:0:0:0:
336,104,10492,1,8,3:0:0:0:
387,165,10645,2,0,P|413:123|409:75,1,100,8|0,0:0|0:0,0:0:0:0:
344,20,11104,1,2,0:0:0:0:
260,32,11257,1,8,0:0:0:0:
224,108,11410,1,8,0:0:0:0:
145,123,11563,2,0,L|116:71,1,50,2|0,0:0|0:0,0:0:0:0:
8,44,11869,2,0,L|57:146,1,100,4|0,0:0|0:0,0:0:0:0:
156,328,12481,6,0,P|210:327|256:292,1,110.000003356934,4|0,0:0|0:0,0:0:0:0:
284,124,13094,1,8,0:0:0:0:
108,100,13400,2,0,P|96:204|200:252,1,220.000006713867,4|0,0:0|0:0,0:0:0:0:
284,124,14318,1,8,0:0:0:0:
108,100,14624,5,2,0:0:0:0:
25,73,14777,1,0,0:0:0:0:
93,17,14930,2,0,P|141:21|189:73,1,110.000003356934,4|0,0:0|0:0,0:0:0:0:
256,192,15543,1,8,0:0:0:0:
327,322,15849,2,0,P|388:364|384:264,1,220.000006713867,4|0,0:0|0:0,0:0:0:0:
256,192,16767,1,8,0:0:0:0:
181,229,16920,1,2,0:0:0:0:
123,171,17073,1,8,0:0:0:0:
161,97,17226,1,8,0:0:0:0:
244,112,17379,5,4,0:0:0:0:
384,176,17685,1,0,0:0:0:0:
258,265,17992,1,8,0:0:0:0:
244,112,18298,2,0,B|250:54|298:18|298:18|358:38|378:98,1,220.000006713867,4|2,0:0|0:0,0:0:0:0:
372,252,19216,1,8,0:0:0:0:
244,112,19522,1,2,0:0:0:0:
372,252,19828,6,0,B|308:308|224:228|160:272,1,220.000006713867,4|8,0:0|0:0,0:0:0:0:
40,376,20747,1,2,0:0:0:0:
0,224,21053,1,2,0:0:0:0:
20,144,21206,1,8,0:0:0:0:
80,88,21359,1,2,0:0:0:0:
100,168,21512,1,8,0:0:0:0:
20,144,21665,1,2,0:0:0:0:
148,40,21971,5,2,0:0:0:0:
228,16,22124,1,8,0:0:0:0:
308,36,22277,2,0,L|348:140,1,110.000003356934,4|0,0:0|0:0,0:0:0:0:
404,272,22890,1,8,0:0:0:0:
280,344,23196,2,0,B|184:340|156:248|188:192|260:184|288:200|324:264|232:272,1,330.000010070801,4|8,0:0|0:0,0:0:0:0:
40,180,24420,5,2,0:0:0:0:
68,104,24573,1,2,0:0:0:0:
136,60,24726,2,0,P|181:37|242:41,1,110.000003356934,4|0,0:0|0:0,0:0:0:0:
328,168,25339,1,8,0:0:0:0:
252,288,25645,2,0,P|164:216|192:128,1,220.000006713867,4|0,0:0|0:0,0:0:0:0:
328,168,26563,1,8,0:0:0:0:
404,200,26716,2,0,P|433:205|464:200,2,55.0000016784668,2|8|8,0:0|0:0|0:0,0:0:0:0:
328,168,27175,6,0,P|276:144|220:156,1,110.000003356934,4|0,0:0|0:0,0:0:0:0:
124,252,27788,1,8,0:0:0:0:
252,312,28094,2,0,B|304:332|324:368|324:368|384:348|416:284,1,220.000006713867,4|0,0:0|0:0,0:0:0:0:
424,144,29012,2,0,L|432:52,1,73.3333355712891,8|8,3:0|3:0,0:0:0:0:
352,24,29420,2,0,L|345:97,1,73.3333355712891,8|8,3:0|3:0,0:0:0:0:
256,192,29777,12,8,31461,0:0:0:0:
255,293,32073,5,2,0:0:0:0:
154,191,32379,1,2,0:0:0:0:
256,90,32685,1,2,0:0:0:0:
357,192,32992,2,0,P|432:208|384:128,1,220.000006713867,2|0,0:0|0:0,0:0:0:0:
256,90,33910,1,8,0:0:0:0:
184,116,34063,1,8,0:0:0:0:
244,168,34216,1,8,0:0:0:0:
192,20,34522,1,2,0:0:0:0:
192,20,35441,5,0,0:0:0:0:
108,80,35747,1,0,0:0:0:0:
80,180,36053,1,0,0:0:0:0:
180,156,36359,1,0,0:0:0:0:
108,80,36665,1,0,0:0:0:0:
80,180,36971,6,0,P|56:253|93:327,1,160,2|0,0:0|0:0,0:0:0:0:
256,348,37890,1,0,0:0:0:0:
422,325,38196,2,0,P|455:254|432:180,1,160,0|0,0:0|0:0,0:0:0:0:
256,24,39420,1,2,0:0:0:0:
256,24,40339,5,0,0:0:0:0:
265,127,40645,1,0,0:0:0:0:
170,83,40951,1,0,0:0:0:0:
269,33,41257,1,0,0:0:0:0:
250,134,41563,1,0,0:0:0:0:
172,68,41869,6,0,P|88:68|32:132,1,160,2|0,0:0|0:0,0:0:0:0:
144,192,42788,1,0,0:0:0:0:
246,265,43094,2,0,P|189:318|112:316,1,160,0|0,0:0|0:0,0:0:0:0:
172,68,44318,1,2,0:0:0:0:
172,68,44624,5,0,0:0:0:0:
256,128,44930,1,0,0:0:0:0:
360,124,45237,1,0,0:0:0:0:
460,92,45543,2,0,P|492:64|508:16,2,80,2|0|0,0:0|0:0|0:0,0:0:0:0:
384,20,46461,1,0,0:0:0:0:
344,208,46767,6,0,L|324:296,1,80,2|0,0:0|0:0,0:0:0:0:
252,360,47379,1,0,0:0:0:0:
204,268,47685,1,0,0:0:0:0:
132,344,47992,2,0,P|72:296|72:208,1,160,2|0,0:0|0:0,0:0:0:0:
256,124,49216,1,2,0:0:0:0:
256,124,49522,5,0,0:0:0:0:
360,116,49828,1,0,0:0:0:0:
444,180,50134,1,0,0:0:0:0:
444,180,50747,1,0,0:0:0:0:
360,116,51053,1,0,0:0:0:0:
256,124,51359,1,0,0:0:0:0:
256,124,51665,6,0,P|188:84|104:96,1,160,2|0,0:0|0:0,0:0:0:0:
32,160,52583,1,0,0:0:0:0:
24,264,52890,1,0,0:0:0:0:
100,336,53196,1,4,0:0:0:0:
100,336,53502,1,4,0:0:0:0:
256,192,53961,1,2,0:0:0:0:
256,192,54114,2,0,P|328:164|408:192,1,160,2|8,0:0|0:0,0:0:0:0:
472,328,55032,5,0,0:0:0:0:
376,288,55339,1,0,0:0:0:0:
300,360,55645,1,0,0:0:0:0:
216,300,55951,1,8,0:0:0:0:
132,364,56257,1,0,0:0:0:0:
60,288,56563,6,0,P|48:212|112:144,1,160,2|8,0:0|0:0,0:0:0:0:
220,156,57481,1,0,0:0:0:0:
340,184,57788,2,0,P|376:184|424:160,1,80,0|2,0:0|0:0,0:0:0:0:
464,48,58400,2,0,P|428:48|380:72,1,80,8|0,0:0|0:0,0:0:0:0:
340,184,59012,2,0,B|304:220|292:248|292:248|240:184,1,160,8|8,0:0|0:0,0:0:0:0:
170,75,59930,5,2,0:0:0:0:
88,8,60237,1,0,0:0:0:0:
0,63,60543,1,0,0:0:0:0:
25,164,60849,1,8,0:0:0:0:
129,171,61155,1,2,0:0:0:0:
170,75,61461,6,0,P|246:47|326:71,1,160,8|0,0:0|0:0,0:0:0:0:
392,168,62379,1,0,0:0:0:0:
384,296,62685,2,0,P|340:288|308:260,1,80,8|0,0:0|0:0,0:0:0:0:
256,152,63298,1,8,3:0:0:0:
144,88,63604,1,8,3:0:0:0:
256,28,63910,1,10,3:0:0:0:
180,156,64216,5,0,0:0:0:0:
180,20,64522,1,8,0:0:0:0:
300,88,64828,1,0,0:0:0:0:
144,88,65134,1,2,0:0:0:0:
256,28,65441,2,0,L|300:0,2,40,0|0|8,0:0|0:0|0:0,0:0:0:0:
144,88,66053,5,0,0:0:0:0:
56,180,66359,1,8,0:0:0:0:
153,99,66665,1,0,0:0:0:0:
46,168,66971,1,2,0:0:0:0:
160,115,67277,1,0,0:0:0:0:
36,152,67583,2,0,P|21:80|85:16,1,160,2|8,0:0|0:0,0:0:0:0:
332,72,68502,5,2,0:0:0:0:
392,120,68655,1,0,0:0:0:0:
406,194,68808,2,0,P|463:142|448:68,1,160,8|8,0:0|0:0,0:0:0:0:
256,84,69726,5,0,0:0:0:0:
148,191,70032,1,2,0:0:0:0:
255,298,70339,1,0,0:0:0:0:
363,191,70645,1,8,0:0:0:0:
256,84,70951,1,2,0:0:0:0:
184,60,71104,1,0,0:0:0:0:
112,84,71257,2,0,P|84:116|80:164,1,80,8|0,0:0|0:0,0:0:0:0:
224,196,71869,5,2,0:0:0:0:
328,56,72175,1,2,0:0:0:0:
440,152,72481,2,0,L|488:184,1,40,8|8,0:0|0:0,0:0:0:0:
412,220,72788,2,0,L|420:268,1,40,2|8,0:0|0:0,0:0:0:0:
344,256,73094,2,0,L|328:336,1,80,4|2,0:0|0:0,0:0:0:0:
92,332,73706,5,4,0:0:0:0:
36,192,74012,1,2,0:0:0:0:
180,232,74318,1,8,0:0:0:0:
140,88,74624,1,0,0:0:0:0:
76,48,74777,2,0,L|20:36,1,50,8|2,0:0|0:0,0:0:0:0:
120,176,75237,5,2,0:0:0:0:
256,240,75543,1,8,0:0:0:0:
244,92,75849,1,0,0:0:0:0:
180,232,76155,1,2,0:0:0:0:
88,352,76461,1,0,0:0:0:0:
236,376,76767,1,8,0:0:0:0:
116,284,77073,1,0,0:0:0:0:
60,232,77226,1,0,0:0:0:0:
36,160,77379,2,0,P|32:136|36:104,2,50,2|8|8,0:0|0:0|0:0,0:0:0:0:
116,284,77992,1,8,0:0:0:0:
256,192,78298,5,8,0:0:0:0:
312,140,78451,1,0,0:0:0:0:
256,88,78604,2,0,P|204:76|152:84,1,100,4|0,0:0|0:0,0:0:0:0:
256,192,79216,1,8,0:0:0:0:
328,60,79522,1,0,0:0:0:0:
384,108,79675,2,0,L|448:96,1,50,8|2,0:0|0:0,0:0:0:0:
404,244,80134,1,8,0:0:0:0:
288,340,80441,1,8,0:0:0:0:
256,192,80747,1,0,0:0:0:0:
404,244,81053,6,0,B|464:192|441:115|441:115|376:108,1,200,4|8,0:0|0:0,0:0:0:0:
256,40,81971,1,2,0:0:0:0:
200,88,82124,1,8,0:0:0:0:
132,60,82277,2,0,L|72:56,2,50,2|8|8,0:0|0:0|0:0,0:0:0:0:
256,40,82890,1,8,0:0:0:0:
376,192,83196,5,2,0:0:0:0:
312,232,83349,1,8,0:0:0:0:
308,156,83502,1,4,0:0:0:0:
412,48,83808,1,2,0:0:0:0:
376,192,84114,1,8,0:0:0:0:
228,196,84420,1,2,0:0:0:0:
160,164,84573,2,0,L|152:112,1,50,0|8,0:0|0:0,0:0:0:0:
100,256,85032,5,0,0:0:0:0:
212,356,85339,1,8,0:0:0:0:
312,244,85645,1,0,0:0:0:0:
200,144,85951,1,2,0:0:0:0:
172,292,86257,1,0,0:0:0:0:
268,180,86563,1,12,0:0:0:0:
292,32,86869,1,2,0:0:0:0:
364,12,87022,1,0,0:0:0:0:
436,40,87175,1,8,0:0:0:0:
476,104,87328,1,8,0:0:0:0:
476,180,87481,2,0,P|436:212|380:216,1,100,4|8,0:0|0:0,0:0:0:0:
256,144,88094,5,2,0:0:0:0:
188,112,88247,1,0,0:0:0:0:
112,124,88400,2,0,B|36:148|24:212|24:212|56:216|88:188,1,200,4|8,0:0|0:0,0:0:0:0:
256,68,89318,5,0,0:0:0:0:
404,100,89624,1,2,0:0:0:0:
456,240,89930,1,0,0:0:0:0:
308,216,90237,1,8,0:0:0:0:
404,100,90543,1,0,0:0:0:0:
456,240,90849,6,0,P|476:284|480:336,1,100,2|0,0:0|0:0,0:0:0:0:
332,312,91461,2,0,P|312:268|308:216,1,100,8|0,0:0|0:0,0:0:0:0:
256,76,92073,2,0,B|221:88|221:88|179:151|111:128|87:106|79:73,1,200,2|8,0:0|0:0,0:0:0:0:
152,44,92839,1,8,3:0:0:0:
216,8,92992,1,8,3:0:0:0:
290,9,93145,1,8,3:0:0:0:
335,68,93298,1,4,0:0:0:0:
256,192,93451,12,8,94522,0:0:0:0:
264,168,94828,6,0,L|280:228,1,50,8|0,0:0|1:0,0:0:0:0:
352,224,95134,2,0,L|332:288,1,50,8|0,0:0|1:0,0:0:0:0:
384,336,95441,2,0,L|328:352,1,50,0|0,0:0|1:0,0:0:0:0:
256,372,95747,5,4,0:0:0:0:
172,212,96053,1,0,0:0:0:0:
352,224,96359,1,8,0:0:0:0:
256,372,96665,2,0,B|80:396|71:271|71:271|178:208,1,359.999989013672,2|8,0:0|0:0,0:0:0:0:
352,224,97890,5,0,0:0:0:0:
484,104,98196,1,2,0:0:0:0:
312,48,98502,2,0,P|248:32|188:44,1,119.999996337891,0|8,0:0|0:0,0:0:0:0:
60,160,99114,2,0,P|124:176|184:164,1,119.999996337891,2|0,0:0|0:0,0:0:0:0:
312,48,99726,1,8,0:0:0:0:
420,192,100032,1,8,0:0:0:0:
240,212,100339,1,8,0:0:0:0:
412,84,100645,6,0,L|460:44,2,59.9999981689454,4|0|2,0:0|0:0|0:0,0:0:0:0:
348,148,101104,1,0,0:0:0:0:
344,236,101257,1,8,0:0:0:0:
484,348,101563,2,0,P|504:292|488:236,1,119.999996337891,2|0,0:0|0:0,0:0:0:0:
348,124,102175,2,0,P|328:180|344:236,1,119.999996337891,2|10,0:0|0:0,0:0:0:0:
484,348,102788,5,0,0:0:0:0:
408,184,103094,1,2,0:0:0:0:
264,288,103400,2,0,P|236:304|192:312,2,59.9999981689454,0|0|8,0:0|0:0|0:0,0:0:0:0:
408,184,104012,1,0,0:0:0:0:
308,36,104318,2,0,P|244:28|188:56,2,119.999996337891,0|2|10,0:0|0:0|0:0,0:0:0:0:
408,184,105237,5,2,0:0:0:0:
364,260,105390,1,8,0:0:0:0:
300,320,105543,2,0,B|232:384|144:296|68:336,1,239.999992675781,4|8,0:0|0:0,0:0:0:0:
56,112,106461,1,0,0:0:0:0:
136,68,106614,1,0,0:0:0:0:
216,108,106767,2,0,P|276:112|324:72,2,119.999996337891,2|2|8,0:0|0:0|0:0,0:0:0:0:
60,20,107685,5,0,0:0:0:0:
140,180,107992,2,0,P|188:212|264:200,1,119.999996337891,2|0,0:0|0:0,0:0:0:0:
396,104,108604,1,8,0:0:0:0:
240,16,108910,1,2,0:0:0:0:
156,44,109063,1,0,0:0:0:0:
100,116,109216,2,0,P|152:136|228:100,1,119.999996337891,2|0,0:0|0:0,0:0:0:0:
352,8,109828,1,8,0:0:0:0:
468,184,110134,5,0,0:0:0:0:
416,248,110288,1,0,0:0:0:0:
332,244,110441,2,0,B|244:228|148:312|252:392|284:296,1,239.999992675781,4|8,0:0|0:0,0:0:0:0:
256,52,111359,5,2,0:0:0:0:
415,248,111665,1,2,0:0:0:0:
172,183,111971,1,2,0:0:0:0:
407,92,112277,1,8,0:0:0:0:
270,304,112583,1,0,0:0:0:0:
256,52,112890,2,0,P|136:28|48:104,1,239.999992675781,2|8,0:0|0:0,0:0:0:0:
52,276,113808,1,8,0:0:0:0:
140,300,113961,2,0,P|172:288|200:264,1,59.9999981689454,4|0,0:0|0:0,0:0:0:0:
256,52,114420,6,0,L|284:104,1,59.9999981689454,0|0,3:0|3:0,0:0:0:0:
364,64,114726,2,0,L|392:116,1,59.9999981689454,8|0,0:0|3:0,0:0:0:0:
476,84,115032,2,0,L|504:136,1,59.9999981689454,2|0,0:0|3:0,0:0:0:0:
472,220,115339,5,4,0:0:0:0:
340,344,115645,1,0,0:0:0:0:
300,168,115951,1,8,0:0:0:0:
420,304,116257,1,2,0:0:0:0:
340,344,116410,1,0,0:0:0:0:
252,332,116563,1,0,0:0:0:0:
172,288,116716,1,0,0:0:0:0:
136,204,116869,2,0,P|120:152|136:80,1,119.999996337891,2|8,0:0|0:0,0:0:0:0:
376,16,117481,5,0,0:0:0:0:
492,156,117788,1,2,0:0:0:0:
312,180,118094,2,0,P|248:184|196:152,1,119.999996337891,2|8,0:0|0:0,0:0:0:0:
380,136,118706,2,0,P|388:200|352:252,1,119.999996337891,2|2,0:0|0:0,0:0:0:0:
204,336,119318,1,8,0:0:0:0:
200,156,119624,1,8,0:0:0:0:
380,136,119930,1,8,0:0:0:0:
404,316,120237,6,0,P|344:312|308:264,1,119.999996337891,4|0,0:0|0:0,0:0:0:0:
300,180,120696,1,0,0:0:0:0:
380,136,120849,1,8,0:0:0:0:
404,316,121155,2,0,P|468:312|504:264,2,119.999996337891,2|2|2,0:0|0:0|0:0,0:0:0:0:
380,136,122073,1,8,0:0:0:0:
236,244,122379,5,8,0:0:0:0:
404,316,122685,1,2,0:0:0:0:
380,136,122992,1,0,0:0:0:0:
300,92,123145,1,0,0:0:0:0:
212,88,123298,1,8,0:0:0:0:
121,243,123604,1,0,0:0:0:0:
296,280,123910,1,8,0:0:0:0:
452,191,124216,2,0,P|483:140|473:82,1,119.999996337891,2|2,0:0|0:0,0:0:0:0:
300,92,124828,5,0,0:0:0:0:
252,168,124981,1,8,0:0:0:0:
164,168,125134,2,0,P|100:160|52:112,1,119.999996337891,4|0,0:0|0:0,0:0:0:0:
220,40,125747,1,8,0:0:0:0:
388,108,126053,1,2,0:0:0:0:
372,196,126206,1,0,0:0:0:0:
304,256,126359,2,0,P|248:284|192:276,1,119.999996337891,2|0,0:0|0:0,0:0:0:0:
52,164,126971,1,8,0:0:0:0:
224,104,127277,5,0,0:0:0:0:
64,184,127583,1,2,0:0:0:0:
231,127,127890,1,0,0:0:0:0:
56,160,128196,1,8,0:0:0:0:
231,160,128502,1,0,0:0:0:0:
56,127,128808,2,0,P|36:72|56:16,2,119.999996337891,2|0|8,0:0|0:0|0:0,0:0:0:0:
256,232,129726,5,2,0:0:0:0:
344,244,129879,1,0,0:0:0:0:
428,212,130032,2,0,P|472:140|416:4,1,239.999992675781,4|8,0:0|0:0,0:0:0:0:
256,84,130951,1,0,0:0:0:0:
116,196,131257,1,0,0:0:0:0:
284,260,131563,1,2,0:0:0:0:
168,120,131869,1,8,0:0:0:0:
200,296,132175,1,2,0:0:0:0:
332,176,132481,6,0,P|384:156|448:168,1,119.999996337891,4|0,0:0|0:0,0:0:0:0:
504,236,132941,1,0,0:0:0:0:
484,324,133094,1,8,0:0:0:0:
312,372,133400,1,0,0:0:0:0:
152,292,133706,2,0,B|96:272|32:304|32:304|36:224,1,179.999994506836,4|0,0:0|0:0,0:0:0:0:
44,176,134318,2,0,L|4:144,2,39.9999987792969,0|0|0,3:0|3:0|3:0,0:0:0:0:
88,120,134624,2,0,L|72:84,2,39.9999987792969,0|0|0,3:0|3:0|3:0,0:0:0:0:
160,124,134930,1,4,0:0:0:0:
320,240,135237,5,2,0:0:0:0:
216,332,135543,1,8,0:0:0:0:
128,224,135849,1,0,0:0:0:0:
232,132,136155,1,2,0:0:0:0:
320,240,136461,1,2,0:0:0:0:
392,212,136614,1,0,0:0:0:0:
424,144,136767,1,8,0:0:0:0:
256,28,137073,5,2,0:0:0:0:
152,136,137379,1,2,0:0:0:0:
240,256,137685,1,2,0:0:0:0:
320,240,137839,1,0,0:0:0:0:
332,164,137992,1,8,0:0:0:0:
256,28,138298,1,8,0:0:0:0:
152,136,138604,2,0,P|96:140|44:104,2,100,2|4|8,0:0|0:0|0:0,0:0:0:0:
256,28,139522,5,0,0:0:0:0:
332,32,139675,1,0,0:0:0:0:
392,76,139828,1,4,0:0:0:0:
280,172,140134,1,0,0:0:0:0:
332,32,140441,1,8,0:0:0:0:
436,140,140747,2,0,P|448:184|432:240,1,100,2|2,0:0|0:0,0:0:0:0:
300,300,141359,1,8,0:0:0:0:
228,280,141512,1,0,0:0:0:0:
172,232,141665,2,0,L|168:168,1,50,0|0,3:0|3:0,0:0:0:0:
96,160,141971,2,0,L|99:209,1,50,0|0,3:0|3:0,0:0:0:0:
116,284,142277,1,4,0:0:0:0:
256,192,142430,12,0,143502,0:0:0:0:
256,192,143808,5,2,0:0:0:0:
148,296,144114,2,0,L|108:264,1,50,2|0,0:0|3:0,0:0:0:0:
159,209,144420,2,0,L|119:177,1,50,2|0,0:0|3:0,0:0:0:0:
160,116,144726,6,0,L|120:84,2,50,2|0|0,0:0|0:0|0:0,0:0:0:0:
216,164,145185,1,2,0:0:0:0:
292,172,145339,2,0,P|340:152|368:104,1,100,8|2,0:0|0:0,0:0:0:0:
432,148,145798,1,2,0:0:0:0:
448,220,145951,2,0,L|460:332,1,100,8|8,0:0|0:0,0:0:0:0:
404,368,146410,1,2,0:0:0:0:
328,364,146563,1,8,0:0:0:0:
248,236,146869,1,2,0:0:0:0:
336,116,147175,5,2,3:0:0:0:
444,220,147481,2,0,P|424:232|392:236,1,50,2|0,0:0|1:0,0:0:0:0:
328,208,147788,2,0,P|299:200|260:212,1,50,8|0,0:0|0:0,0:0:0:0:
212,236,148094,2,0,P|184:240|152:232,1,50,0|0,0:0|0:0,0:0:0:0:
112,180,148400,2,0,L|120:80,2,100,2|4|8,0:0|0:0|0:0,0:0:0:0:
80,248,149165,1,0,0:0:0:0:
100,320,149318,1,2,0:0:0:0:
264,364,149624,6,0,P|304:336|320:280,1,100,4|0,0:0|0:0,0:0:0:0:
176,240,150237,2,0,L|116:252,2,50,8|0|2,0:0|0:0|0:0,0:0:0:0:
264,116,150849,2,0,P|312:108|368:116,1,100,8|0,0:0|0:0,0:0:0:0:
424,156,151308,1,2,0:0:0:0:
472,212,151461,1,8,0:0:0:0:
384,332,151767,1,0,0:0:0:0:
240,296,152073,6,0,P|196:268|180:220,1,100,2|0,0:0|0:0,0:0:0:0:
184,148,152532,1,2,0:0:0:0:
244,96,152685,1,8,0:0:0:0:
360,192,152992,2,0,P|412:200|456:184,1,100,4|8,0:0|0:0,0:0:0:0:
444,36,153604,2,0,P|395:27|348:43,2,100,2|0|0,0:0|0:0|0:0,0:0:0:0:
484,100,154369,1,8,0:0:0:0:
480,176,154522,1,4,0:0:0:0:
368,304,154828,5,2,0:0:0:0:
220,328,155134,2,0,P|168:328|120:304,2,100,2|0|8,0:0|0:0|0:0,0:0:0:0:
272,188,156053,2,0,L|260:132,2,50,0|0|8,0:0|0:0|0:0,0:0:0:0:
368,304,156665,1,2,0:0:0:0:
220,328,156971,5,2,0:0:0:0:
148,312,157124,1,0,0:0:0:0:
92,260,157277,1,0,0:0:0:0:
80,184,157430,1,0,0:0:0:0:
120,120,157583,2,0,L|134:90,5,33.3333333333333,8|0|0|0|0|0,0:0|0:0|0:0|0:0|0:0|0:0,0:0:0:0:
120,120,158196,6,0,P|160:148|216:152,1,100,4|2,0:0|0:0,0:0:0:0:
272,112,158655,1,0,0:0:0:0:
340,76,158808,1,8,0:0:0:0:
416,88,158961,1,0,0:0:0:0:
472,136,159114,1,2,0:0:0:0:
480,212,159267,1,0,0:0:0:0:
444,276,159420,6,0,P|392:296|336:280,1,100,4|0,0:0|0:0,0:0:0:0:
256,172,160032,2,0,P|207:164|161:183,2,100,8|0|0,0:0|0:0|0:0,0:0:0:0:
364,276,160951,1,2,0:0:0:0:
464,164,161257,2,0,L|488:56,1,100,8|0,0:0|0:0,0:0:0:0:
432,16,161716,1,2,0:0:0:0:
360,36,161869,1,4,0:0:0:0:
152,116,162175,5,2,0:0:0:0:
152,266,162481,1,8,0:0:0:0:
295,313,162788,1,4,0:0:0:0:
383,192,163094,1,4,0:0:0:0:
295,70,163400,1,4,0:0:0:0:
220,60,163553,1,0,0:0:0:0:
156,96,163706,1,0,0:0:0:0:
220,136,163859,1,0,0:0:0:0:
220,60,164012,1,0,0:0:0:0:
156,96,164165,1,0,0:0:0:0:
136,168,164318,6,0,P|156:232|292:272,1,200,4|8,0:0|0:0,0:0:0:0:
468,192,165237,1,2,0:0:0:0:
500,260,165390,1,0,0:0:0:0:
468,328,165543,2,0,P|416:340|364:320,1,100,8|0,0:0|0:0,0:0:0:0:
256,192,166155,2,0,P|308:180|360:200,1,100,8|0,0:0|0:0,0:0:0:0:
244,336,166767,6,0,P|192:348|140:328,1,100,2|0,0:0|0:0,0:0:0:0:
72,212,167379,2,0,L|36:92,1,100,8|0,0:0|0:0,0:0:0:0:
152,24,167992,2,0,L|180:119,1,100,2|0,0:0|0:0,0:0:0:0:
232,260,168604,1,8,0:0:0:0:
372,316,168910,1,2,0:0:0:0:
492,224,169216,6,0,P|512:176|504:128,1,100,4|0,0:0|0:0,0:0:0:0:
400,20,169828,1,8,0:0:0:0:
328,152,170134,1,0,0:0:0:0:
256,180,170288,1,0,0:0:0:0:
180,180,170441,2,0,P|128:164|96:120,1,100,2|0,0:0|0:0,0:0:0:0:
256,180,171053,2,0,L|272:292,1,100,8|0,0:0|0:0,0:0:0:0:
428,344,171665,6,0,L|413:245,1,100,4|0,0:0|0:0,0:0:0:0:
384,100,172277,1,8,0:0:0:0:
256,180,172583,1,8,0:0:0:0:
140,84,172890,1,8,0:0:0:0:
148,160,173043,1,4,0:0:0:0:
208,116,173196,1,2,0:0:0:0:
332,28,173502,2,0,P|380:12|440:32,1,100,8|0,0:0|0:0,0:0:0:0:
460,92,173961,1,0,0:0:0:0:
436,164,174114,6,0,P|388:180|328:160,2,100,4|0|8,0:0|0:0|0:0,0:0:0:0:
300,100,175032,1,0,0:0:0:0:
260,164,175185,1,0,0:0:0:0:
288,232,175339,1,2,0:0:0:0:
412,316,175645,1,0,0:0:0:0:
288,232,175951,2,0,P|236:240|200:272,1,100,8|0,0:0|0:0,0:0:0:0:
164,336,176410,1,8,0:0:0:0:
96,364,176563,6,0,P|60:336|44:284,1,100,4|0,0:0|0:0,0:0:0:0:
108,148,177175,2,0,P|144:176|160:228,1,100,8|0,0:0|0:0,0:0:0:0:
40,100,177788,2,0,P|76:72|130:70,1,100,4|0,0:0|0:0,0:0:0:0:
156,88,178196,1,0,0:0:0:0:
182,108,178298,1,0,0:0:0:0:
212,121,178400,1,0,0:0:0:0:
245,127,178502,1,0,0:0:0:0:
278,126,178604,1,0,0:0:0:0:
310,117,178706,1,0,0:0:0:0:
340,101,178808,1,0,0:0:0:0:
364,79,178910,1,0,0:0:0:0:
380,48,179012,6,0,P|432:40|488:60,1,100,4|0,0:0|0:0,0:0:0:0:
504,200,179624,1,8,0:0:0:0:
376,280,179930,1,0,0:0:0:0:
304,260,180083,1,0,0:0:0:0:
356,204,180237,1,2,0:0:0:0:
312,348,180543,1,0,0:0:0:0:
208,240,180849,1,8,0:0:0:0:
356,204,181155,1,0,0:0:0:0:
312,348,181461,6,0,P|360:356|416:336,2,100,4|8|8,0:0|0:0|0:0,0:0:0:0:
208,240,182379,1,8,0:0:0:0:
132,108,182685,2,0,P|80:120|44:160,1,100,4|0,0:0|0:0,0:0:0:0:
68,300,183298,1,8,0:0:0:0:
124,352,183451,1,8,0:0:0:0:
200,360,183604,1,8,0:0:0:0:
272,344,183757,1,8,0:0:0:0:
328,296,183910,6,0,P|368:232|352:140,1,160,4|0,0:0|0:0,0:0:0:0:
260,44,184828,1,0,0:0:0:0:
192,68,184981,1,0,0:0:0:0:
244,120,185134,2,0,P|316:100|332:16,1,160,2|8,0:0|0:0,0:0:0:0:
192,68,186053,5,0,0:0:0:0:
72,148,186359,1,8,0:0:0:0:
200,212,186665,1,0,0:0:0:0:
192,68,186971,1,8,0:0:0:0:
72,148,187277,1,0,0:0:0:0:
200,212,187583,2,0,P|240:220|296:208,2,80,2|8|8,0:0|0:0|0:0,0:0:0:0:
72,148,188502,5,0,0:0:0:0:
92,80,188655,1,0,0:0:0:0:
144,128,188808,1,8,0:0:0:0:
152,272,189114,1,0,0:0:0:0:
216,144,189420,1,8,0:0:0:0:
72,148,189726,1,0,0:0:0:0:
56,220,189879,1,0,0:0:0:0:
124,200,190032,1,2,0:0:0:0:
160,60,190339,1,0,0:0:0:0:
304,48,190645,1,8,0:0:0:0:
424,124,190951,1,0,0:0:0:0:
452,264,191257,6,0,P|400:324|320:328,1,160,4|8,0:0|0:0,0:0:0:0:
220,228,192175,1,0,0:0:0:0:
165,176,192328,1,0,0:0:0:0:
92,164,192481,1,8,0:0:0:0:
100,308,192788,1,2,0:0:0:0:
220,228,193094,1,10,3:0:0:0:
216,84,193400,5,0,0:0:0:0:
152,116,193553,1,0,0:0:0:0:
212,156,193706,2,0,P|264:136|260:28,1,160,2|8,0:0|0:0,0:0:0:0:
152,116,194624,1,2,0:0:0:0:
148,188,194777,1,2,0:0:0:0:
208,228,194930,2,0,P|280:216|344:152,1,160,2|2,0:0|0:0,0:0:0:0:
340,12,195849,5,0,0:0:0:0:
212,76,196155,1,8,0:0:0:0:
272,208,196461,1,0,0:0:0:0:
400,144,196767,1,8,0:0:0:0:
340,12,197073,2,0,B|277:-1|260:20|226:47|179:12,1,160,4|0,0:0|0:0,0:0:0:0:
68,32,197992,1,8,0:0:0:0:
0,60,198145,1,8,0:0:0:0:
60,104,198298,1,8,0:0:0:0:
196,132,198604,5,4,0:0:0:0:
340,120,198910,1,2,0:0:0:0:
256,4,199216,1,2,0:0:0:0:
196,132,199522,1,0,0:0:0:0:
228,196,199675,1,0,0:0:0:0:
284,240,199828,2,0,P|320:248|380:236,2,80,2|0|8,0:0|0:0|0:0,0:0:0:0:
196,132,200747,5,8,0:0:0:0:
116,12,201053,1,4,0:0:0:0:
260,4,201359,1,0,0:0:0:0:
196,132,201665,2,0,L|164:156,1,40,8|0,0:0|0:0,0:0:0:0:
212,208,201971,2,0,L|196:248,1,40,0|0,0:0|0:0,0:0:0:0:
268,260,202277,2,0,L|296:340,2,80,2|8|8,0:0|0:0|0:0,0:0:0:0:
312,124,203196,1,8,0:0:0:0:
368,168,203349,1,8,0:0:0:0:
304,196,203502,1,4,0:0:0:0:
256,192,203655,12,4,205951,0:0:0:0:
79,149,207175,6,0,L|40:180,1,50,8|0,0:0|0:0,0:0:0:0:
144,192,207481,2,0,L|183:161,1,50,0|0,0:0|0:0,0:0:0:0:
287,169,207788,2,0,L|248:200,1,50,8|0,0:0|0:0,0:0:0:0:
348,216,208094,2,0,L|400:176,1,50,0|0,0:0|0:0,0:0:0:0:
444,128,208400,5,4,0:0:0:0:
284,48,208706,1,0,0:0:0:0:
232,216,209012,1,8,0:0:0:0:
364,92,209318,2,0,B|284:0|153:41|152:91|152:91|152:128|208:155|244:98|190:59,1,359.999989013672,2|8,0:0|0:0,0:0:0:0:
32,80,210543,5,0,0:0:0:0:
12,260,210849,1,2,0:0:0:0:
172,176,211155,2,0,P|224:160|288:176,1,119.999996337891,0|8,0:0|0:0,0:0:0:0:
400,332,211767,2,0,P|348:348|284:332,1,119.999996337891,2|8,0:0|0:0,0:0:0:0:
172,192,212379,1,8,0:0:0:0:
336,120,212685,1,8,0:0:0:0:
448,260,212992,1,8,0:0:0:0:
284,332,213298,6,0,P|256:348|222:351,2,59.9999981689454,4|0|0,0:0|0:0|0:0,0:0:0:0:
356,280,213757,1,0,0:0:0:0:
360,192,213910,1,8,0:0:0:0:
300,24,214216,2,0,P|356:4|412:20,1,119.999996337891,2|0,0:0|0:0,0:0:0:0:
360,192,214828,2,0,P|304:212|248:196,1,119.999996337891,2|10,0:0|0:0,0:0:0:0:
124,64,215441,5,0,0:0:0:0:
300,24,215747,1,2,0:0:0:0:
360,192,216053,2,0,L|388:264,2,59.9999981689454,0|0|8,0:0|0:0|0:0,0:0:0:0:
300,24,216665,1,0,0:0:0:0:
180,160,216971,2,0,P|120:180|64:160,2,119.999996337891,0|2|10,0:0|0:0|0:0,0:0:0:0:
300,24,217890,5,2,0:0:0:0:
377,63,218043,1,8,0:0:0:0:
412,144,218196,2,0,B|344:208|256:124|180:160,1,239.999992675781,4|8,0:0|0:0,0:0:0:0:
52,296,219114,5,0,0:0:0:0:
128,340,219267,1,0,0:0:0:0:
216,360,219420,2,0,P|272:356|316:300,2,119.999996337891,2|2|8,0:0|0:0|0:0,0:0:0:0:
52,296,220338,5,0,0:0:0:0:
120,128,220645,2,0,P|176:116|240:132,1,119.999996337891,2|0,0:0|0:0,0:0:0:0:
372,248,221257,1,8,0:0:0:0:
200,300,221563,1,2,0:0:0:0:
120,260,221716,1,0,0:0:0:0:
76,180,221869,2,0,L|60:56,1,119.999996337891,2|0,0:0|0:0,0:0:0:0:
224,136,222481,1,8,0:0:0:0:
376,40,222787,5,0,0:0:0:0:
444,96,222941,1,0,0:0:0:0:
456,184,223094,2,0,P|384:264|316:176,1,239.999992675781,4|8,0:0|0:0,0:0:0:0:
376,40,224012,5,2,0:0:0:0:
196,64,224318,1,2,0:0:0:0:
376,56,224624,1,2,0:0:0:0:
196,80,224930,1,8,0:0:0:0:
376,72,225236,1,0,0:0:0:0:
196,100,225543,6,0,B|120:108|88:64|88:64|60:184,1,239.999992675781,2|8,0:0|0:0,0:0:0:0:
24,356,226461,1,8,0:0:0:0:
116,356,226614,2,0,P|148:344|176:320,1,59.9999981689454,4|0,0:0|0:0,0:0:0:0:
256,144,227073,6,0,L|284:196,1,59.9999981689454,0|0,3:0|3:0,0:0:0:0:
376,200,227379,2,0,L|348:148,1,59.9999981689454,8|0,0:0|3:0,0:0:0:0:
400,72,227685,2,0,L|428:124,1,59.9999981689454,2|0,0:0|3:0,0:0:0:0:
468,208,227992,5,4,0:0:0:0:
384,368,228298,1,0,0:0:0:0:
284,216,228604,1,8,0:0:0:0:
468,208,228910,1,2,0:0:0:0:
432,128,229063,1,0,0:0:0:0:
352,88,229216,1,0,0:0:0:0:
264,84,229369,1,0,0:0:0:0:
184,124,229522,2,0,P|130:113|88:60,1,119.999996337891,2|8,0:0|0:0,0:0:0:0:
264,84,230134,5,0,0:0:0:0:
368,232,230441,1,2,0:0:0:0:
188,252,230747,2,0,P|124:256|72:224,1,119.999996337891,2|8,0:0|0:0,0:0:0:0:
12,60,231359,2,0,P|76:56|128:88,1,119.999996337891,2|2,0:0|0:0,0:0:0:0:
188,252,231971,1,8,0:0:0:0:
304,116,232277,1,8,0:0:0:0:
124,84,232583,1,8,0:0:0:0:
188,252,232890,6,0,P|248:248|284:200,1,119.999996337891,4|0,0:0|0:0,0:0:0:0:
304,116,233349,1,0,0:0:0:0:
256,40,233502,1,8,0:0:0:0:
140,180,233808,2,0,P|76:176|40:128,2,119.999996337891,2|2|2,0:0|0:0|0:0,0:0:0:0:
256,40,234726,1,8,0:0:0:0:
384,164,235032,5,8,0:0:0:0:
212,216,235338,1,2,0:0:0:0:
256,40,235645,1,0,0:0:0:0:
344,20,235798,1,0,0:0:0:0:
404,88,235951,1,8,0:0:0:0:
352,260,236257,1,8,0:0:0:0:
228,124,236563,1,0,0:0:0:0:
404,88,236869,2,0,P|460:96|500:160,1,119.999996337891,2|2,0:0|0:0,0:0:0:0:
352,260,237481,5,0,0:0:0:0:
268,296,237634,1,8,0:0:0:0:
180,280,237787,2,0,P|124:256|96:200,1,119.999996337891,4|0,0:0|0:0,0:0:0:0:
100,24,238400,1,8,0:0:0:0:
228,148,238706,1,2,0:0:0:0:
316,124,238859,1,0,0:0:0:0:
368,48,239012,2,0,P|429:60|468:101,1,119.999996337891,2|0,0:0|0:0,0:0:0:0:
480,280,239624,1,8,0:0:0:0:
303,337,239930,5,0,0:0:0:0:
132,281,240237,1,2,0:0:0:0:
132,101,240543,1,0,0:0:0:0:
303,46,240849,1,8,0:0:0:0:
409,192,241155,1,0,0:0:0:0:
366,271,241308,1,0,0:0:0:0:
304,336,241461,2,0,P|244:352|184:328,2,119.999996337891,2|0|8,0:0|0:0|0:0,0:0:0:0:
408,192,242379,5,2,0:0:0:0:
320,168,242532,1,0,0:0:0:0:
352,252,242685,2,0,P|452:260|472:140,1,239.999992675781,4|12,0:0|0:0,0:0:0:0:
328,40,243604,1,0,0:0:0:0:
156,92,243910,1,0,0:0:0:0:
176,272,244216,1,2,0:0:0:0:
320,168,244522,1,8,0:0:0:0:
156,92,244828,1,2,0:0:0:0:
176,272,245134,6,0,P|232:280|284:240,1,119.999996337891,4|0,0:0|0:0,0:0:0:0:
320,168,245594,1,0,0:0:0:0:
276,88,245747,1,8,0:0:0:0:
124,180,246053,1,0,0:0:0:0:
320,168,246359,1,4,0:0:0:0:
156,92,246665,1,8,0:0:0:0:
213,23,246818,1,8,0:0:0:0:
276,88,246971,1,8,0:0:0:0:
256,360,247583,6,0,P|204:364|144:332,1,110.000003356934,4|0,0:0|0:0,0:0:0:0:
96,280,248043,1,0,0:0:0:0:
76,200,248196,1,12,0:0:0:0:
84,120,248349,1,0,0:0:0:0:
116,44,248502,2,0,P|164:20|232:24,2,110.000003356934,2|0|0,0:0|0:0|0:0,0:0:0:0:
76,200,249420,1,8,0:0:0:0:
236,248,249726,5,0,0:0:0:0:
200,88,250032,1,2,0:0:0:0:
76,200,250339,2,0,L|16:212,2,55.0000016784668,0|0|8,0:0|0:0|0:0,0:0:0:0:
236,164,250951,1,0,0:0:0:0:
396,116,251257,1,2,0:0:0:0:
296,244,251563,5,8,0:0:0:0:
292,80,251869,1,8,0:0:0:0:
392,212,252175,1,2,0:0:0:0:
236,164,252481,2,0,P|180:176|144:216,1,110.000003356934,4|0,0:0|0:0,0:0:0:0:
136,296,252941,1,0,0:0:0:0:
188,360,253094,1,8,0:0:0:0:
352,372,253400,2,0,P|408:344|412:200,1,220.000006713867,2|2,0:0|0:0,0:0:0:0:
284,100,254318,1,8,0:0:0:0:
176,224,254624,5,0,0:0:0:0:
336,260,254930,1,2,0:0:0:0:
284,100,255237,1,0,0:0:0:0:
220,152,255390,1,0,0:0:0:0:
296,180,255543,1,8,0:0:0:0:
192,52,255849,1,2,0:0:0:0:
344,236,256155,2,0,L|424:324,2,110.000003356934,2|2|8,0:0|0:0|0:0,0:0:0:0:
192,52,257073,5,2,0:0:0:0:
128,104,257226,1,8,0:0:0:0:
64,156,257379,2,0,B|126:237|192:132|272:204,1,220.000006713867,4|8,0:0|0:0,0:0:0:0:
328,356,258298,1,2,0:0:0:0:
365,281,258451,1,0,0:0:0:0:
412,212,258604,2,0,P|436:172|488:136,2,110.000003356934,2|8|8,0:0|0:0|0:0,0:0:0:0:
328,356,259522,5,0,0:0:0:0:
248,376,259675,1,0,0:0:0:0:
172,340,259828,1,2,0:0:0:0:
80,200,260134,2,0,L|48:132,1,55.0000016784668
140,140,260441,2,0,L|184:36,1,110.000003356934,8|0,0:0|0:0,0:0:0:0:
256,76,260900,1,0,0:0:0:0:
329,38,261053,2,0,L|372:140,2,110.000003356934,2|8|8,0:0|0:0|0:0,0:0:0:0:
252,184,261971,5,0,0:0:0:0:
190,239,262124,1,0,0:0:0:0:
163,315,262277,2,0,P|258:366|348:315,1,220.000006713867,4|8,0:0|0:0,0:0:0:0:
328,124,263196,1,0,0:0:0:0:
168,156,263502,1,2,0:0:0:0:
296,52,263808,1,0,0:0:0:0:
232,204,264114,1,8,0:0:0:0:
220,40,264420,1,0,0:0:0:0:
304,196,264726,6,0,P|352:196|400:152,2,110.000003356934,4|8|8,0:0|0:0|0:0,0:0:0:0:
160,80,265645,1,8,0:0:0:0:
152,244,265951,2,0,P|136:304|36:308,1,165.000005035401,4|0,0:0|0:0,0:0:0:0:
84,256,266563,2,0,L|41:230,2,36.6666677856446,0|0|0,3:0|3:0|3:0,0:0:0:0:
104,184,266869,2,0,L|64:160,2,36.6666677856446,0|0|0,3:0|3:0|3:0,0:0:0:0:
176,176,267175,1,4,0:0:0:0:
376,240,267481,5,2,0:0:0:0:
212,268,267788,1,8,0:0:0:0:
340,164,268094,1,0,0:0:0:0:
308,324,268400,1,8,0:0:0:0:
232,176,268706,1,0,0:0:0:0:
164,132,268859,1,0,0:0:0:0:
80,136,269012,1,8,0:0:0:0:
8,284,269318,5,4,0:0:0:0:
164,336,269624,1,2,0:0:0:0:
130,172,269930,1,0,0:0:0:0:
80,328,270237,1,8,0:0:0:0:
242,299,270543,1,0,0:0:0:0:
130,171,270849,2,0,P|175:140|240:150,1,110.000003356934,2|0,0:0|0:0,0:0:0:0:
382,213,271461,2,0,P|337:244|272:234,1,110.000003356934,8|0,0:0|0:0,0:0:0:0:
130,171,272073,1,4,0:0:0:0:
36,36,272379,5,0,0:0:0:0:
116,180,272685,1,8,0:0:0:0:
52,28,272992,1,0,0:0:0:0:
132,12,273145,1,0,0:0:0:0:
208,48,273298,1,8,0:0:0:0:
256,204,273604,1,8,0:0:0:0:
336,348,273910,1,8,0:0:0:0:
400,124,274216,5,2,0:0:0:0:
480,268,274522,1,0,0:0:0:0:
256,204,274828,2,0,P|224:216|196:212,1,55.0000016784668
132,172,275134,1,8,0:0:0:0:
80,16,275441,1,0,0:0:0:0:
160,32,275594,1,0,0:0:0:0:
228,80,275747,2,0,P|256:124|256:188,1,110.000003356934,2|8,0:0|0:0,0:0:0:0:
216,340,276359,2,0,P|188:296|188:232,1,110.000003356934,2|2,0:0|0:0,0:0:0:0:
228,80,276971,1,4,0:0:0:0:
384,28,277277,5,0,0:0:0:0:
352,188,277583,1,8,0:0:0:0:
228,80,277890,2,0,L|160:64,2,55.0000016784668,0|0|2,0:0|0:0|0:0,0:0:0:0:
388,112,278502,1,8,0:0:0:0:
384,276,278808,1,8,0:0:0:0:
244,192,279114,1,8,0:0:0:0:
388,112,279420,5,4,0:0:0:0:
304,252,279726,2,0,L|272:304,2,55.0000016784668,2|0|8,0:0|0:0|0:0,0:0:0:0:
388,112,280339,1,0,0:0:0:0:
244,28,280645,2,0,P|188:16|128:32,2,110.000003356934,2|8|8,0:0|0:0|0:0,0:0:0:0:
388,112,281563,5,0,3:0:0:0:
444,172,281716,1,0,3:0:0:0:
364,192,281869,1,4,0:0:0:0:
480,76,282175,1,0,0:0:0:0:
364,192,282481,1,2,0:0:0:0:
480,76,282788,2,0,L|512:32,2,55.0000016784668,0|0|2,0:0|0:0|0:0,0:0:0:0:
364,192,283400,1,0,0:0:0:0:
200,188,283706,1,2,0:0:0:0:
100,56,284012,1,0,0:0:0:0:
264,48,284318,1,4,0:0:0:0:
256,192,284471,12,8,286155,0:0:0:0:
220,60,286461,5,8,0:0:0:0:
156,96,286614,1,8,0:0:0:0:
108,156,286767,2,0,B|158:224|243:121|304:176,1,200,4|8,0:0|0:0,0:0:0:0:
428,240,287686,1,2,0:0:0:0:
448,312,287839,1,0,0:0:0:0:
384,352,287992,2,0,P|332:364|280:344,1,100,2|8,0:0|0:0,0:0:0:0:
256,192,288604,1,8,0:0:0:0:
204,40,288910,5,4,0:0:0:0:
132,64,289063,1,0,0:0:0:0:
84,124,289216,2,0,P|72:172|92:216,1,100,2|0,0:0|0:0,0:0:0:0:
240,240,289828,2,0,P|252:192|232:148,1,100,8|0,0:0|0:0,0:0:0:0:
199,303,290441,2,0,P|247:315|291:295,1,100,2|4,0:0|0:0,0:0:0:0:
340,156,291053,1,8,0:0:0:0:
256,32,291359,5,2,0:0:0:0:
212,92,291512,1,0,0:0:0:0:
288,100,291665,2,0,P|324:64|324:4,1,100,4|0,0:0|0:0,0:0:0:0:
180,24,292277,1,8,0:0:0:0:
68,124,292583,1,0,0:0:0:0:
72,200,292737,1,0,0:0:0:0:
124,256,292890,2,0,L|232:232,1,100,2|0,0:0|0:0,0:0:0:0:
368,196,293502,1,8,0:0:0:0:
508,248,293808,5,4,0:0:0:0:
504,324,293962,1,0,0:0:0:0:
452,380,294114,2,0,L|344:356,1,100,2|0,0:0|0:0,0:0:0:0:
208,324,294726,1,8,0:0:0:0:
80,248,295032,1,4,0:0:0:0:
208,168,295339,1,2,0:0:0:0:
208,324,295645,1,0,0:0:0:0:
280,344,295798,1,0,0:0:0:0:
356,332,295951,1,0,0:0:0:0:
412,284,296104,1,0,0:0:0:0:
432,212,296257,1,0,0:0:0:0:
416,140,296410,1,0,0:0:0:0:
376,76,296563,6,0,B|308:40|240:108|176:68,1,200,4|8,0:0|0:0,0:0:0:0:
40,16,297481,1,4,0:0:0:0:
12,84,297634,1,0,0:0:0:0:
12,160,297788,2,0,P|20:212|68:252,1,100,2|0,0:0|0:0,0:0:0:0:
196,288,298400,1,8,0:0:0:0:
340,244,298706,5,4,0:0:0:0:
368,176,298859,1,0,0:0:0:0:
292,184,299013,2,0,P|244:180|216:140,1,100,2|0,0:0|0:0,0:0:0:0:
128,20,299624,2,0,L|112:132,1,100,8|4,0:0|0:0,0:0:0:0:
196,288,300237,2,0,L|212:176,1,100,4|0,0:0|0:0,0:0:0:0:
220,156,300645,1,0,0:0:0:0:
237,127,300747,1,0,0:0:0:0:
262,105,300849,1,0,0:0:0:0:
292,92,300951,1,0,0:0:0:0:
325,87,301053,1,0,0:0:0:0:
358,93,301155,1,0,0:0:0:0:
388,107,301257,1,0,0:0:0:0:
412,130,301359,1,0,0:0:0:0:
429,158,301461,6,0,P|432:204|484:256,2,100,4|8|8,0:0|0:0|0:0,0:0:0:0:
444,8,302379,1,0,0:0:0:0:
332,108,302685,2,0,P|284:116|232:100,1,100,8|0,0:0|0:0,0:0:0:0:
116,8,303298,1,8,0:0:0:0:
64,64,303451,1,8,0:0:0:0:
72,140,303604,1,8,0:0:0:0:
212,196,303910,5,4,0:0:0:0:
256,192,304063,12,2,306359,0:0:0:0:
