osu file format v9

[General]
AudioFilename: Tropiccal Summer.mp3
AudioLeadIn: 0
PreviewTime: 58107
Countdown: 0
SampleSet: Normal
StackLeniency: 0.7
Mode: 0
LetterboxInBreaks: 1

[Editor]
DistanceSpacing: 1
BeatDivisor: 4
GridSize: 4

[Metadata]
Title:Tropical Summer
Artist:Hanatan
Creator:Star Stream
Version:Hard
Source:
Tags:C80 yurika Summer*Syrup gumi vocaloid Dios

[Difficulty]
HPDrainRate:5
CircleSize:4
OverallDifficulty:5
ApproachRate:8
SliderMultiplier:1.8
SliderTickRate:1

[Events]
//Background and Video events
0,0,"Back Ground.jpg"
//Break Periods
2,97908,107939
//Storyboard Layer 0 (Background)
//Storyboard Layer 1 (Fail)
//Storyboard Layer 2 (Pass)
//Storyboard Layer 3 (Foreground)
//Storyboard Sound Samples
//Background Colour Transformations
3,100,163,162,255

[TimingPoints]
8297,392.156862745098,4,1,1,55,1,0
58493,-76.9230769230769,4,1,1,65,0,1
70649,-76.9230769230769,4,1,1,65,0,0
71042,-76.9230769230769,4,1,1,65,0,1
83591,-100,4,1,1,55,0,0
97708,-100,4,2,1,20,0,0
108689,-100,4,1,2,55,0,0
146336,-76.9230769230769,4,1,2,65,0,1
158493,-76.9230769230769,4,1,2,65,0,0
158885,-76.9230769230769,4,1,2,65,0,1
171434,-100,4,1,2,55,0,0

[Colours]
Combo1 : 238,221,17
Combo2 : 242,140,2
Combo3 : 128,128,255

[HitObjects]
424,200,20846,2,0,B|330:176|290:88,1,180,4|8
376,56,21434,2,0,B|360:152|240:208,1,180,0|0
192,144,22022,1,8
104,160,22218,1,0
32,104,22414,1,0
32,104,22610,2,0,B|32:216,1,90,0|8
32,280,23002,2,0,B|96:200|196:192,1,180
184,193,23591,1,8
308,324,23983,6,0,B|328:220|432:164,1,180,0|8
420,268,24571,2,0,B|324:268|276:148,1,180
284,76,25159,2,0,B|284:180,1,90,8|0
220,228,25551,1,0
220,228,25747,2,0,B|144:172,1,90,0|8
72,128,26140,1,0
72,128,26532,2,0,B|40:224,2,90,0|8|0
152,84,27120,6,0,B|264:112|328:36,1,180,0|8
232,20,27708,2,0,B|264:120|364:156,1,180
408,80,28297,1,8
480,136,28493,1,0
408,192,28689,2,0,B|444:232|492:232,2,90,0|0|8
324,160,29277,2,0,B|248:96|148:108,1,180
157,107,29865,1,8
40,244,30257,6,0,B|144:252|208:344,1,180,0|8
104,336,30846,2,0,B|128:240|232:200,1,180
218,205,31434,1,8
218,205,31630,1,0
292,156,31826,2,0,B|352:208|352:208,2,45
220,104,32218,1,8
296,52,32414,2,0,B|356:0|356:0,2,45
220,104,32806,1,0
140,60,33002,2,0,B|100:24|44:40,1,90,8|0
80,128,33395,6,0,B|28:208|68:312,1,180,4|8
112,376,33983,2,0,B|164:296|124:192,1,180
128,203,34571,1,8
292,132,34963,1,0
292,132,35159,2,0,B|196:120,1,90,0|8
112,112,35551,1,0
112,112,35944,2,0,B|200:120,1,90,0|8
300,272,36532,6,0,B|370:313|421:222|349:179,1,180,0|8
260,180,37120,2,0,B|189:138|240:47|310:88,1,180,0|0
364,16,37708,1,8
452,32,37904,1,0
396,104,38100,2,0,B|440:128|452:176,2,90,0|0|8
364,188,38689,2,0,B|364:368,1,180
364,368,39277,1,8
204,288,39669,6,0,B|232:196|308:144,1,180,0|8
228,100,40257,2,0,B|200:192|124:244,1,180
124,243,40846,1,8
40,84,41238,1,0
40,84,41434,2,0,B|124:128,1,90,0|8
160,208,41826,1,0
248,192,42022,2,0,B|164:148,2,90,0|0|8
368,56,42806,6,0,B|404:160|472:208,1,180,0|8
380,176,43395,2,0,B|344:280|276:328,1,180
196,292,43983,1,8
124,344,44179,1,0
40,316,44375,2,0,B|40:220,1,90,4|0
128,248,44767,2,0,B|128:152,1,90,8|0
212,192,45159,2,0,B|212:104,2,90,12|0|8
276,24,45944,6,0,B|276:136,1,90,6|0
340,176,46336,2,0,B|340:84,1,90,8|0
404,148,46728,2,0,B|404:256,2,90,2|0|10
308,300,47512,5,6
308,300,47708,2,0,B|288:240|228:232,2,90,0|10|0
236,352,48297,1,2
172,288,48493,1,0
248,236,48689,1,10
108,120,49081,6,0,B|32:188,1,90,6|0
52,268,49473,2,0,B|128:200,1,90,10|0
204,236,49865,1,2
264,168,50061,1,0
192,116,50257,1,10
240,40,50453,1,0
308,100,50649,6,2,B|380:156,1,90,6|0
464,184,51042,2,2,B|392:240,1,90,10|0
312,200,51434,2,2,B|304:308|412:352,1,180,6|10
232,272,52218,6,0,B|232:160,1,90,6|0
168,120,52610,2,0,B|168:212,1,90,8|0
104,148,53002,2,0,B|104:40,2,90,2|0|10
172,316,53787,5,6
172,316,53983,2,0,B|216:288|228:240,2,90,0|10|0
84,300,54571,1,2
144,232,54767,1,0
164,144,54963,1,10
328,68,55355,6,2,B|380:152,1,90,6|0
376,236,55747,2,2,B|324:320,1,90,10|0
240,312,56140,2,2,B|188:228,1,90,2|0
192,144,56532,2,2,B|239:67,1,90,10|0
256,192,56924,12,4,58100
416,128,58493,6,0,B|312:52|172:48,1,233.999995815754,4|8
248,144,59081,2,0,B|144:68|4:64,1,233.999995815754
88,152,59669,1,8
48,248,59865,1,0
152,252,60061,2,0,B|200:288|224:360,2,116.999997907877,4|0|8
112,156,60649,2,0,B|224:128|224:128|272:16,1,233.999995815754
372,52,61238,1,8
424,144,61434,1,0
320,132,61630,6,0,B|268:80|188:80,2,116.999997907877,4|0|8
352,232,62218,2,0,B|300:233|248:181,2,116.999997907877
452,196,62806,1,8
452,92,63002,2,0,B|452:332,1,233.999995815754
352,292,63591,1,8
268,352,63787,1,0
176,304,63983,1,0
176,304,64081,1,0
176,304,64179,2,8,B|228:268|236:208,2,116.999997907877,0|8|0
412,96,64767,6,0,B|348:136|348:136|288:48|196:132,1,233.999995815754,4|8
112,92,65355,2,0,B|39:153|136:269|210:207,1,233.999995815754
308,168,65944,1,8
408,204,66140,1,0
412,308,66336,2,0,B|304:244,1,116.999997907877,4|0
152,280,66728,2,0,B|260:216,1,116.999997907877,8|0
412,176,67120,2,0,B|300:144,1,116.999997907877
136,124,67512,2,0,B|248:92,1,116.999997907877,8|0
400,28,67904,6,0,B|480:116|468:256,1,233.999995815754,4|8
404,328,68493,2,0,B|324:240|336:100,1,233.999995815754
335,111,69081,1,8
335,111,69277,1,0
264,32,69473,2,0,B|144:32,2,116.999997907877,4|0|8
336,112,70061,2,0,B|104:112,1,233.999995815754
20,112,70649,1,8
116,244,71042,6,0,B|48:280|80:344|140:312|140:312|232:312,1,233.999995815754,4|8
336,312,71630,2,0,B|404:276|372:212|312:244|312:244|212:244,1,233.999995815754
180,148,72218,1,8
76,140,72414,2,0,B|76:52|200:12|256:76,1,233.999995815754
280,172,73002,1,8
384,152,73198,1,0
404,48,73395,1,0
404,48,73493,1,0
404,48,73591,2,0,B|432:112|492:112,1,116.999997907877,0|8
444,260,74179,6,0,B|420:128|308:80,1,233.999995815754,4|8
328,188,74767,2,0,B|304:56|192:8,1,233.999995815754
188,112,75355,1,8
112,40,75551,1,0
156,248,75944,2,0,B|64:176,2,116.999997907877,0|8|0
260,248,76532,2,0,B|356:172,2,116.999997907877,0|0|8
92,304,77316,6,0,B|324:304,1,233.999995815754,4|8
384,216,77904,2,0,B|152:216,1,233.999995815754
48,236,78493,1,8
48,236,78689,1,0
92,140,78885,2,0,B|148:108|144:44,1,116.999997907877,4|0
244,8,79277,2,0,B|248:72|308:104,1,116.999997907877,8|0
348,196,79669,2,0,B|288:232|284:296,1,116.999997907877,0|0
180,304,80061,2,0,B|148:244|80:244,1,116.999997907877,8|0
256,192,80453,12,0,83198
176,160,83591,5,2
284,76,83885,1,0
300,212,84179,1,0
368,272,84375,2,0,B|440:272|440:152|368:152,1,180,6|0
204,76,85159,5,2
132,128,85355,1,0
188,196,85551,1,4
100,212,85747,2,2,B|112:256|112:256|144:252|144:252|136:280|136:280|160:276|160:276|152:304|152:304|180:312|180:312|244:376,1,270,2|0
412,324,86728,5,2
324,220,87022,1,0
456,192,87316,1,0
380,148,87512,2,0,B|416:336,1,180,6|0
412,324,88100,1,0
324,348,88297,6,0,B|232:316,1,90,2|0
152,288,88689,1,4
140,200,88885,2,2,B|328:272,1,180,2|0
392,296,89473,1,2
312,136,89865,6,0,B|216:132|200:44,2,135,2|0|0
296,48,90649,2,0,B|396:60|432:160,1,180,6|0
260,220,91434,5,2
340,180,91630,1,0
416,228,91826,1,4
336,272,92022,2,2,B|252:332|152:256,1,180,2|0
168,267,92610,1,2
299,71,93002,5,6
376,235,93395,1,2
212,312,93787,1,6
135,148,94179,1,2
256,192,94571,12,0,97708
228,252,108689,6,0,B|256:330|159:366|130:287,1,180,0|8
68,224,109277,2,0,B|-14:209|3:106|86:121,1,180
168,88,109865,6,0,B|232:34|299:113|234:167,1,180,8|0
152,196,110453,2,0,B|152:328,2,90,0|8|0
152,196,111238,2,0,B|152:96,1,90,0|8
320,48,111826,5,0
392,100,112022,1,0
480,76,112218,1,8
460,164,112414,2,0,B|384:216|360:312,1,180
360,309,113002,1,8
280,268,113198,1,0
200,312,113395,5,0
200,312,113591,2,0,B|152:228,1,90,0|8
188,148,113983,2,0,B|236:232,1,90
232,226,114375,1,0
284,152,114571,1,8
456,100,114963,6,0,B|356:112|276:40,1,180,0|8
200,32,115551,2,0,B|119:92|14:70,1,180
29,72,116140,1,8
112,112,116336,1,0
172,180,116532,2,0,B|72:180,2,90,0|0|8
260,180,117120,2,0,B|440:180,1,180
440,180,117708,1,8
304,300,118100,6,0,B|376:300|408:368,2,90,0|0|8
216,280,118689,2,0,B|108:240|92:144,1,180
96,68,119277,1,8
96,68,119473,1,0
176,28,119669,2,0,B|180:80|232:104,1,90
312,80,120061,1,8
396,116,120257,2,0,B|396:44,2,45,0|0|8
344,188,120649,1,0
424,232,120846,2,0,B|436:288|396:328,1,90,8|0
336,264,121238,6,0,B|268:184|140:168,1,180,4|8
176,264,121826,2,0,B|264:208|276:100,1,180
273,118,122414,1,8
352,76,122610,1,0
440,60,122806,1,0
440,60,123002,2,0,B|440:152,1,90,0|8
440,240,123395,1,0
440,240,123787,2,0,B|440:352,1,90,0|8
276,260,124375,5,0
356,220,124571,1,0
424,276,124767,1,8
344,320,124963,2,0,B|304:232|204:200,1,180
124,208,125551,2,0,B|164:296|264:328,1,180,8|0
344,320,126140,2,0,B|392:336|420:372,2,90,0|8|0
260,288,126728,2,0,B|260:232,2,45
176,324,127120,1,8
32,220,127512,6,0,B|128:184|160:76,1,180,0|8
64,96,128100,2,0,B|120:184|220:188,1,180
210,187,128689,1,8
360,88,129081,1,0
360,88,129277,2,0,B|360:180,1,90,0|8
280,216,129669,2,0,B|280:28,1,180
280,36,130257,1,8
116,108,130649,6,0,B|87:29|184:-6|213:72,1,180,0|8
299,70,131238,2,0,B|328:-6|425:29|396:108,1,180,0|0
320,144,131826,1,8
320,144,132022,1,0
240,188,132218,6,0,B|152:132,1,90,0|0
84,176,132610,2,0,B|172:232,1,90,8|0
232,280,133002,2,0,B|136:304,1,90,8|0
176,384,133395,2,0,B|272:360,1,90,8|0
348,336,133787,6,0,B|404:316|424:256,1,90,6|0
492,232,134179,2,0,B|436:212|416:152,1,90,8|0
344,132,134571,2,0,B|400:112|420:52,2,90,2|0|10
176,68,135355,5,6
176,68,135551,2,0,B|136:96|116:148,2,90,0|8|0
268,68,136140,2,0,B|308:96|328:148,2,90,2|0|10
104,144,136924,6,0,B|44:216,1,90,6|0
48,304,137316,2,0,B|120:364,1,90,10|0
208,360,137708,2,0,B|268:288,1,90,2|0
264,200,138100,2,0,B|192:140,1,90,10|0
128,204,138493,2,2,B|75:266|155:333|209:268,2,180,6|10|6
216,176,139473,1,0
216,176,139669,1,10
380,100,140061,5,6
380,100,140257,1,0
324,172,140453,1,10
324,172,140649,1,0
408,208,140846,2,0,B|460:240|456:292,2,90,2|0|10
296,348,141630,6,0,B|372:288,1,90,6|0
292,240,142022,2,0,B|368:180,1,90,10|0
428,124,142414,1,2
476,48,142610,1,0
392,16,142806,1,10
232,96,143198,6,2,B|336:96,1,90,6|0
260,164,143591,1,10
260,164,143787,1,0
200,232,143983,2,2,B|96:232,1,90,2|0
172,164,144376,1,10
172,164,144572,1,0
256,192,144767,12,4,145944
120,272,146336,6,0,B|84:188|108:160|108:160|84:132|120:48,1,233.999995815754,4|8
224,48,146924,2,0,B|259:131|235:159|235:159|259:187|223:271,1,233.999995815754
172,180,147512,1,8
172,76,147708,2,0,B|172:320,1,233.999995815754
268,352,148296,1,8
344,276,148493,1,0
444,312,148689,1,0
444,312,148787,1,0
444,312,148885,2,0,B|496:272|484:200,2,116.999997907877,0|8|0
344,276,149473,6,0,B|276:284|264:228|296:212|296:212|264:196|276:140|344:148,1,233.999995815754,4|8
432,208,150061,2,0,B|500:216|512:160|480:144|480:144|512:128|500:72|432:80,1,233.999995815754
328,84,150649,1,8
408,16,150846,2,0,B|296:24|296:24|264:84|196:84,1,233.999995815754
108,140,151434,1,8
76,40,151630,1,0
180,16,151826,1,0
180,16,151924,1,0
180,16,152022,2,0,B|240:36|256:104,2,116.999997907877,0|8|0
108,92,152610,6,0,B|96:220|48:296|0:220,1,233.999995815754,4|8
40,124,153198,2,0,B|52:252|100:328|148:252,1,233.999995815754
220,176,153787,1,8
188,76,153983,1,0
293,101,154179,2,0,B|389:177,1,116.999997907877
488,180,154571,2,0,B|412:276,1,116.999997907877,8|0
396,376,154963,2,0,B|300:300,1,116.999997907877
200,308,155355,2,0,B|276:212,1,116.999997907877,8|0
360,272,155747,6,0,B|283:246|306:184|306:184|244:206|218:130,1,233.999995815754,4|8
288,132,156336,2,0,B|263:206|200:183|200:183|223:246|147:271,1,233.999995815754
147,271,156924,1,8
147,271,157120,1,0
64,204,157316,2,0,B|48:144,3,58.4999989539385
100,132,157708,2,0,B|116:72,3,58.4999989539385,8|0|0|0
168,84,158100,2,0,B|220:44,3,58.4999989539385,8|0|0|0
260,80,158493,2,0,B|336:56,3,58.4999989539385,8|0|0|0
364,80,158885,6,0,B|420:104|480:108|504:160|472:228|400:192,1,233.999995815754,4|8
312,160,159473,2,0,B|249:128|217:196|241:248|301:252|357:276,1,233.999995815754
456,292,160061,1,8
456,292,160257,2,0,B|404:348|404:348|352:296|296:296|248:364,1,233.999995815754
160,328,160846,1,8
224,244,161042,1,0
120,228,161238,1,0
120,228,161336,1,0
120,228,161434,2,0,B|120:108,2,116.999997907877,0|8|0
72,320,162022,6,0,B|36:244|60:236|60:236|48:224|48:224|60:208|60:208|48:196|48:196|60:184|60:184|36:172|72:96,1,233.999995815754,4|8
168,120,162610,2,0,B|194:174|170:186|170:186|182:198|182:198|170:210|170:210|182:226|182:226|170:238|170:238|194:246|158:322,1,233.999995815754
260,352,163198,1,8
360,316,163395,2,0,B|296:256|296:256|316:192|288:108,1,233.999995815754
244,16,163983,5,8
396,40,164179,1,0
420,188,164375,1,8
288,112,164571,1,0
140,140,164767,1,8
256,240,164963,1,0
384,156,165159,6,0,B|384:224|384:224|424:256|456:244|488:256|488:340,1,233.999995815754,4|8
392,376,165747,2,0,B|392:308|392:308|352:276|316:284|288:276|288:192,1,233.999995815754
288,92,166336,1,8
288,92,166532,1,0
204,156,166728,2,0,B|100:96,1,116.999997907877,4|0
8,140,167120,2,0,B|112:200,1,116.999997907877,8|0
184,272,167512,2,0,B|120:368,1,116.999997907877
224,368,167904,2,0,B|288:272,1,116.999997907877,8|0
256,192,168296,12,0,171042
208,172,171434,5,6
328,236,171728,1,0
420,136,172022,1,0
340,92,172218,2,0,B|248:56|144:128,1,180,6|0
20,84,173002,5,6
96,36,173198,1,0
172,88,173395,1,0
92,132,173591,2,2,B|52:172|16:192|16:192|36:228|32:312,1,180,2|0
32,273,174179,1,2
212,300,174571,6,0,B|153:293|172:203|70:230,2,135,6|0|0
272,232,175355,2,0,B|349:203|385:300|308:328,1,180,6|0
228,372,175944,1,0
144,344,176140,2,0,B|96:344|44:384,2,90,6|0|0
216,288,176728,2,2,B|308:248|312:144,1,180,6|0
311,147,177316,1,2
456,40,177708,5,6
456,176,178002,1,0
456,312,178296,1,0
384,260,178493,2,0,B|332:176|380:88,1,180,6|0
200,72,179277,2,0,B|260:76|280:16,2,90,6|0|0
128,128,179865,2,2,B|112:224|12:256,1,180,6|0
14,255,180453,1,2
184,312,180846,6,2,B|352:224,1,180,6|2
380,52,181630,2,2,B|212:140,1,180,6|2
256,192,182414,12,4,185551
