osu file format v14

[General]
AudioFilename: WUUUUUOOOOHHHHH.mp3
AudioLeadIn: 0
PreviewTime: 103337
Countdown: 0
SampleSet: Soft
StackLeniency: 0.7
Mode: 0
LetterboxInBreaks: 0
WidescreenStoryboard: 0

[Editor]
Bookmarks: 40492,122281
DistanceSpacing: 1
BeatDivisor: 4
GridSize: 4
TimelineZoom: 1

[Metadata]
Title:Tengaku
TitleUnicode:天樂
Artist:Hanatan
ArtistUnicode:花たん
Creator:Kihhou
Version:Normal
Source:
Tags:music of heavens cut version vocaloid kagamine rin yuuyu-p utaite yurica yauxo kin okoratu neta giralda
BeatmapID:436288
BeatmapSetID:181142

[Difficulty]
HPDrainRate:4
CircleSize:3.2
OverallDifficulty:4
ApproachRate:5
SliderMultiplier:0.799999999999999
SliderTickRate:1

[Events]
//Background and Video events
0,0,"ringtingthegod.jpg",0,0
//Break Periods
2,54464,57460
//Storyboard Layer 0 (Background)
//Storyboard Layer 1 (Fail)
//Storyboard Layer 2 (Pass)
//Storyboard Layer 3 (Foreground)
//Storyboard Sound Samples

[TimingPoints]
471,258.620689655172,4,1,1,70,1,0
17281,-100,4,1,11,70,0,0
17345,-100,4,1,1,70,0,0
18315,-100,4,1,11,70,0,0
18380,-100,4,1,1,70,0,0
19350,-100,4,1,11,70,0,0
19414,-100,4,1,1,70,0,0
21419,-100,4,1,11,70,0,0
21483,-100,4,1,1,70,0,0
22453,-100,4,1,11,70,0,0
22518,-100,4,1,1,70,0,0
23488,-100,4,1,11,70,0,0
23552,-100,4,1,1,70,0,0
25557,-100,4,1,11,70,0,0
25621,-100,4,1,1,70,0,0
33833,-100,4,1,1,50,0,0
34350,-100,4,1,11,50,0,0
34414,-100,4,1,1,50,0,0
36419,-100,4,1,11,50,0,0
36483,-100,4,1,1,50,0,0
40039,-100,4,1,11,50,0,0
40104,-100,4,1,1,50,0,0
42626,-100,4,1,11,50,0,0
42690,-100,4,1,1,50,0,0
44695,-100,4,1,11,50,0,0
44759,-100,4,1,1,50,0,0
46764,-100,4,1,11,50,0,0
46828,-100,4,1,1,50,0,0
47022,-100,4,1,1,70,0,0
58402,-100,4,1,1,35,0,0
58660,-100,4,1,1,50,0,0
59695,-100,4,1,11,50,0,0
59759,-100,4,1,1,50,0,0
61246,-100,4,1,11,50,0,0
61311,-100,4,1,1,50,0,0
61764,-100,4,1,11,50,0,0
61828,-100,4,1,1,50,0,0
62281,-100,4,1,11,50,0,0
62345,-100,4,1,1,50,0,0
63315,-100,4,1,11,50,0,0
63380,-100,4,1,1,50,0,0
64350,-100,4,1,11,50,0,0
64414,-100,4,1,1,50,0,0
67453,-100,4,1,11,50,0,0
67518,-100,4,1,1,50,0,0
74953,-100,4,1,1,60,0,0
75212,-100,4,1,11,60,0,0
75277,-100,4,1,1,60,0,0
77281,-100,4,1,11,60,0,0
77345,-100,4,1,1,60,0,0
79350,-100,4,1,11,60,0,0
79414,-100,4,1,1,60,0,0
81419,-100,4,1,11,60,0,0
81483,-100,4,1,1,60,0,0
82453,-100,4,1,11,60,0,0
82518,-100,4,1,1,60,0,0
85557,-100,4,1,11,60,0,0
85621,-100,4,1,1,60,0,0
87626,-100,4,1,11,60,0,0
87690,-100,4,1,1,60,0,0
89436,-100,4,1,2,60,0,0
91505,-100,4,1,2,50,0,0
95643,-100,4,1,2,60,0,0
99781,-100,4,1,2,70,0,0
100298,-100,4,1,1,70,0,0
100363,-100,4,1,2,70,0,0
101333,-100,4,1,1,70,0,0
103919,-100,4,1,1,70,0,1
104177,-100,4,1,11,70,0,1
104242,-100,4,1,1,70,0,1
105212,-100,4,1,11,70,0,1
105277,-100,4,1,1,70,0,1
106246,-100,4,1,11,70,0,1
106311,-100,4,1,1,70,0,1
112130,-100,4,1,1,70,0,0
112195,-100,4,1,1,70,0,1
113488,-100,4,1,11,70,0,1
113552,-100,4,1,1,70,0,1
114522,-100,4,1,11,70,0,1
114587,-100,4,1,1,70,0,1
121764,-100,4,1,11,70,0,1
121828,-100,4,1,1,70,0,1
122281,-100,4,1,11,70,0,1
122345,-100,4,1,1,70,0,1
122410,-100,4,1,1,70,0,0
123121,-100,4,2,1,35,0,0
124091,-100,4,1,1,70,0,0
124608,-100,4,1,1,70,0,1
128746,-100,4,1,1,70,0,0

[Colours]
Combo1 : 133,133,133
Combo2 : 248,20,139
Combo3 : 167,9,206
Combo4 : 0,234,234
Combo5 : 176,176,255

[HitObjects]
256,316,16505,5,4,0:0:0:0:
404,252,17022,6,0,P|428:160|368:108,1,160,4|0,0:0|0:0,0:0:0:0:
312,120,17798,1,8,0:0:0:0:
352,188,18057,2,0,P|304:228|200:204,1,160,0|0,0:0|0:0,0:0:0:0:
140,184,18833,1,8,0:0:0:0:
148,264,19091,54,0,P|212:304|316:308,1,160,0|0,0:0|0:0,0:0:0:0:
368,280,19867,1,8,0:0:0:0:
432,232,20126,2,0,L|496:172,2,79.9999999999999,0|8|0,0:0|0:0|0:0,0:0:0:0:
356,204,20902,1,8,0:0:0:0:
284,172,21160,6,0,P|204:152|116:180,1,160,4|0,0:0|0:0,0:0:0:0:
96,244,21936,1,8,0:0:0:0:
128,316,22195,2,0,P|208:336|296:308,1,160,0|0,0:0|0:0,0:0:0:0:
348,272,22970,1,8,0:0:0:0:
316,200,23229,54,0,P|311:105|363:69,1,160,0|0,0:0|0:0,0:0:0:0:
433,92,24005,1,8,0:0:0:0:
376,148,24264,2,0,L|436:240,1,79.9999999999999,0|8,0:0|0:0,0:0:0:0:
468,280,24781,2,0,L|520:300,2,40,12|8|8,0:0|0:0|0:0,0:0:0:0:
388,288,25298,6,0,L|212:296,1,160,4|0,0:0|0:0,0:0:0:0:
168,348,26074,1,8,0:0:0:0:
152,268,26333,2,0,P|133:220|146:172,2,79.9999999999999,0|8|0,0:0|0:0|0:0,0:0:0:0:
212,216,27108,1,8,0:0:0:0:
288,240,27367,54,0,P|328:208|356:176,1,79.9999999999999,0|8,0:0|0:0,0:0:0:0:
392,120,27884,1,0,0:0:0:0:
430,50,28143,1,8,0:0:0:0:
352,50,28402,2,0,P|316:88|312:135,1,79.9999999999999,0|8,0:0|0:0,0:0:0:0:
236,140,28919,6,0,B|204:116|192:72,2,79.9999999999999,0|8|0,0:0|0:0|0:0,0:0:0:0:
296,192,29695,1,8,0:0:0:0:
376,204,29953,1,0,0:0:0:0:
384,284,30212,2,0,L|336:368,1,79.9999999999999,8|0,0:0|0:0,0:0:0:0:
264,344,30729,2,0,B|164:324|164:324|100:332,1,160,8|8,0:0|0:0,0:0:0:0:
104,252,31505,54,0,L|128:208,1,40,4|8,0:0|0:0,0:0:0:0:
196,248,31893,2,0,L|220:204,1,40,4|8,0:0|0:0,0:0:0:0:
288,244,32281,2,0,L|312:200,1,40,4|8,0:0|0:0,0:0:0:0:
380,240,32669,2,0,P|420:196|504:204,1,120,4|0,0:0|0:0,0:0:0:0:
504,116,33315,2,0,L|504:76,2,40,0|0|4,0:0|0:0|0:0,0:0:0:0:
423,113,33833,21,0,0:0:0:0:
351,147,34091,2,0,B|224:173,1,120,8|0,0:0|0:0,0:0:0:0:
153,163,34738,1,0,0:0:0:0:
77,138,34996,2,0,L|63:257,1,120,0|8,0:0|0:0,0:0:0:0:
52,336,35643,5,0,0:0:0:0:
132,320,35902,1,8,0:0:0:0:
212,332,36160,2,0,P|288:340|352:328,2,120,0|0|8,0:0|0:0|0:0,0:0:0:0:
128,196,37453,2,0,L|108:152,2,40,8|8|0,0:0|0:0|0:0,0:0:0:0:
208,212,37970,54,0,P|246:226|292:224,1,79.9999999999999,8|0,0:0|0:0,0:0:0:0:
359,195,38488,2,0,P|409:136|492:124,2,160,8|8|8,0:0|0:0|0:0,0:0:0:0:
384,272,39781,6,0,P|324:304|232:300,1,160,0|0,0:0|0:0,0:0:0:0:
212,184,40686,2,0,B|196:132|240:96|212:60,1,120,0|8,0:0|0:0,0:0:0:0:
144,32,41333,1,0,0:0:0:0:
68,57,41591,2,0,L|0:33,2,40,8|8|4,0:0|0:0|0:0,0:0:0:0:
128,112,42108,53,8,0:0:0:0:
144,192,42367,2,0,B|156:272|156:272|132:340,1,120,0|0,0:0|0:0,0:0:0:0:
68,340,43014,1,0,0:0:0:0:
72,260,43272,2,0,L|52:136,1,120,0|8,0:0|0:0,0:0:0:0:
88,68,43919,5,0,0:0:0:0:
164,40,44177,1,8,0:0:0:0:
236,72,44436,2,0,P|319:66|354:38,1,120,0|0,0:0|0:0,0:0:0:0:
408,152,45212,2,0,B|410:199|410:199|419:240,2,79.9999999999999,8|0|8,0:0|0:0|0:0,0:0:0:0:
420,72,45988,53,0,0:0:0:0:
345,103,46246,1,8,0:0:0:0:
320,180,46505,2,0,L|312:312,2,120,0|0|8,0:0|0:0|0:0,0:0:0:0:
252,137,47539,6,0,L|259:17,2,120,0|8|12,0:0|0:0|0:0,0:0:0:0:
230,214,48574,1,0,0:0:0:0:
174,158,48833,1,12,0:0:0:0:
152,236,49091,1,0,0:0:0:0:
308,196,49608,54,0,P|347:191|386:197,2,79.9999999999999,8|0|4,0:0|0:0|0:0,0:0:0:0:
256,192,50384,12,4,54264,0:0:0:0:
256,144,58660,70,0,L|256:304,1,160,12|8,0:0|0:0,0:0:0:0:
336,288,59436,2,0,P|352:224|344:168,2,120,0|0|8,0:0|0:0|0:0,0:0:0:0:
271,335,60470,5,0,0:0:0:0:
241,260,60729,1,8,0:0:0:0:
192,324,60988,2,0,P|144:312|108:284,1,79.9999999999999
72,228,61505,2,0,P|44:172|20:152,1,79.9999999999999
80,96,62022,2,0,P|172:92|244:56,1,160
308,36,62798,53,8,0:0:0:0:
388,44,63057,2,0,L|512:60,2,120,0|0|8,0:0|0:0|0:0,0:0:0:0:
340,108,64091,2,0,L|260:220,2,120,0|0|8,0:0|0:0|0:0,0:0:0:0:
416,136,65126,5,0,0:0:0:0:
452,208,65384,2,0,L|460:248,2,40,8|0|0,0:0|0:0|0:0,0:0:0:0:
380,248,65902,2,0,L|388:288,2,40,8|0|0,0:0|0:0|0:0,0:0:0:0:
316,200,66419,2,0,L|308:160,2,40,8|8|4,0:0|0:0|0:0,0:0:0:0:
280,272,66936,53,8,0:0:0:0:
208,304,67195,2,0,P|140:320|96:288,2,120,0|0|8,0:0|0:0|0:0,0:0:0:0:
160,240,68229,1,0,0:0:0:0:
200,168,68488,1,8,0:0:0:0:
276,196,68746,6,0,P|313:231|328:264,1,79.9999999999999
352,332,69264,1,0,0:0:0:0:
407,274,69522,2,0,B|419:195|332:160|369:109,1,160,8|8,0:0|0:0,0:0:0:0:
281,125,70298,54,0,P|232:115|192:130,2,79.9999999999999,0|8|0,0:0|0:0|0:0,0:0:0:0:
216,268,71333,1,0,0:0:0:0:
375,254,71850,1,0,0:0:0:0:
281,124,72367,2,0,L|238:47,1,79.9999999999999,0|8,0:0|0:0,0:0:0:0:
172,92,72884,6,0,P|84:40|132:28,2,240,0|4|0,0:0|0:0|0:0,0:0:0:0:
332,84,74953,54,0,B|376:112|376:168|376:168|324:184|320:232|340:268|388:272,1,240,4|8,0:0|0:0,0:0:0:0:
452,272,75988,2,0,L|500:196,2,79.9999999999999,0|8|0,0:0|0:0|0:0,0:0:0:0:
412,340,76764,1,0,0:0:0:0:
332,348,77022,6,0,B|256:368|216:320|244:276|244:276|208:260|152:292,1,240,0|8,0:0|0:0,0:0:0:0:
152,367,78057,2,0,P|108:348|87:313,1,79.9999999999999,0|8,0:0|0:0,0:0:0:0:
91,242,78574,1,0,0:0:0:0:
164,200,78833,1,8,0:0:0:0:
96,160,79091,54,0,B|48:152|24:116|24:116|60:76|104:64|104:64|132:88|160:104,1,240,4|8,0:0|0:0,0:0:0:0:
220,136,80126,2,0,P|256:152|308:152,1,79.9999999999999,0|8,0:0|0:0,0:0:0:0:
372,132,80643,1,0,0:0:0:0:
448,160,80902,1,8,0:0:0:0:
408,228,81160,6,0,B|376:280|312:296|312:296|276:236|208:232,2,240,0|8|0,0:0|0:0|0:0,0:0:0:0:
448,160,82970,1,8,0:0:0:0:
476,84,83229,54,0,P|488:36|485:4,2,79.9999999999999,4|8|0,0:0|0:0|0:0,0:0:0:0:
396,96,84005,2,0,P|344:88|304:96,1,79.9999999999999,8|0,0:0|0:0,0:0:0:0:
240,116,84522,1,8,0:0:0:0:
172,72,84781,1,0,0:0:0:0:
104,116,85039,1,8,0:0:0:0:
104,196,85298,6,0,P|176:236|244:188,1,160,0|0,0:0|0:0,0:0:0:0:
172,156,86074,2,0,L|168:324,1,160,8|8,0:0|0:0,0:0:0:0:
232,364,86850,2,0,P|292:364|316:348,1,79.9999999999999,0|8,0:0|0:0,0:0:0:0:
352,288,87367,54,0,P|368:212|442:183,1,160,4|0,0:0|0:0,0:0:0:0:
428,264,88143,2,0,P|367:216|374:136,1,160,8|8,0:0|0:0,0:0:0:0:
404,68,88919,2,0,L|448:32,2,40,0|8|0,0:0|0:0|0:0,0:0:0:0:
324,76,89436,6,0,B|280:44|236:44|236:44|228:120,1,160,0|8,0:0|0:0,0:0:0:0:
284,168,90212,1,8,0:0:0:0:
224,220,90470,2,0,P|144:252|72:220,1,160,8|8,0:0|0:0,0:0:0:0:
12,272,91246,1,8,0:0:0:0:
76,320,91505,54,0,P|176:332|244:308,1,160,0|0,0:0|0:0,0:0:0:0:
336,256,92410,2,0,P|408:236|448:256,1,120,4|12,0:0|0:0,0:0:0:0:
468,332,93057,1,0,0:0:0:0:
392,316,93315,1,0,0:0:0:0:
316,336,93574,6,0,P|268:300|280:196,1,160,0|0,0:0|0:0,0:0:0:0:
296,88,94479,2,0,P|232:76|172:92,1,120,4|12,0:0|0:0,0:0:0:0:
108,124,95126,1,8,0:0:0:0:
76,196,95384,1,8,0:0:0:0:
100,272,95643,54,0,P|116:324|144:368,2,79.9999999999999,0|4|0,0:0|0:0|0:0,0:0:0:0:
212,232,96548,2,0,B|240:216|272:232|272:232|304:248|336:236,1,120,4|4,0:0|0:0,0:0:0:0:
372,172,97195,2,0,B|400:128|388:95,1,79.9999999999999,8|0,0:0|0:0,0:0:0:0:
308,116,97712,6,0,B|296:83|324:39,2,79.9999999999999,0|4|0,0:0|0:0|0:0,0:0:0:0:
212,44,98617,2,0,P|140:36|88:52,1,120,4|12,0:0|0:0,0:0:0:0:
52,116,99264,1,8,0:0:0:0:
96,184,99522,6,0,L|152:177,2,40,8|8|12,0:0|0:0|0:0,0:0:0:0:
64,260,100039,1,12,0:0:0:0:
128,308,100298,2,0,P|201:300|256:327,2,120,8|8|8,0:0|0:0|0:0,0:0:0:0:
56,340,101333,1,12,0:0:0:0:
160,220,101850,6,0,L|160:172,2,40,8|8|8,0:0|0:0|0:0,0:0:0:0:
231,255,102367,2,0,P|281:240|298:195,1,79.9999999999999,8|8,0:0|0:0,0:0:0:0:
296,180,102755,1,12,0:0:0:0:
176,44,103919,6,0,P|105:68|108:143,1,160,4|0,0:0|0:0,0:0:0:0:
172,192,104695,1,8,0:0:0:0:
111,244,104953,2,0,P|56:272|-12:248,2,120,0|0|8,0:0|0:0|0:0,0:0:0:0:
96,164,105988,54,0,L|84:40,2,120,4|0|8,0:0|0:0|0:0,0:0:0:0:
172,192,107022,2,0,P|215:172|247:141,1,79.9999999999999,0|8,0:0|0:0,0:0:0:0:
312,121,107539,2,0,P|365:126|399:143,1,79.9999999999999,0|8,0:0|0:0,0:0:0:0:
459,174,108057,5,4,0:0:0:0:
320,248,108574,2,0,L|224:264,1,79.9999999999999,0|8,0:0|0:0,0:0:0:0:
160,256,109091,2,0,P|116:260|72:240,1,79.9999999999999,4|8,0:0|0:0,0:0:0:0:
128,180,109608,2,0,P|176:176|208:188,1,79.9999999999999,0|8,0:0|0:0,0:0:0:0:
284,168,110126,54,0,P|340:132|356:108,2,79.9999999999999,4|8|8,0:0|0:0|0:0,0:0:0:0:
260,244,110902,1,8,0:0:0:0:
336,264,111160,2,0,P|392:300|408:324,2,79.9999999999999,4|8|12,0:0|0:0|0:0,0:0:0:0:
280,320,111936,6,0,L|264:356,2,40,8|8|4,0:0|0:0|0:0,0:0:0:0:
120,300,112712,2,0,P|68:300|28:308,1,79.9999999999999,0|8,0:0|0:0,0:0:0:0:
28,224,113229,2,0,B|60:152|60:152|48:64,1,160,0|0,0:0|0:0,0:0:0:0:
120,32,114005,1,8,0:0:0:0:
192,68,114264,54,0,P|264:84|316:64,2,120,4|0|8,0:0|0:0|0:0,0:0:0:0:
164,144,115298,2,0,L|172:228,1,79.9999999999999,0|8,0:0|0:0,0:0:0:0:
252,216,115815,2,0,L|260:300,1,79.9999999999999,0|8,0:0|0:0,0:0:0:0:
268,376,116333,5,0,0:0:0:0:
380,260,116850,2,0,P|384:200|372:168,1,79.9999999999999,4|8,0:0|0:0,0:0:0:0:
348,108,117367,1,0,0:0:0:0:
192,132,117884,2,0,P|136:136|104:112,1,79.9999999999999,4|8,0:0|0:0,0:0:0:0:
160,56,118402,53,0,0:0:0:0:
255,184,118919,2,0,L|307:252,2,79.9999999999999,4|8|0,0:0|0:0|0:0,0:0:0:0:
96,196,119953,1,8,0:0:0:0:
197,319,120470,6,0,P|239:333|298:318,1,79.9999999999999,4|8,0:0|0:0,0:0:0:0:
351,307,120988,2,0,P|337:263|354:215,1,79.9999999999999,4|8,0:0|0:0,0:0:0:0:
388,164,121505,2,0,P|332:180|268:152,1,120,4|8,0:0|0:0,0:0:0:0:
244,136,122022,2,0,P|176:116|128:132,1,120,4|8,0:0|0:0,0:0:0:0:
113,245,123315,37,0,0:0:0:0:
184,282,123574,1,0,0:0:0:0:
244,228,123833,1,0,0:0:0:0:
315,265,124027,1,0,0:0:0:0:
375,211,124350,6,0,P|393:246|389:292,1,79.9999999999999
256,192,124867,12,4,128746,0:0:0:0:
