osu file format v14

[General]
AudioFilename: WUUUUUOOOOHHHHH.mp3
AudioLeadIn: 0
PreviewTime: 103337
Countdown: 0
SampleSet: Normal
StackLeniency: 0.7
Mode: 0
LetterboxInBreaks: 0
WidescreenStoryboard: 0

[Editor]
Bookmarks: 122281
DistanceSpacing: 0.8
BeatDivisor: 4
GridSize: 4
TimelineZoom: 1

[Metadata]
Title:Tengaku
TitleUnicode:天樂
Artist:Hanatan
ArtistUnicode:花たん
Creator:Kihhou
Version:Neta's Easy
Source:
Tags:music of heavens cut version vocaloid kagamine rin yuuyu-p utaite yurica yauxo kin okoratu neta giralda
BeatmapID:440434
BeatmapSetID:181142

[Difficulty]
HPDrainRate:2
CircleSize:3
OverallDifficulty:2
ApproachRate:3
SliderMultiplier:0.599999999999999
SliderTickRate:1

[Events]
//Background and Video events
0,0,"ringtingthegod.jpg",0,0
//Break Periods
2,54464,57220
//Storyboard Layer 0 (Background)
//Storyboard Layer 1 (Fail)
//Storyboard Layer 2 (Pass)
//Storyboard Layer 3 (Foreground)
//Storyboard Sound Samples

[TimingPoints]
471,258.620689655172,4,1,1,80,1,0
17281,-100,4,1,11,80,0,0
17345,-100,4,1,1,80,0,0
18315,-100,4,1,11,80,0,0
18380,-100,4,1,1,80,0,0
19350,-100,4,1,11,80,0,0
19414,-100,4,1,1,80,0,0
21419,-100,4,1,11,80,0,0
21483,-100,4,1,1,80,0,0
21936,-100,4,1,11,80,0,0
22001,-100,4,1,1,80,0,0
23488,-100,4,1,11,80,0,0
23552,-100,4,1,1,80,0,0
24005,-100,4,1,11,80,0,0
24070,-100,4,1,1,80,0,0
25557,-100,4,1,11,80,0,0
25621,-100,4,1,1,80,0,0
27626,-100,4,1,11,80,0,0
27690,-100,4,1,1,80,0,0
28660,-100,4,1,11,80,0,0
28725,-100,4,1,1,80,0,0
29695,-100,4,1,11,80,0,0
29759,-100,4,1,1,80,0,0
30729,-100,4,1,11,80,0,0
30794,-100,4,1,1,80,0,0
31764,-100,4,1,11,80,0,0
31828,-100,4,1,1,80,0,0
33057,-100,4,1,1,40,0,0
33833,-100,4,1,11,80,0,0
33897,-100,4,1,1,80,0,0
35902,-100,4,1,11,80,0,0
35966,-100,4,1,1,80,0,0
37970,-100,4,1,11,80,0,0
38035,-100,4,1,1,80,0,0
39005,-100,4,1,11,80,0,0
39070,-100,4,1,1,80,0,0
40039,-100,4,1,11,80,0,0
40104,-100,4,1,1,80,0,0
41850,-100,4,1,1,60,0,0
42367,-100,4,1,1,80,0,0
43143,-100,4,1,11,80,0,0
43208,-100,4,1,1,80,0,0
44177,-100,4,1,11,80,0,0
44242,-100,4,1,1,80,0,0
46764,-100,4,1,11,80,0,0
46828,-100,4,1,1,80,0,0
47281,-100,4,1,11,80,0,0
47345,-100,4,1,1,80,0,0
48057,-100,4,1,1,90,0,0
48315,-100,4,1,11,80,0,0
48380,-100,4,1,1,80,0,0
48574,-100,4,1,1,90,0,0
48833,-100,4,1,11,80,0,0
48897,-100,4,1,1,80,0,0
49091,-100,4,1,1,90,0,0
58660,-100,4,1,1,80,0,0
59177,-100,4,1,11,80,0,0
59242,-100,4,1,1,80,0,0
59695,-100,4,1,11,80,0,0
59759,-100,4,1,1,80,0,0
60729,-100,4,1,11,80,0,0
60794,-100,4,1,1,80,0,0
61764,-100,4,1,11,80,0,0
61828,-100,4,1,1,80,0,0
62798,-100,4,1,11,80,0,0
62863,-100,4,1,1,80,0,0
63833,-100,4,1,11,80,0,0
63897,-100,4,1,1,80,0,0
67453,-100,4,1,11,80,0,0
67518,-100,4,1,1,80,0,0
68488,-100,4,1,11,80,0,0
68552,-100,4,1,1,80,0,0
75212,-100,4,1,11,80,0,0
75277,-100,4,1,1,80,0,0
77281,-100,4,1,11,80,0,0
77345,-100,4,1,1,80,0,0
79350,-100,4,1,11,80,0,0
79414,-100,4,1,1,80,0,0
80384,-100,4,1,11,80,0,0
80449,-100,4,1,1,80,0,0
81419,-100,4,1,11,80,0,0
81483,-100,4,1,1,80,0,0
82453,-100,4,1,11,80,0,0
82518,-100,4,1,1,80,0,0
86591,-100,4,1,11,80,0,0
86656,-100,4,1,1,80,0,0
87626,-100,4,1,11,80,0,0
87690,-100,4,1,1,80,0,0
89953,-100,4,1,1,85,0,0
90470,-100,4,1,1,90,0,0
91246,-100,4,1,11,80,0,0
91311,-100,4,1,1,80,0,0
94867,-100,4,1,11,80,0,0
94932,-100,4,1,1,80,0,0
95643,-100,4,1,1,90,0,0
95902,-100,4,1,11,90,0,0
95966,-100,4,1,1,90,0,0
97970,-100,4,1,11,90,0,0
98035,-100,4,1,1,90,0,0
98488,-100,4,1,11,90,0,0
98552,-100,4,1,1,90,0,0
103919,-100,4,1,1,85,0,1
104177,-100,4,1,11,85,0,1
104242,-100,4,1,1,85,0,1
104695,-100,4,1,11,85,0,1
104759,-100,4,1,1,85,0,1
106246,-100,4,1,11,85,0,1
106311,-100,4,1,1,85,0,1
108315,-100,4,1,11,85,0,1
108380,-100,4,1,1,85,0,1
109350,-100,4,1,11,85,0,1
109414,-100,4,1,1,85,0,1
110384,-100,4,1,11,85,0,1
110449,-100,4,1,1,85,0,1
112453,-100,4,1,11,85,0,1
112518,-100,4,1,1,85,0,1
112970,-100,4,1,11,85,0,1
113035,-100,4,1,1,85,0,1
114522,-100,4,1,11,85,0,1
114587,-100,4,1,1,85,0,1
115557,-100,4,1,11,85,0,1
115621,-100,4,1,1,85,0,1
116591,-100,4,1,11,85,0,1
116656,-100,4,1,1,85,0,1
119695,-100,4,1,11,85,0,1
119759,-100,4,1,1,85,0,1
122410,-100,4,1,1,80,0,0
122798,-100,4,1,1,60,0,0
123574,-100,4,1,11,40,0,0
123833,-100,4,1,11,80,0,0
124091,-100,4,1,11,40,0,0
124350,-100,4,1,1,90,0,0
124608,-100,4,1,1,80,0,1
128746,-100,4,1,1,80,0,0

[Colours]
Combo1 : 133,133,133
Combo2 : 248,20,139
Combo3 : 167,9,206
Combo4 : 0,234,234
Combo5 : 176,176,255

[HitObjects]
268,260,16505,5,4,0:0:0:0:
364,244,17022,6,0,P|340:192|276:164,1,120,4|0,0:0|0:0,0:0:0:0:
188,172,18057,2,0,L|80:240,1,120,4|0,0:0|0:0,0:0:0:0:
8,180,19091,2,0,L|116:112,1,120,4|0,0:0|0:0,0:0:0:0:
196,72,20126,1,4,0:0:0:0:
288,100,20643,1,0,0:0:0:0:
376,132,21160,54,0,P|452:212|424:348,1,240,4|4,0:0|0:0,0:0:0:0:
344,300,22712,1,0,0:0:0:0:
260,256,23229,2,0,B|180:264|128:216|128:216|56:296,1,240,4|4,0:0|0:0,0:0:0:0:
12,208,24781,1,8,0:0:0:0:
76,136,25298,6,0,L|164:36,1,120,4|0,0:0|0:0,0:0:0:0:
251,44,26333,1,4,0:0:0:0:
337,84,26850,1,0,0:0:0:0:
400,160,27367,2,0,P|376:224|328:252,1,120,4|0,0:0|0:0,0:0:0:0:
240,228,28402,2,0,L|220:360,1,120,4|0,0:0|0:0,0:0:0:0:
140,296,29436,54,0,L|160:164,1,120,4|0,0:0|0:0,0:0:0:0:
72,132,30470,2,0,P|112:88|180:84,1,120,4|0,0:0|0:0,0:0:0:0:
260,120,31505,6,0,L|340:68,1,89.9999999999999,4|0,0:0|0:0,0:0:0:0:
408,76,32281,2,0,P|448:120|448:240,1,180,4|0,0:0|0:0,0:0:0:0:
372,292,33574,6,0,L|260:336,1,120,0|0,0:0|0:0,0:0:0:0:
168,304,34608,1,0,0:0:0:0:
204,216,35126,1,0,0:0:0:0:
300,212,35643,2,0,P|280:156|228:124,1,120,0|0,0:0|0:0,0:0:0:0:
136,128,36677,1,0,0:0:0:0:
96,216,37195,1,0,0:0:0:0:
44,136,37712,6,0,P|56:80|108:40,1,120,0|0,0:0|0:0,0:0:0:0:
200,32,38746,2,0,L|324:52,1,120,0|0,0:0|0:0,0:0:0:0:
340,144,39781,2,0,L|216:124,1,120,0|0,0:0|0:0,0:0:0:0:
128,116,40815,1,0,0:0:0:0:
60,184,41333,2,0,L|20:228,2,59.9999999999999,0|8|4,0:0|0:0|0:0,0:0:0:0:
136,244,42367,53,0,0:0:0:0:
220,288,42884,2,0,P|276:308|348:296,1,120
416,252,43919,2,0,L|444:124,1,120
392,52,44953,2,0,P|372:28|344:16,2,59.9999999999999,0|8|0,0:0|0:0|0:0,0:0:0:0:
313,108,45988,1,0,0:0:0:0:
216,120,46505,6,0,L|88:124,2,120
256,212,48057,2,0,L|128:216,2,120,4|4|4,0:0|0:0|0:0,0:0:0:0:
328,276,49608,2,0,L|360:332,2,59.9999999999999,0|8|4,0:0|0:0|0:0,0:0:0:0:
256,192,50384,12,4,54264,0:0:0:0:
212,320,58660,54,0,P|177:250|212:192,2,150,8|0|0,0:0|0:0|0:0,0:0:0:0:
284,256,60470,2,0,P|344:240|404:256,1,120
480,304,61505,2,0,L|484:176,1,120
452,92,62539,6,0,P|396:72|336:76,1,120
288,160,63574,2,0,P|344:180|404:176,1,120
456,256,64608,1,0,0:0:0:0:
384,320,65126,1,0,0:0:0:0:
288,304,65643,2,0,L|276:236,2,59.9999999999999,0|8|0,0:0|0:0|0:0,0:0:0:0:
192,300,66677,53,0,0:0:0:0:
108,252,67195,2,0,P|88:192|104:136,1,120
160,64,68229,2,0,P|220:72|276:52,1,120
348,112,69264,1,0,0:0:0:0:
428,164,69781,6,0,L|488:136,2,59.9999999999999,0|8|0,0:0|0:0|0:0,0:0:0:0:
384,248,70815,1,0,0:0:0:0:
288,260,71333,1,0,0:0:0:0:
200,224,71850,1,0,0:0:0:0:
104,212,72367,54,0,L|36:224,2,59.9999999999999,0|12|0,0:0|0:0|0:0,0:0:0:0:
116,116,73402,2,0,L|52:96,2,59.9999999999999,0|12|0,0:0|0:0|0:0,0:0:0:0:
212,120,74436,1,0,0:0:0:0:
300,84,74953,6,0,P|356:68|420:84,1,120
444,172,75988,1,0,0:0:0:0:
388,252,76505,1,0,0:0:0:0:
304,300,77022,2,0,P|244:312|184:300,1,120
120,232,78057,1,0,0:0:0:0:
144,140,78574,1,0,0:0:0:0:
232,96,79091,54,0,P|292:108|352:96,1,120
444,88,80126,2,0,L|408:220,1,120
344,272,81160,2,0,P|284:284|224:272,1,120
152,216,82195,2,0,L|128:96,1,120
212,52,83229,5,0,0:0:0:0:
300,84,83746,1,0,0:0:0:0:
360,160,84264,2,0,L|432:140,2,59.9999999999999,0|8|0,0:0|0:0|0:0,0:0:0:0:
324,248,85298,1,0,0:0:0:0:
240,296,85815,1,0,0:0:0:0:
152,260,86333,2,0,P|96:232|68:180,1,120
108,96,87367,54,0,L|232:72,1,120
320,96,88402,2,0,L|384:116,2,59.9999999999999,0|8|0,0:0|0:0|0:0,0:0:0:0:
288,188,89436,5,0,0:0:0:0:
200,224,89953,1,0,0:0:0:0:
104,224,90470,1,0,0:0:0:0:
36,292,90988,2,0,P|92:316|160:304,1,120,0|4,0:0|0:0,0:0:0:0:
244,292,92022,53,0,0:0:0:0:
332,260,92539,1,4,0:0:0:0:
420,224,93057,2,0,L|480:252,2,59.9999999999999,0|8|4,0:0|0:0|0:0,0:0:0:0:
356,156,94091,1,0,0:0:0:0:
284,92,94608,2,0,L|164:80,1,120,4|0,0:0|0:0,0:0:0:0:
152,176,95643,6,0,L|272:188,1,120,4|0,0:0|0:0,0:0:0:0:
356,236,96677,2,0,L|412:200,2,59.9999999999999,4|0|0,0:0|0:0|0:0,0:0:0:0:
300,316,97712,2,0,B|228:316|196:264|196:264|164:316|92:312,1,240,4|0,0:0|0:0,0:0:0:0:
112,216,99264,1,0,0:0:0:0:
92,120,99781,54,0,L|48:56,2,59.9999999999999,4|8|0,0:0|0:0|0:0,0:0:0:0:
188,112,100815,2,0,L|224:56,2,59.9999999999999,4|0|0,0:0|0:0|0:0,0:0:0:0:
236,196,101850,1,0,0:0:0:0:
172,268,102367,1,0,0:0:0:0:
88,220,102884,1,0,0:0:0:0:
252,120,103919,38,0,P|340:184|268:276,1,240,4|4,0:0|0:0,0:0:0:0:
208,208,105470,1,0,0:0:0:0:
136,272,105988,2,0,P|112:208|128:156,1,120,4|0,0:0|0:0,0:0:0:0:
196,96,107022,1,4,0:0:0:0:
288,72,107539,1,0,0:0:0:0:
384,80,108057,6,0,P|424:136|420:192,1,120,4|0,0:0|0:0,0:0:0:0:
332,220,109091,2,0,L|204:248,1,120,4|0,0:0|0:0,0:0:0:0:
212,340,110126,2,0,L|340:312,1,120,4|0,0:0|0:0,0:0:0:0:
424,292,111160,1,4,0:0:0:0:
444,200,111677,1,0,0:0:0:0:
400,116,112195,54,0,P|320:40|252:128,1,240,4|4,0:0|0:0,0:0:0:0:
324,180,113746,1,0,0:0:0:0:
268,260,114264,2,0,P|324:276|384:256,1,120,4|0,0:0|0:0,0:0:0:0:
464,208,115298,2,0,L|420:88,1,120,4|0,0:0|0:0,0:0:0:0:
328,108,116333,6,0,L|372:228,1,120,4|0,0:0|0:0,0:0:0:0:
312,300,117367,1,0,0:0:0:0:
220,324,117884,2,0,L|192:376,2,59.9999999999999,0|8|4,0:0|0:0|0:0,0:0:0:0:
180,236,118919,1,0,0:0:0:0:
108,172,119436,2,0,P|88:104|104:56,1,120,4|0,0:0|0:0,0:0:0:0:
196,72,120470,53,4,0:0:0:0:
292,76,120988,1,0,0:0:0:0:
304,172,121505,1,4,0:0:0:0:
208,168,122022,2,0,L|164:216,1,59.9999999999999,0|8,0:0|0:0,0:0:0:0:
40,276,123315,54,0,P|64:324|128:344,2,120,0|8|0,0:0|0:0|0:0,0:0:0:0:
256,192,124608,12,0,128746,0:0:0:0:
