osu file format v14

[General]
AudioFilename: WUUUUUOOOOHHHHH.mp3
AudioLeadIn: 0
PreviewTime: 103337
Countdown: 0
SampleSet: Normal
StackLeniency: 0.3
Mode: 0
LetterboxInBreaks: 0
WidescreenStoryboard: 0

[Editor]
Bookmarks: 54264,132884
DistanceSpacing: 1.8
BeatDivisor: 4
GridSize: 4
TimelineZoom: 3.099999

[Metadata]
Title:Tengaku
TitleUnicode:天樂
Artist:Hanatan
ArtistUnicode:花たん
Creator:Kihhou
Version:Howl
Source:
Tags:music of heavens cut version vocaloid kagamine rin yuuyu-p utaite yurica yauxo kin okoratu neta giralda
BeatmapID:434913
BeatmapSetID:181142

[Difficulty]
HPDrainRate:6.5
CircleSize:4
OverallDifficulty:8
ApproachRate:9.5
SliderMultiplier:1.7
SliderTickRate:2

[Events]
//Background and Video events
0,0,"ringtingthegod.jpg",0,0
//Break Periods
//Storyboard Layer 0 (Background)
//Storyboard Layer 1 (Fail)
//Storyboard Layer 2 (Pass)
//Storyboard Layer 3 (Foreground)
//Storyboard Sound Samples

[TimingPoints]
471,258.620689655172,4,1,1,70,1,0
16505,-83.3333333333333,4,1,1,70,0,0
33057,-66.6666666666667,4,1,1,70,0,0
33574,-83.3333333333333,4,1,1,50,0,0
58402,-200,4,1,1,40,0,0
58660,-83.3333333333333,4,1,1,50,0,0
71333,-83.3333333333333,4,1,1,60,0,0
89436,-83.3333333333333,4,1,2,60,0,0
91505,-83.3333333333333,4,1,2,50,0,0
99781,-83.3333333333333,4,1,2,70,0,0
100298,-83.3333333333333,4,1,1,70,0,0
100363,-83.3333333333333,4,1,2,70,0,0
101333,-83.3333333333333,4,1,1,70,0,0
102755,-200,4,1,1,70,0,0
103402,-83.3333333333333,4,1,1,40,0,0
103919,-83.3333333333333,4,1,1,70,0,1
112130,-83.3333333333333,4,1,1,70,0,0
112195,-83.3333333333333,4,1,1,70,0,1
121505,-74.0740740740741,4,1,1,70,0,1
122022,-100,4,1,1,70,0,1
122410,-200,4,1,1,70,0,0
122992,-200,4,1,1,30,0,0
123121,-200,4,1,1,40,0,0
124091,-200,4,1,1,70,0,0
124156,-200,4,1,1,35,0,0
124608,-83.3333333333333,4,1,1,70,0,1
128746,-83.3333333333333,4,1,1,70,0,0

[Colours]
Combo1 : 133,133,133
Combo2 : 248,20,139
Combo3 : 167,9,206
Combo4 : 0,234,234
Combo5 : 176,176,255

[HitObjects]
236,35,16505,21,4,0:0:0:0:
240,68,17022,54,0,L|256:276,2,203.999993774414,4|8|0,0:0|0:0|0:0,0:0:0:0:
295,201,17669,1,0,0:0:0:0:
236,36,17798,1,8,0:0:0:0:
203,194,17927,6,0,P|123:234|27:170,1,203.999993774414,4|0,0:0|0:0,0:0:0:0:
128,80,18315,1,8,0:0:0:0:
224,168,18445,1,0,0:0:0:0:
348,100,18574,2,0,L|470:100,1,101.999996887207
216,28,18832,1,8,0:0:0:0:
123,216,18962,54,0,P|156:122|99:35,1,203.999993774414,4|0,0:0|0:0,0:0:0:0:
168,304,19350,1,8,0:0:0:0:
240,200,19479,1,0,0:0:0:0:
148,120,19608,1,0,0:0:0:0:
264,276,19738,1,0,0:0:0:0:
84,224,19867,1,8,0:0:0:0:
306,145,19996,6,0,P|356:138|418:146,1,101.999996887207
348,328,20255,1,0,0:0:0:0:
220,164,20384,2,0,L|214:51,1,101.999996887207,8|0,0:0|0:0,0:0:0:0:
440,196,20643,1,0,0:0:0:0:
498,80,20772,1,0,0:0:0:0:
294,135,20901,1,8,0:0:0:0:
358,18,21031,1,8,0:0:0:0:
428,224,21160,54,0,P|360:284|256:248,2,203.999993774414,4|8|0,0:0|0:0|0:0,0:0:0:0:
284,356,21806,1,0,0:0:0:0:
213,190,21936,1,8,0:0:0:0:
345,78,22065,6,0,L|334:180,1,101.999996887207,4|0,0:0|0:0,0:0:0:0:
213,342,22324,1,0,0:0:0:0:
252,176,22454,1,8,0:0:0:0:
119,64,22583,2,0,L|130:165,1,101.999996887207,4|0,0:0|0:0,0:0:0:0:
145,324,22841,1,0,0:0:0:0:
287,163,22970,1,8,0:0:0:0:
40,212,23100,54,0,P|1:121|49:35,1,203.999993774414,4|0,0:0|0:0,0:0:0:0:
172,211,23487,1,8,0:0:0:0:
298,125,23617,1,0,0:0:0:0:
128,92,23746,1,0,0:0:0:0:
248,256,23875,1,0,0:0:0:0:
312,80,24005,1,8,0:0:0:0:
156,188,24134,6,0,P|116:260|176:360,1,203.999993774414
403,256,24522,1,12,0:0:0:0:
252,334,24651,1,8,0:0:0:0:
184,168,24781,1,12,0:0:0:0:
365,296,24910,1,8,0:0:0:0:
302,138,25039,1,8,0:0:0:0:
149,333,25169,1,8,0:0:0:0:
228,83,25298,54,0,P|319:52|390:119,1,203.999993774414,4|8,0:0|0:0,0:0:0:0:
372,328,25686,1,0,0:0:0:0:
196,248,25816,1,0,0:0:0:0:
302,138,25945,1,0,0:0:0:0:
388,308,26074,1,8,0:0:0:0:
332,56,26203,6,0,P|264:57|224:88,1,101.999996887207,4|0,0:0|0:0,0:0:0:0:
172,224,26462,1,0,0:0:0:0:
68,143,26591,2,0,L|56:31,1,101.999996887207,8|0,0:0|0:0,0:0:0:0:
167,301,26850,2,0,B|195:282|201:245|201:245|133:280|62:268,1,203.999993774414,0|8,0:0|0:0,0:0:0:0:
312,84,27237,54,0,B|364:64|412:88|412:88|468:116|512:64,1,203.999993774414,4|0,0:0|0:0,0:0:0:0:
356,164,27625,2,0,P|300:196|248:192,1,101.999996887207,8|0,0:0|0:0,0:0:0:0:
388,240,27884,2,0,P|472:248|420:176,1,203.999993774414,0|8,0:0|0:0,0:0:0:0:
180,288,28272,6,0,P|72:256|56:172,1,203.999993774414,4|0,0:0|0:0,0:0:0:0:
293,202,28660,2,0,L|388:240,1,101.999996887207,8|0,0:0|0:0,0:0:0:0:
276,110,28919,1,0,0:0:0:0:
149,197,29048,1,0,0:0:0:0:
60,100,29177,1,8,0:0:0:0:
192,16,29306,1,8,0:0:0:0:
144,248,29436,54,0,P|235:291|319:237,2,203.999993774414,4|8|0,0:0|0:0|0:0,0:0:0:0:
132,72,30082,1,0,0:0:0:0:
324,40,30212,1,8,0:0:0:0:
228,180,30341,6,0,L|245:383,1,203.999993774414,4|0,0:0|0:0,0:0:0:0:
292,288,30729,1,4,0:3:0:0:
176,232,30858,1,4,0:3:0:0:
304,176,30987,1,4,0:3:0:0:
204,104,31117,1,4,0:3:0:0:
344,76,31246,1,4,0:3:0:0:
212,16,31375,1,4,0:3:0:0:
472,40,31505,53,4,0:0:0:0:
312,67,31634,1,8,0:0:0:0:
55,140,31893,5,4,0:0:0:0:
212,168,32022,1,8,0:0:0:0:
388,307,32281,53,12,0:0:0:0:
352,152,32410,1,8,0:0:0:0:
124,374,32669,5,4,0:0:0:0:
323,279,32798,2,0,P|268:275|219:298,1,101.999996887207,8|8,0:0|0:0,0:0:0:0:
360,330,33057,38,0,P|356:224|259:275,1,255.000009727478,4|0,0:0|0:0,0:0:0:0:
280,366,33445,1,0,0:0:0:0:
360,330,33574,38,0,B|424:336|424:336|408:272,1,101.999996887207,4|0,0:0|0:0,0:0:0:0:
380,228,33832,2,0,L|372:104,1,101.999996887207,8|0,0:0|0:0,0:0:0:0:
240,188,34091,2,0,L|136:232,1,101.999996887207
256,76,34350,1,8,0:0:0:0:
380,228,34479,6,0,L|475:267,1,101.999996887207,0|0,0:0|0:0,0:0:0:0:
264,176,34737,2,0,L|169:137,1,101.999996887207,0|8,0:0|0:0,0:0:0:0:
352,112,34996,2,0,P|372:176|284:280,1,203.999993774414
295,277,35384,2,0,L|399:313,1,101.999996887207,8|8,0:0|0:0,0:0:0:0:
140,168,35643,54,0,L|44:116,1,101.999996887207
264,124,35901,2,0,L|360:72,1,101.999996887207,8|0,0:0|0:0,0:0:0:0:
140,168,36160,2,0,P|60:200|28:192,1,101.999996887207
148,60,36419,1,8,0:0:0:0:
264,124,36548,6,0,P|324:120|408:12,1,203.999993774414
284,204,36936,2,0,P|208:184|200:72,2,203.999993774414,8|0|8,0:0|0:0|0:0,0:0:0:0:
264,124,37582,1,8,0:0:0:0:
256,280,37712,53,0,0:0:0:0:
276,268,37970,2,0,L|380:304,1,101.999996887207,8|0,0:0|0:0,0:0:0:0:
168,184,38229,2,0,L|64:148,1,101.999996887207
296,256,38487,1,8,0:0:0:0:
408,176,38617,6,0,L|512:176,1,101.999996887207
296,264,38875,1,0,0:0:0:0:
200,152,39005,2,0,L|88:152,1,101.999996887207,8|0,0:0|0:0,0:0:0:0:
296,272,39263,1,0,0:0:0:0:
361,100,39393,2,0,L|473:100,1,101.999996887207,0|8,0:0|0:0,0:0:0:0:
296,280,39651,1,8,0:0:0:0:
106,339,39781,54,0,L|130:231,1,101.999996887207
236,84,40039,2,0,L|248:188,1,101.999996887207,8|0,0:0|0:0,0:0:0:0:
388,217,40298,1,0,0:0:0:0:
388,217,40427,2,0,P|442:178|457:135,1,101.999996887207
360,336,40686,6,0,P|260:368|156:328,1,203.999993774414
133,207,41074,1,8,0:0:0:0:
353,63,41203,2,0,L|344:167,1,101.999996887207
331,306,41462,1,0,0:0:0:0:
220,236,41591,1,8,0:0:0:0:
379,147,41720,1,8,0:0:0:0:
208,248,41850,53,4,0:0:0:0:
196,260,42108,2,0,L|176:144,1,101.999996887207,8|0,0:0|0:0,0:0:0:0:
182,271,42367,2,0,L|200:372,1,101.999996887207
268,176,42625,1,8,0:0:0:0:
168,284,42755,6,0,P|120:316|68:324,1,101.999996887207
92,147,43013,2,0,P|140:115|192:107,1,101.999996887207,0|8,0:0|0:0,0:0:0:0:
340,236,43272,2,0,P|400:248|472:144,1,203.999993774414
268,176,43660,2,0,L|148:196,1,101.999996887207,8|0,0:0|0:0,0:0:0:0:
376,284,43919,54,0,L|476:298,1,101.999996887207
364,268,44177,2,0,L|464:282,1,101.999996887207,8|0,0:0|0:0,0:0:0:0:
352,252,44436,2,0,L|452:266,1,101.999996887207,0|0,0:0|0:0,0:0:0:0:
200,276,44694,1,8,0:0:0:0:
340,236,44824,6,0,L|440:250,1,101.999996887207
200,288,45082,1,0,0:0:0:0:
288,172,45212,1,8,0:0:0:0:
388,300,45341,2,0,P|464:280|460:160,1,203.999993774414
377,89,45729,1,8,0:0:0:0:
256,208,45858,1,8,0:0:0:0:
327,12,45987,53,0,0:0:0:0:
336,20,46246,2,0,L|337:128,1,101.999996887207,8|0,0:0|0:0,0:0:0:0:
129,170,46505,2,0,L|129:68,1,101.999996887207
344,28,46763,1,8,0:0:0:0:
164,202,46893,2,0,L|164:66,1,101.999996887207
352,36,47151,5,8,0:0:0:0:
200,239,47281,2,0,L|200:119,1,101.999996887207,8|0,0:0|0:0,0:0:0:0:
360,44,47539,2,0,P|416:136|368:224,1,203.999993774414,0|8,0:0|0:0,0:0:0:0:
152,43,47927,54,0,P|96:124|132:215,1,203.999993774414,8|0,0:0|0:0,0:0:0:0:
344,216,48315,2,0,L|452:216,1,101.999996887207,12|0,0:0|0:0,0:0:0:0:
200,276,48574,2,0,L|96:276,1,101.999996887207,8|0,0:0|0:0,0:0:0:0:
384,144,48833,2,0,L|492:144,1,101.999996887207,12|0,0:0|0:0,0:0:0:0:
180,204,49091,5,0,0:0:0:0:
236,56,49220,1,0,0:0:0:0:
172,196,49350,1,4,0:0:0:0:
312,100,49479,1,0,0:0:0:0:
164,188,49608,2,0,P|158:249|166:299,1,101.999996887207,0|8,0:0|0:0,0:0:0:0:
368,352,49867,2,0,P|374:291|366:241,1,101.999996887207,0|8,0:0|0:0,0:0:0:0:
116,40,50125,1,4,0:0:0:0:
256,192,50190,12,4,54264,0:0:0:0:
291,167,54522,54,0,P|341:179|392:178,1,101.999996887207,8|0,0:0|0:0,0:0:0:0:
180,252,54781,2,0,P|96:264|36:252,2,101.999996887207,0|0|8,0:0|0:0|0:0,0:0:0:0:
392,178,55169,6,0,P|420:102|328:130,1,203.999993774414,4|0,0:0|0:0,0:0:0:0:
272,268,55557,1,8,0:0:0:0:
104,248,55686,2,0,P|92:160|104:136,1,101.999996887207,0|8,0:0|0:0,0:0:0:0:
244,76,55945,1,8,0:0:0:0:
212,80,56009,1,0,0:0:0:0:
180,88,56074,1,8,0:0:0:0:
384,112,56203,54,0,B|452:134|498:179|498:179|456:181|429:186,1,203.999993774414,4|0,0:0|0:0,0:0:0:0:
264,200,56591,2,0,P|204:212|160:236,1,101.999996887207,8|8,0:3|0:3,0:0:0:0:
384,192,56850,1,8,0:3:0:0:
224,296,56979,2,0,P|164:332|128:368,1,101.999996887207,8|8,0:3|0:3,0:0:0:0:
68,210,57238,6,0,B|84:126|132:82|132:82|140:114|160:138,1,203.999993774414,4|0,0:0|0:0,0:0:0:0:
374,250,57626,2,0,B|341:210|278:189|278:189|363:168,1,203.999993774414
256,304,58014,1,4,0:0:0:0:
148,168,58143,1,0,0:0:0:0:
364,167,58272,1,0,0:0:0:0:
298,228,58402,6,0,P|274:256|264:283,1,63.75
256,304,58660,38,0,L|136:304,1,101.999996887207,12|0,0:0|0:0,0:0:0:0:
291,104,58919,2,0,P|308:167|303:228,1,101.999996887207
256,312,59177,1,8,0:0:0:0:
112,216,59306,6,0,P|76:256|72:316,1,101.999996887207
152,144,59565,2,0,P|98:137|47:168,1,101.999996887207,0|8,0:0|0:0,0:0:0:0:
232,132,59824,2,0,P|336:184|344:272,1,203.999993774414
148,290,60212,2,0,P|160:342|206:380,1,101.999996887207,8|8,0:0|0:0,0:0:0:0:
232,132,60470,54,0,P|230:77|192:31,1,101.999996887207
232,144,60729,2,0,P|279:170|339:160,1,101.999996887207,8|0,0:0|0:0,0:0:0:0:
232,156,60988,2,0,P|185:184|164:240,1,101.999996887207
292,312,61246,1,8,0:0:0:0:
344,188,61375,6,0,P|420:176|472:200,2,101.999996887207
224,264,61763,1,8,0:0:0:0:
336,350,61893,2,0,P|392:271|343:187,1,203.999993774414
188,348,62281,1,8,0:0:0:0:
300,268,62410,1,8,0:0:0:0:
44,316,62539,53,0,0:0:0:0:
44,300,62798,2,0,L|44:192,1,101.999996887207,8|0,0:0|0:0,0:0:0:0:
216,168,63056,2,0,P|296:188|320:220,1,101.999996887207
116,284,63315,1,8,0:0:0:0:
225,156,63444,6,0,P|295:200|308:238,1,101.999996887207
64,224,63703,1,0,0:0:0:0:
237,149,63832,2,0,P|290:212|291:252,1,101.999996887207,8|0,0:0|0:0,0:0:0:0:
172,100,64091,2,0,L|128:0,1,101.999996887207
156,220,64350,1,8,0:0:0:0:
248,68,64479,54,0,P|332:52|404:136,1,203.999993774414
316,244,64867,2,0,L|305:142,1,101.999996887207,8|0,0:0|0:0,0:0:0:0:
420,268,65125,2,0,L|432:380,1,101.999996887207
403,134,65384,1,8,0:0:0:0:
312,232,65513,6,0,B|260:252|256:216|197:258,1,101.999996887207
155,333,65772,1,0,0:0:0:0:
210,147,65901,1,8,0:0:0:0:
100,255,66031,2,0,P|50:264|1:250,1,101.999996887207
232,312,66289,2,0,P|276:296|348:328,1,101.999996887207,0|8,0:0|0:0,0:0:0:0:
39,354,66548,1,8,0:0:0:0:
140,220,66677,53,4,0:0:0:0:
180,184,66936,2,0,P|248:144|364:196,2,203.999993774414,8|0|8,0:0|0:0|0:0,0:0:0:0:
180,312,67582,6,0,P|248:352|364:300,1,203.999993774414
460,240,67970,2,0,L|356:312,1,101.999996887207,8|0,0:0|0:0,0:0:0:0:
260,168,68229,2,0,L|379:210,1,101.999996887207
508,136,68487,2,0,L|381:146,1,101.999996887207,8|0,0:0|0:0,0:0:0:0:
175,156,68746,54,0,P|123:248|179:320,1,203.999993774414,0|8,0:0|0:0,0:0:0:0:
488,221,69134,1,0,0:0:0:0:
398,311,69263,2,0,L|287:303,1,101.999996887207
407,139,69522,6,0,B|403:95|370:69|370:69|409:14|482:38,2,203.999993774414,8|0|8,0:0|0:0|0:0,0:0:0:0:
375,283,70169,1,0,0:0:0:0:
319,144,70298,2,0,P|264:129|191:153,1,101.999996887207
108,340,70557,1,8,0:0:0:0:
223,268,70686,1,8,0:0:0:0:
379,355,70815,2,0,L|480:351,2,101.999996887207,0|0|8,0:0|0:0|0:0,0:0:0:0:
152,288,71332,54,0,L|50:288,1,101.999996887207,0|8,0:0|0:0,0:0:0:0:
328,260,71591,1,8,0:0:0:0:
236,280,71720,1,8,0:0:0:0:
140,304,71850,2,0,L|28:304,1,101.999996887207
328,356,72108,1,8,0:0:0:0:
236,336,72237,1,8,0:0:0:0:
128,320,72367,2,0,L|26:320,1,101.999996887207
268,160,72625,2,0,P|284:120|264:48,1,101.999996887207,8|8,0:0|0:0,0:0:0:0:
378,171,72884,6,0,B|416:181|416:181|436:196|436:196|472:206,2,101.999996887207,0|0|12,0:0|0:0|0:0,0:0:0:0:
306,244,73401,2,0,B|311:274|311:274|319:287|319:287|315:321|315:321|328:345,2,101.999996887207,0|0|12,0:0|0:0|0:0,0:0:0:0:
390,260,73919,2,0,B|405:267|415:290|415:290|425:283|425:283|436:317|462:331,2,101.999996887207,0|0|12,0:0|0:0|0:0,0:0:0:0:
172,212,74436,6,0,L|56:272,1,101.999996887207
344,104,74694,2,0,L|444:44,1,101.999996887207,8|8,0:0|0:0,0:0:0:0:
244,211,74953,38,0,P|161:219|200:146,1,203.999993774414,4|8,0:0|0:0,0:0:0:0:
309,144,75341,1,0,0:0:0:0:
282,347,75470,1,0,0:0:0:0:
336,256,75600,1,0,0:0:0:0:
174,355,75729,1,8,0:0:0:0:
386,342,75858,6,0,P|436:244|384:168,1,203.999993774414
304,200,76246,2,0,L|208:234,1,101.999996887207,8|0,0:0|0:0,0:0:0:0:
320,228,76505,1,0,0:0:0:0:
152,168,76634,1,8,0:0:0:0:
320,264,76763,1,0,0:0:0:0:
140,140,76893,1,0,0:0:0:0:
312,288,77022,54,0,P|244:340|112:268,2,203.999993774414,0|8|0,0:0|0:0|0:0,0:0:0:0:
371,55,77669,1,0,0:0:0:0:
336,176,77798,1,8,0:0:0:0:
448,119,77927,6,0,P|361:53|262:78,1,203.999993774414
224,192,78315,2,0,P|192:240|124:256,1,101.999996887207,8|0,0:0|0:0,0:0:0:0:
224,156,78574,1,0,0:0:0:0:
124,256,78703,1,0,0:0:0:0:
208,112,78832,1,8,0:0:0:0:
84,244,78962,1,8,0:0:0:0:
248,284,79091,54,0,P|296:212|276:88,2,203.999993774414,4|8|0,0:0|0:0|0:0,0:0:0:0:
452,164,79737,1,0,0:0:0:0:
328,284,79867,1,8,0:0:0:0:
176,176,79996,6,0,L|408:216,1,203.999993774414
457,284,80384,1,8,0:0:0:0:
259,338,80513,1,0,0:0:0:0:
281,101,80643,1,0,0:0:0:0:
355,229,80772,1,8,0:0:0:0:
173,153,80901,2,0,L|44:163,1,101.999996887207,0|0,0:0|0:0,0:0:0:0:
371,200,81160,54,0,P|392:103|328:28,2,203.999993774414,0|8|0,0:0|0:0|0:0,0:0:0:0:
261,195,81806,1,0,0:0:0:0:
209,115,81936,2,0,P|259:101|313:115,1,101.999996887207,8|0,0:0|0:0,0:0:0:0:
140,200,82194,6,0,P|119:103|183:28,2,203.999993774414,0|8|0,0:0|0:0|0:0,0:0:0:0:
280,268,82841,1,0,0:0:0:0:
428,172,82970,1,8,0:0:0:0:
432,360,83100,1,0,0:0:0:0:
352,208,83229,54,0,P|256:176|188:246,2,203.999993774414,4|8|0,0:0|0:0|0:0,0:0:0:0:
340,72,83875,1,0,0:0:0:0:
200,108,84005,6,0,B|152:136|100:108|100:108|36:124|36:180|36:180,1,203.999993774414,8|0,0:0|0:0,0:0:0:0:
132,288,84393,1,0,0:0:0:0:
311,177,84522,1,8,0:0:0:0:
345,320,84651,1,0,0:0:0:0:
161,266,84781,1,0,0:0:0:0:
226,112,84910,1,8,0:0:0:0:
407,156,85039,2,0,L|509:154,1,101.999996887207
320,212,85298,54,0,P|260:232|168:132,1,203.999993774414,0|8,0:0|0:0,0:0:0:0:
282,37,85686,2,0,L|262:137,1,101.999996887207
156,300,85944,1,0,0:0:0:0:
39,221,86074,6,0,P|23:133|87:37,1,203.999993774414,8|0,0:0|0:0,0:0:0:0:
208,50,86462,1,0,0:0:0:0:
260,168,86591,1,8,0:0:0:0:
140,116,86720,1,0,0:0:0:0:
297,86,86850,1,0,0:0:0:0:
191,232,86979,1,8,0:0:0:0:
130,36,87108,2,0,L|28:45,1,101.999996887207
268,144,87367,54,0,P|276:256|216:332,2,203.999993774414,4|8|0,0:0|0:0|0:0,0:0:0:0:
164,112,88013,1,0,0:0:0:0:
328,76,88143,6,0,P|360:168|360:284,1,203.999993774414,8|0,0:0|0:0,0:0:0:0:
340,352,88531,1,0,0:0:0:0:
351,191,88660,1,0,0:0:0:0:
410,341,88789,1,0,0:0:0:0:
292,232,88919,1,8,0:0:0:0:
445,278,89048,1,0,0:0:0:0:
287,303,89177,1,0,0:0:0:0:
419,212,89306,1,8,0:0:0:0:
340,352,89436,53,8,0:0:0:0:
164,304,89565,1,8,0:0:0:0:
364,272,89824,5,8,0:0:0:0:
188,224,89953,1,8,0:0:0:0:
420,212,90212,53,8,0:0:0:0:
244,164,90341,2,0,B|219:129|219:129|306:163|377:107,1,203.999993774414,8|0,0:0|0:0,0:0:0:0:
272,236,90729,5,0,0:0:0:0:
160,156,90858,1,8,0:0:0:0:
37,230,90987,2,0,P|75:196|119:170,1,101.999996887207,8|8,0:0|0:0,0:0:0:0:
292,284,91246,2,0,P|256:248|212:222,1,101.999996887207,8|8,0:0|0:0,0:0:0:0:
60,104,91505,54,0,B|28:64|28:64|116:48|188:92,1,203.999993774414,0|12,0:0|0:0,0:0:0:0:
260,184,91893,1,0,0:0:0:0:
312,276,92022,2,0,P|420:308|512:276,1,203.999993774414,0|12,0:0|0:0,0:0:0:0:
228,236,92410,6,0,B|136:256|136:256|32:304,1,203.999993774414
128,352,92798,1,12,0:0:0:0:
228,328,92927,1,0,0:0:0:0:
328,352,93056,2,0,L|440:364,1,101.999996887207
156,268,93315,2,0,L|48:284,1,101.999996887207,0|8,0:0|0:0,0:0:0:0:
368,224,93574,54,0,P|412:156|352:40,2,203.999993774414,0|12|0,0:0|0:0|0:0,0:0:0:0:
188,240,94220,1,0,0:0:0:0:
336,244,94350,1,12,0:0:0:0:
160,212,94479,6,0,P|112:140|168:40,1,203.999993774414
248,212,94867,2,0,P|297:295|248:380,1,203.999993774414,12|8,0:0|0:0,0:0:0:0:
64,208,95255,1,8,0:0:0:0:
148,108,95384,1,8,0:0:0:0:
280,116,95514,1,8,0:0:0:0:
428,212,95643,54,0,P|478:154|396:45,2,203.999993774414,0|12|0,0:0|0:0|0:0,0:0:0:0:
292,24,96289,1,0,0:0:0:0:
396,132,96419,1,12,0:0:0:0:
274,216,96548,6,0,P|187:175|186:78,1,203.999993774414
396,131,96936,2,0,L|468:223,1,101.999996887207,12|0,0:0|0:0,0:0:0:0:
260,224,97195,2,0,L|158:231,1,101.999996887207,0|8,0:0|0:0,0:0:0:0:
408,132,97453,2,0,L|512:124,1,101.999996887207,0|8,0:0|0:0,0:0:0:0:
248,232,97712,54,0,P|148:276|68:216,2,203.999993774414,0|12|0,0:0|0:0|0:0,0:0:0:0:
287,327,98358,1,0,0:0:0:0:
330,154,98487,1,12,0:0:0:0:
456,292,98617,6,0,P|392:352|268:300,1,203.999993774414
204,136,99005,2,0,P|136:92|80:88,1,101.999996887207,12|0,0:0|0:0,0:0:0:0:
308,248,99263,2,0,P|376:292|432:296,1,101.999996887207,8|0,0:0|0:0,0:0:0:0:
256,312,99522,1,8,0:0:0:0:
256,184,99651,1,8,0:0:0:0:
256,56,99781,5,12,0:0:0:0:
256,88,100039,1,8,0:0:0:0:
256,112,100298,2,0,L|256:216,1,101.999996887207,8|0,0:0|0:0,0:0:0:0:
256,312,100556,1,12,0:0:0:0:
256,112,100686,22,0,L|256:10,2,101.999996887207,8|0|0,0:0|0:0|0:0,0:0:0:0:
207,344,101074,2,0,P|256:357|308:344,2,101.999996887207,4|0|8,0:0|0:0|0:0,0:0:0:0:
172,168,101850,53,8,0:0:0:0:
340,168,101979,1,8,0:0:0:0:
256,240,102108,1,8,0:0:0:0:
256,112,102237,1,8,0:0:0:0:
392,64,102367,1,8,0:0:0:0:
205,54,102496,1,8,0:0:0:0:
336,272,102625,1,8,0:0:0:0:
256,112,102755,54,0,B|245:69|205:54|205:54|220:89|181:156|124:91|112:158|160:148,1,226.666666666667,12|2,0:0|2:2,0:0:0:0:
173,126,103919,22,0,L|377:90,1,203.999993774414,4|8,0:0|0:0,0:0:0:0:
65,104,104307,1,0,0:0:0:0:
171,208,104436,2,0,L|271:190,1,101.999996887207
160,332,104694,2,0,P|109:337|63:318,1,101.999996887207,8|0,0:0|0:0,0:0:0:0:
271,191,104953,54,0,P|315:166|366:164,1,101.999996887207
404,280,105212,1,8,0:0:0:0:
300,52,105341,2,0,P|216:44|128:136,1,203.999993774414
372,84,105729,2,0,L|476:100,1,101.999996887207,8|0,0:0|0:0,0:0:0:0:
255,205,105987,5,4,0:0:0:0:
336,68,106117,1,0,0:0:0:0:
360,248,106246,1,8,0:0:0:0:
196,80,106375,2,0,P|120:56|4:108,1,203.999993774414
280,60,106763,2,0,P|356:36|416:52,1,101.999996887207,8|0,0:0|0:0,0:0:0:0:
456,160,107022,54,0,L|348:120,1,101.999996887207
172,204,107281,2,0,L|280:164,1,101.999996887207,8|0,0:0|0:0,0:0:0:0:
448,272,107539,2,0,L|354:205,1,101.999996887207
184,312,107798,2,0,L|277:245,1,101.999996887207,8|0,0:0|0:0,0:0:0:0:
456,292,108057,6,0,P|433:247|392:219,1,101.999996887207,4|0,0:0|0:0,0:0:0:0:
120,256,108315,1,8,0:0:0:0:
88,137,108445,1,0,0:0:0:0:
308,156,108574,54,0,P|363:146|404:127,1,101.999996887207
203,81,108832,1,8,0:0:0:0:
87,154,108962,1,0,0:0:0:0:
296,301,109091,6,0,P|306:245|288:185,1,101.999996887207,4|0,0:0|0:0,0:0:0:0:
46,41,109350,1,8,0:0:0:0:
90,170,109479,1,0,0:0:0:0:
282,23,109608,54,0,P|300:69|291:119,1,101.999996887207
95,185,109867,1,8,0:0:0:0:
157,12,109996,1,0,0:0:0:0:
404,128,110125,6,0,P|348:76|216:84,1,203.999993774414,4|8,0:0|0:0,0:0:0:0:
52,172,110513,1,0,0:0:0:0:
244,168,110643,1,8,0:0:0:0:
132,44,110772,1,0,0:0:0:0:
164,256,110901,1,8,0:0:0:0:
152,136,111031,1,0,0:0:0:0:
248,260,111160,54,0,P|324:300|432:244,1,203.999993774414,4|8,0:0|0:0,0:0:0:0:
320,116,111548,1,8,0:0:0:0:
484,64,111677,1,12,0:0:0:0:
340,208,111806,1,8,0:0:0:0:
244,56,111936,1,8,0:0:0:0:
279,34,112000,1,8,0:0:0:0:
319,24,112065,1,8,0:0:0:0:
359,30,112130,1,8,0:0:0:0:
395,56,112194,6,0,B|456:140|360:156|415:258,1,203.999993774414,4|8,0:0|0:0,0:0:0:0:
100,78,112712,2,0,B|76:128|128:144|80:208,1,101.999996887207
56,312,112970,2,0,P|128:316|164:296,1,101.999996887207,8|0,0:0|0:0,0:0:0:0:
336,42,113229,54,0,L|356:150,1,101.999996887207
368,320,113488,2,0,P|321:292|255:301,1,101.999996887207,8|0,0:0|0:0,0:0:0:0:
199,321,113682,1,0,0:0:0:0:
199,321,113746,2,0,L|138:275,1,50.9999984436036
68,221,113876,1,0,0:0:0:0:
248,135,114005,1,8,0:0:0:0:
199,321,114134,1,0,0:0:0:0:
433,326,114263,6,0,P|445:273|432:228,1,101.999996887207,4|0,0:0|0:0,0:0:0:0:
237,130,114522,1,8,0:0:0:0:
116,310,114652,1,0,0:0:0:0:
279,233,114781,1,0,0:0:0:0:
418,347,114910,1,0,0:0:0:0:
336,136,115039,2,0,P|260:124|216:140,1,101.999996887207,8|0,0:0|0:0,0:0:0:0:
216,140,115233,1,0,0:0:0:0:
196,156,115298,54,0,B|152:200|172:264,1,101.999996887207
340,308,115556,2,0,B|361:266|329:210,1,101.999996887207,8|0,0:0|0:0,0:0:0:0:
72,156,115815,2,0,B|18:187|20:254,1,101.999996887207
336,136,116074,2,0,P|358:82|370:19,1,101.999996887207,8|0,0:0|0:0,0:0:0:0:
161,142,116332,6,0,P|139:88|127:25,1,101.999996887207
265,201,116591,1,8,0:0:0:0:
265,201,116656,1,0,0:0:0:0:
265,201,116720,1,0,0:0:0:0:
356,48,116850,54,0,B|381:54|381:54|416:32|464:48,1,101.999996887207,4|0,0:0|0:0,0:0:0:0:
256,205,117108,1,8,0:0:0:0:
332,336,117238,1,0,0:0:0:0:
456,220,117367,2,0,P|458:174|435:122,1,101.999996887207
246,201,117625,1,8,0:0:0:0:
246,201,117690,1,0,0:0:0:0:
246,201,117755,1,0,0:0:0:0:
56,220,117884,6,0,B|28:180|28:180|56:120,1,101.999996887207,4|0,0:0|0:0,0:0:0:0:
242,192,118143,1,8,0:0:0:0:
364,72,118272,1,0,0:0:0:0:
502,290,118401,2,0,P|454:305|408:288,1,101.999996887207
246,182,118660,1,8,0:0:0:0:
246,182,118725,1,0,0:0:0:0:
246,182,118789,1,0,0:0:0:0:
88,99,118919,54,0,B|72:98|52:86|52:86|92:138,1,101.999996887207,4|0,0:0|0:0,0:0:0:0:
256,178,119177,1,8,0:0:0:0:
276,330,119307,1,0,0:0:0:0:
58,317,119436,2,0,B|43:287|43:287|44:245|73:206,1,101.999996887207
265,182,119695,1,8,0:0:0:0:
153,230,119825,1,0,0:0:0:0:
136,16,119953,5,8,0:0:0:0:
248,64,120083,1,8,0:0:0:0:
269,192,120212,1,8,0:0:0:0:
256,212,120276,1,8,0:0:0:0:
232,224,120341,1,8,0:0:0:0:
208,216,120406,1,8,0:0:0:0:
196,196,120470,54,0,P|232:124|344:188,1,203.999993774414,4|8,0:0|0:0,0:0:0:0:
320,316,120858,1,8,0:0:0:0:
155,271,120987,2,0,P|124:177|164:86,1,203.999993774414,4|8,0:0|0:0,0:0:0:0:
360,24,121375,1,8,0:0:0:0:
204,152,121505,6,0,P|132:156|136:16,1,229.500000875473,4|8,0:0|0:0,0:0:0:0:
256,84,121893,1,8,0:0:0:0:
304,244,122022,2,0,P|385:285|462:229,1,170,4|8,0:0|0:0,0:0:0:0:
240,304,122410,38,2,P|172:232|228:228,1,212.5,0|0,0:0|2:0,0:0:0:0:
217,223,123315,1,0,2:0:0:0:
283,311,123574,1,0,2:0:0:0:
260,122,123833,1,0,2:0:0:0:
108,236,124091,1,8,0:0:0:0:
108,236,124350,2,0,L|160:288,1,63.75,0|4,0:0|0:0,0:0:0:0:
176,300,124608,6,0,P|248:312|316:304,1,101.999996887207,4|0,0:0|0:0,0:0:0:0:
384,108,124867,2,0,P|312:96|244:104,1,101.999996887207,8|0,0:0|0:0,0:0:0:0:
40,172,125126,5,0,0:0:0:0:
212,196,125255,1,0,0:0:0:0:
152,20,125384,1,8,0:0:0:0:
40,188,125514,54,0,P|56:272|144:364,1,203.999993774414,4|0,0:0|0:0,0:0:0:0:
303,124,125902,1,8,0:0:0:0:
292,144,126160,5,0,0:0:0:0:
144,344,126289,1,0,0:0:0:0:
312,236,126419,1,8,0:0:0:0:
61,301,126548,54,0,P|16:210|25:110,1,203.999993774414,4|0,0:0|0:0,0:0:0:0:
336,67,126936,1,8,0:0:0:0:
314,71,127195,5,0,0:0:0:0:
291,256,127324,1,0,0:0:0:0:
114,207,127453,1,8,0:0:0:0:
304,328,127583,54,0,P|408:328|500:368,1,203.999993774414,4|0,0:0|0:0,0:0:0:0:
333,54,127970,1,8,0:0:0:0:
343,74,128229,5,0,0:0:0:0:
248,248,128358,1,0,0:0:0:0:
227,85,128488,2,0,L|260:159,1,50.9999984436036,8|0,0:0|0:0,0:0:0:0:
402,172,128617,2,0,L|320:183,1,50.9999984436036
200,328,128746,53,4,0:0:0:0:
