osu file format v14

[General]
AudioFilename: WUUUUUOOOOHHHHH.mp3
AudioLeadIn: 0
PreviewTime: 103337
Countdown: 0
SampleSet: Normal
StackLeniency: 0.7
Mode: 0
LetterboxInBreaks: 0
WidescreenStoryboard: 0

[Editor]
Bookmarks: 33574
DistanceSpacing: 0.5
BeatDivisor: 4
GridSize: 32
TimelineZoom: 2.1

[Metadata]
Title:Tengaku
TitleUnicode:天樂
Artist:Hanatan
ArtistUnicode:花たん
Creator:Kihhou
Version:Giralda's Insane
Source:
Tags:music of heavens cut version vocaloid kagamine rin yuuyu-p utaite yurica yauxo kin okoratu neta giralda
BeatmapID:443267
BeatmapSetID:181142

[Difficulty]
HPDrainRate:6.5
CircleSize:4
OverallDifficulty:7
ApproachRate:9
SliderMultiplier:1.8
SliderTickRate:2

[Events]
//Background and Video events
0,0,"ringtingthegod.jpg",0,0
//Break Periods
2,54464,58060
//Storyboard Layer 0 (Background)
//Storyboard Layer 1 (Fail)
//Storyboard Layer 2 (Pass)
//Storyboard Layer 3 (Foreground)
//Storyboard Sound Samples

[TimingPoints]
471,258.620689655172,4,1,1,80,1,0
16505,-100,4,1,1,80,0,0
18186,-100,4,1,3,80,0,0
18315,-100,4,1,1,80,0,0
19220,-100,4,1,3,80,0,0
19350,-100,4,1,1,80,0,0
22324,-100,4,1,3,80,0,0
22453,-100,4,1,1,80,0,0
23358,-100,4,1,3,80,0,0
23488,-100,4,1,1,80,0,0
24393,-100,4,1,3,80,0,0
24522,-100,4,1,1,80,0,0
24910,-100,4,1,3,80,0,0
25298,-100,4,1,1,80,0,0
25815,-100,4,1,1,65,0,0
26203,-100,4,1,1,70,0,0
27238,-100,4,1,1,75,0,0
28272,-100,4,1,1,80,0,0
29436,-100,4,1,1,90,0,0
31505,-100,4,1,1,70,0,0
33574,-100,4,1,2,65,0,0
33962,-100,4,1,2,55,0,0
34091,-100,4,1,2,65,0,0
34479,-100,4,1,2,55,0,0
34608,-100,4,1,2,65,0,0
34738,-100,4,1,2,55,0,0
34996,-100,4,1,2,60,0,0
35126,-100,4,1,2,65,0,0
35255,-100,4,1,2,55,0,0
35384,-100,4,1,2,65,0,0
35514,-100,4,1,2,55,0,0
35643,-100,4,1,2,65,0,0
35772,-100,4,1,2,55,0,0
35902,-100,4,1,2,65,0,0
36031,-100,4,1,2,55,0,0
36160,-100,4,1,2,65,0,0
36548,-100,4,1,2,55,0,0
36936,-100,4,1,2,65,0,0
37065,-100,4,1,2,55,0,0
37195,-100,4,1,2,65,0,0
37583,-100,4,1,2,55,0,0
37712,-100,4,1,2,65,0,0
38100,-100,4,1,2,55,0,0
38229,-100,4,1,2,65,0,0
38617,-100,4,1,2,55,0,0
39005,-100,4,1,2,65,0,0
39134,-100,4,1,2,55,0,0
39264,-100,4,1,2,65,0,0
39393,-100,4,1,2,55,0,0
39781,-100,4,1,2,65,0,0
40169,-100,4,1,2,55,0,0
40298,-100,4,1,2,65,0,0
40427,-100,4,1,2,55,0,0
40557,-100,4,1,2,65,0,0
40686,-100,4,1,2,55,0,0
41074,-100,4,1,2,65,0,0
41203,-100,4,1,2,55,0,0
41333,-100,4,1,2,65,0,0
41462,-100,4,1,2,55,0,0
41591,-100,4,1,2,65,0,0
41720,-100,4,1,2,55,0,0
41850,-100,4,1,2,65,0,0
41979,-100,4,1,2,55,0,0
42108,-100,4,1,2,65,0,0
42238,-100,4,1,2,55,0,0
42367,-100,4,1,2,65,0,0
42755,-100,4,1,2,55,0,0
42884,-100,4,1,2,65,0,0
43014,-100,4,1,2,55,0,0
43143,-100,4,1,2,65,0,0
43272,-100,4,1,2,55,0,0
43660,-100,4,1,2,65,0,0
43789,-100,4,1,2,55,0,0
43919,-100,4,1,2,65,0,0
44307,-100,4,1,2,55,0,0
44436,-100,4,1,2,65,0,0
44824,-100,4,1,2,55,0,0
44953,-100,4,1,2,65,0,0
45083,-100,4,1,2,55,0,0
45212,-100,4,1,2,65,0,0
45341,-100,4,1,2,55,0,0
45470,-100,4,1,2,65,0,0
45600,-100,4,1,2,55,0,0
45729,-100,4,1,2,65,0,0
45858,-100,4,1,2,55,0,0
45988,-100,4,1,2,65,0,0
46505,-100,4,1,0,70,0,0
46764,-100,4,1,2,70,0,0
46893,-100,4,1,2,65,0,0
47281,-100,4,1,2,70,0,0
47410,-100,4,1,2,55,0,0
47539,-100,4,1,2,70,0,0
47669,-100,4,1,2,65,0,0
47798,-100,4,1,2,70,0,0
47927,-100,4,1,2,55,0,0
48186,-100,4,1,2,65,0,0
48315,-100,4,1,2,70,0,0
48445,-100,4,1,2,55,0,0
48574,-100,4,1,2,70,0,0
48962,-100,4,1,2,55,0,0
49091,-100,4,1,2,70,0,0
49608,-100,4,1,2,60,0,0
49867,-100,4,1,2,70,0,0
54264,-100,4,1,2,75,0,0
58789,-100,4,1,2,55,0,0
58919,-100,4,1,2,70,0,0
59048,-100,4,1,2,55,0,0
59177,-100,4,1,2,70,0,0
59307,-100,4,1,2,55,0,0
59436,-100,4,1,2,70,0,0
59565,-100,4,1,2,55,0,0
59953,-100,4,1,2,70,0,0
60083,-100,4,1,2,55,0,0
60212,-100,4,1,2,70,0,0
60341,-100,4,1,2,55,0,0
60470,-100,4,1,2,70,0,0
60600,-100,4,1,2,55,0,0
60729,-100,4,1,2,70,0,0
60858,-100,4,1,2,55,0,0
60988,-100,4,1,2,70,0,0
61117,-100,4,1,2,55,0,0
61246,-100,4,1,2,70,0,0
61376,-100,4,1,2,55,0,0
61764,-100,4,1,2,70,0,0
61893,-100,4,1,2,55,0,0
62022,-100,4,1,2,70,0,0
62152,-100,4,1,2,55,0,0
62281,-100,4,1,2,70,0,0
62410,-100,4,1,2,55,0,0
62539,-100,4,1,2,70,0,0
62669,-100,4,1,2,55,0,0
62798,-100,4,1,2,70,0,0
63186,-100,4,1,2,55,0,0
63315,-100,4,1,2,70,0,0
63445,-100,4,1,2,55,0,0
63833,-100,4,1,2,70,0,0
64220,-100,4,1,2,55,0,0
64350,-100,4,1,2,70,0,0
64479,-100,4,1,2,55,0,0
64867,-100,4,1,2,70,0,0
64996,-100,4,1,2,55,0,0
65126,-100,4,1,2,70,0,0
65255,-100,4,1,2,55,0,0
65384,-100,4,1,2,70,0,0
65514,-100,4,1,2,55,0,0
65643,-100,4,1,2,70,0,0
65772,-100,4,1,2,55,0,0
66160,-100,4,1,2,70,0,0
66289,-100,4,1,2,55,0,0
66419,-100,4,1,2,70,0,0
66548,-100,4,1,2,55,0,0
66677,-100,4,1,2,70,0,0
66807,-100,4,1,2,55,0,0
66936,-100,4,1,2,70,0,0
67065,-100,4,1,2,55,0,0
67195,-100,4,1,2,70,0,0
67324,-100,4,1,2,55,0,0
67453,-100,4,1,2,70,0,0
67583,-100,4,1,2,55,0,0
67970,-100,4,1,2,70,0,0
68100,-100,4,1,2,55,0,0
68229,-100,4,1,2,70,0,0
68617,-100,4,1,2,55,0,0
68746,-100,4,1,2,70,0,0
69134,-100,4,1,2,55,0,0
69264,-100,4,1,2,70,0,0
69393,-100,4,1,2,55,0,0
69522,-100,4,1,2,70,0,0
69652,-100,4,1,2,55,0,0
69781,-100,4,1,2,70,0,0
69910,-100,4,1,2,55,0,0
70039,-100,4,1,2,70,0,0
70427,-100,4,1,2,55,0,0
70557,-100,4,1,2,70,0,0
70686,-100,4,1,2,55,0,0
70815,-100,4,1,2,70,0,0
71203,-100,4,1,2,55,0,0
71333,-100,4,1,2,70,0,0
71462,-100,4,1,2,55,0,0
71591,-100,4,1,2,70,0,0
71720,-100,4,1,2,55,0,0
71850,-100,4,1,2,70,0,0
72238,-100,4,1,2,55,0,0
72367,-100,4,1,2,70,0,0
72496,-100,4,1,2,55,0,0
72626,-100,4,1,2,70,0,0
72755,-100,4,1,2,55,0,0
72884,-100,4,1,2,70,0,0
73014,-100,4,1,2,55,0,0
73143,-100,4,1,2,70,0,0
73531,-100,4,1,2,55,0,0
73660,-100,4,1,2,70,0,0
74048,-100,4,1,2,55,0,0
74177,-100,4,1,2,70,0,0
74565,-100,4,1,2,55,0,0
74695,-100,4,1,2,70,0,0
74824,-100,4,1,2,55,0,0
74953,-100,4,1,2,70,0,0
75341,-100,4,1,2,55,0,0
75470,-100,4,1,2,70,0,0
75600,-100,4,1,2,55,0,0
75729,-100,4,1,2,70,0,0
75858,-100,4,1,2,55,0,0
75988,-100,4,1,2,70,0,0
76117,-100,4,1,2,55,0,0
76246,-100,4,1,2,70,0,0
76376,-100,4,1,2,55,0,0
76505,-100,4,1,2,70,0,0
76634,-100,4,1,2,55,0,0
76764,-100,4,1,2,70,0,0
76893,-100,4,1,2,55,0,0
77022,-100,4,1,2,70,0,0
77410,-100,4,1,2,55,0,0
77539,-100,4,1,2,70,0,0
77669,-100,4,1,2,55,0,0
77798,-100,4,1,2,70,0,0
77927,-100,4,1,2,55,0,0
78057,-100,4,1,2,70,0,0
78445,-100,4,1,2,55,0,0
78833,-100,4,1,2,70,0,0
78962,-100,4,1,2,55,0,0
79091,-100,4,1,2,70,0,0
79738,-100,4,1,2,55,0,0
79867,-100,4,1,2,70,0,0
79996,-100,4,1,2,55,0,0
80126,-100,4,1,2,70,0,0
80255,-100,4,1,2,55,0,0
80384,-100,4,1,2,70,0,0
80514,-100,4,1,2,55,0,0
80643,-100,4,1,2,70,0,0
80772,-100,4,1,2,55,0,0
80902,-100,4,1,2,70,0,0
81031,-100,4,1,2,55,0,0
81160,-100,4,1,2,70,0,0
81548,-100,4,1,2,55,0,0
81677,-100,4,1,2,70,0,0
81807,-100,4,1,2,55,0,0
81936,-100,4,1,2,70,0,0
82065,-100,4,1,2,55,0,0
82195,-100,4,1,2,70,0,0
82324,-100,4,1,2,55,0,0
82453,-100,4,1,2,70,0,0
82583,-100,4,1,2,55,0,0
82712,-100,4,1,2,70,0,0
83229,-100,4,1,2,80,0,0
83617,-100,4,1,2,55,0,0
83746,-100,4,1,2,80,0,0
83876,-100,4,1,2,55,0,0
84005,-100,4,1,2,80,0,0
84134,-100,4,1,2,55,0,0
84264,-100,4,1,2,80,0,0
84393,-100,4,1,2,55,0,0
84522,-100,4,1,2,80,0,0
84652,-100,4,1,2,55,0,0
84781,-100,4,1,2,80,0,0
85169,-100,4,1,2,55,0,0
85298,-100,4,1,2,80,0,0
85686,-100,4,1,2,55,0,0
85815,-100,4,1,2,80,0,0
85945,-100,4,1,2,55,0,0
86074,-100,4,1,2,80,0,0
86203,-100,4,1,2,55,0,0
86333,-100,4,1,2,80,0,0
86720,-100,4,1,2,55,0,0
86850,-100,4,1,2,80,0,0
87238,-100,4,1,2,55,0,0
87367,-100,4,1,2,80,0,0
87755,-100,4,1,2,55,0,0
87884,-100,4,1,2,80,0,0
88014,-100,4,1,2,55,0,0
88143,-100,4,1,2,80,0,0
88272,-100,4,1,2,55,0,0
88402,-100,4,1,2,80,0,0
88531,-100,4,1,2,55,0,0
88660,-100,4,1,2,80,0,0
88789,-100,4,1,2,55,0,0
88919,-100,4,1,2,80,0,0
89048,-100,4,1,2,55,0,0
89177,-100,4,1,2,80,0,0
89307,-100,4,1,2,55,0,0
89436,-100,4,1,2,80,0,0
91376,-100,4,1,2,55,0,0
91505,-100,4,1,2,80,0,0
91893,-100,4,1,2,55,0,0
92022,-100,4,1,2,80,0,0
92152,-100,4,1,2,55,0,0
92281,-100,4,1,2,80,0,0
92410,-100,4,1,2,55,0,0
92539,-100,4,1,2,80,0,0
93057,-100,4,1,2,80,0,0
93186,-100,4,1,2,55,0,0
93315,-100,4,1,2,80,0,0
93445,-100,4,1,2,55,0,0
93574,-100,4,1,2,80,0,0
93962,-100,4,1,2,55,0,0
94091,-100,4,1,2,80,0,0
94479,-100,4,1,2,55,0,0
94867,-100,4,1,2,80,0,0
94996,-100,4,1,2,55,0,0
95126,-100,4,1,2,80,0,0
95255,-100,4,1,2,55,0,0
95384,-100,4,1,2,80,0,0
95514,-100,4,1,2,55,0,0
95643,-100,4,1,2,80,0,0
95772,-100,4,1,2,55,0,0
95902,-100,4,1,2,80,0,0
96031,-100,4,1,2,55,0,0
96160,-100,4,1,2,80,0,0
96548,-100,4,1,2,55,0,0
96936,-100,4,1,2,80,0,0
97065,-100,4,1,2,55,0,0
97195,-100,4,1,2,80,0,0
97583,-100,4,1,2,55,0,0
97712,-100,4,1,2,80,0,0
98100,-100,4,1,2,55,0,0
98229,-100,4,1,2,80,0,0
98358,-100,4,1,2,55,0,0
98488,-100,4,1,2,80,0,0
98617,-100,4,1,2,55,0,0
99005,-100,4,1,2,80,0,0
99134,-100,4,1,2,55,0,0
99264,-100,4,1,2,80,0,0
99393,-100,4,1,2,55,0,0
99522,-100,4,1,2,80,0,0
103402,-200,4,1,2,30,0,0
103919,-100,4,1,2,70,0,1
104307,-100,4,1,2,60,0,1
104436,-100,4,1,2,70,0,1
104565,-100,4,1,2,60,0,1
104695,-100,4,1,2,70,0,1
104824,-100,4,1,2,60,0,1
104953,-100,4,1,2,70,0,1
105083,-100,4,1,2,60,0,1
105212,-100,4,1,2,70,0,1
105341,-100,4,1,2,60,0,1
105729,-100,4,1,2,70,0,1
105858,-100,4,1,2,60,0,1
105988,-100,4,1,2,70,0,1
106634,-100,4,1,2,60,0,1
106764,-100,4,1,2,70,0,1
106893,-100,4,1,2,60,0,1
107022,-100,4,1,2,70,0,1
107152,-100,4,1,2,60,0,1
107281,-100,4,1,2,70,0,1
107410,-100,4,1,2,60,0,1
107539,-100,4,1,2,70,0,1
107927,-100,4,1,2,60,0,1
108057,-100,4,1,2,70,0,1
108186,-100,4,1,2,60,0,1
108315,-100,4,1,2,70,0,1
108445,-100,4,1,2,60,0,1
108574,-100,4,1,2,70,0,1
108962,-100,4,1,2,60,0,1
109091,-100,4,1,2,70,0,1
109220,-100,4,1,2,60,0,1
109350,-100,4,1,2,70,0,1
109479,-100,4,1,2,60,0,1
109608,-100,4,1,2,70,0,1
109996,-100,4,1,2,60,0,1
110126,-100,4,1,2,70,0,1
110255,-100,4,1,2,60,0,1
110384,-100,4,1,2,70,0,1
110514,-100,4,1,2,60,0,1
110643,-100,4,1,2,70,0,1
110772,-100,4,1,2,60,0,1
111160,-100,4,1,2,70,0,1
111807,-100,4,1,2,60,0,1
111936,-100,4,1,2,65,0,1
112065,-100,4,1,2,60,0,1
112195,-100,4,1,2,70,0,1
112583,-100,4,1,2,60,0,1
112712,-100,4,1,2,70,0,1
112841,-100,4,1,2,60,0,1
112970,-100,4,1,2,70,0,1
113100,-100,4,1,2,60,0,1
113229,-100,4,1,2,70,0,1
113617,-100,4,1,2,60,0,1
113746,-100,4,1,2,70,0,1
113876,-100,4,1,2,60,0,1
114005,-100,4,1,2,70,0,1
114134,-100,4,1,2,60,0,1
114264,-100,4,1,2,70,0,1
114652,-100,4,1,2,60,0,1
115039,-100,4,1,2,70,0,1
115169,-100,4,1,2,60,0,1
115298,-100,4,1,2,70,0,1
115427,-100,4,1,2,60,0,1
115557,-100,4,1,2,70,0,1
115686,-100,4,1,2,60,0,1
115815,-100,4,1,2,70,0,1
116203,-100,4,1,2,60,0,1
116333,-100,4,1,2,70,0,1
116462,-100,4,1,2,60,0,1
116591,-100,4,1,2,70,0,1
116720,-100,4,1,2,60,0,1
116850,-100,4,1,2,70,0,1
117238,-100,4,1,2,60,0,1
117367,-100,4,1,2,70,0,1
117496,-100,4,1,2,60,0,1
117626,-100,4,1,2,70,0,1
117755,-100,4,1,2,60,0,1
117884,-100,4,1,2,70,0,1
118272,-100,4,1,2,60,0,1
118402,-100,4,1,2,70,0,1
118531,-100,4,1,2,60,0,1
118660,-100,4,1,2,70,0,1
118789,-100,4,1,2,60,0,1
118919,-100,4,1,2,70,0,1
119307,-100,4,1,2,60,0,1
119436,-100,4,1,2,70,0,1
119565,-100,4,1,2,60,0,1
119695,-100,4,1,2,70,0,1
119824,-100,4,1,2,60,0,1
119953,-100,4,1,2,70,0,1
120470,-100,4,1,2,80,0,1
120858,-100,4,1,2,60,0,1
120988,-100,4,1,2,80,0,1
121117,-100,4,1,2,60,0,1
121246,-100,4,1,2,80,0,1
121376,-100,4,1,2,60,0,1
121505,-100,4,1,2,80,0,1
121893,-100,4,1,2,60,0,1
122022,-100,4,1,2,80,0,1
122410,-100,4,1,2,80,0,0
123315,-100,4,2,2,70,0,0
124091,-100,4,3,2,70,0,0
124608,-100,4,1,2,70,0,1
128746,-100,4,1,2,70,0,0

[Colours]
Combo1 : 133,133,133
Combo2 : 248,20,139
Combo3 : 167,9,206
Combo4 : 0,234,234
Combo5 : 176,176,255

[HitObjects]
78,316,16505,5,12,0:0:0:0:
78,316,17022,6,0,P|169:313|261:311,1,180,4|8,0:0|0:0,0:0:0:0:
416,160,17539,2,8,B|397:217|397:217|409:274|409:274|389:336,1,180,0|8,0:0|0:0,0:0:0:0:
257,194,17927,2,0,P|213:120|257:42,1,180,4|4,0:0|0:0,0:0:0:0:
166,210,18315,2,0,L|74:214,1,90,8|0,0:0|0:0,0:0:0:0:
300,118,18574,2,0,L|392:114,1,90
257,194,18833,1,8,0:0:0:0:
184,115,18962,54,0,P|106:77|25:122,1,180,4|4,0:0|0:0,0:0:0:0:
300,117,19350,2,0,L|306:22,1,90,8|0,0:0|0:0,0:0:0:0:
108,178,19608,2,0,L|113:267,1,90
113,267,19867,1,8,0:0:0:0:
310,336,19996,2,0,P|390:363|451:303,1,180,4|2,0:0|0:2,0:0:0:0:
219,333,20384,2,0,L|129:344,1,90,2|0,2:0|0:0,0:0:0:0:
362,195,20643,2,0,L|376:295,1,90,2|2,2:0|2:0,0:0:0:0:
463,54,20902,2,0,L|450:143,1,90,8|8,0:0|0:0,0:0:0:0:
190,42,21160,6,0,P|145:114|199:183,1,180,4|8,0:0|0:0,0:0:0:0:
399,107,21677,2,0,B|312:136|312:70|224:110,1,180,0|8,0:0|0:0,0:0:0:0:
218,315,22065,2,0,P|286:262|273:177,1,180,4|4,0:0|0:0,0:0:0:0:
352,329,22453,2,0,L|441:337,1,90,8|0,0:0|0:0,0:0:0:0:
207,230,22712,2,0,L|118:238,1,90
399,107,22970,1,0,0:0:0:0:
289,198,23100,54,0,P|253:116|275:31,1,180,4|4,0:0|0:0,0:0:0:0:
207,230,23488,2,0,B|149:227|149:227|95:196|95:196|32:191,1,180,8|0,0:0|0:0,0:0:0:0:
35,191,23876,1,0,0:0:0:0:
191,113,24005,1,8,0:0:0:0:
289,198,24134,2,0,P|363:242|440:197,1,180,4|2,0:0|0:2,0:0:0:0:
259,291,24522,1,0,0:0:0:0:
259,291,24652,1,2,0:2:0:0:
123,289,24781,1,8,0:0:0:0:
227,206,24910,1,4,0:0:0:0:
192,342,25039,1,0,0:0:0:0:
145,211,25169,1,4,0:0:0:0:
334,271,25298,6,0,P|379:198|333:121,1,180,4|8,0:0|0:0,0:0:0:0:
253,347,25815,2,0,P|342:349|433:355,1,180,0|8,0:0|0:0,0:0:0:0:
301,197,26203,2,0,B|214:226|214:163|119:197,1,180,4|0,0:0|0:0,0:0:0:0:
259,115,26591,2,0,P|264:70|266:24,1,90,8|0,0:0|0:0,0:0:0:0:
205,268,26850,1,0,0:0:0:0:
259,114,26979,1,0,0:0:0:0:
131,160,27108,1,8,0:0:0:0:
333,266,27238,54,0,P|379:195|324:124,1,180,4|0,0:0|0:0,0:0:0:0:
205,268,27626,2,0,L|202:365,1,90,8|0,0:0|0:0,0:0:0:0:
131,160,27884,2,0,L|128:257,1,90,8|0,0:0|0:0,0:0:0:0:
56,78,28143,1,8,0:0:0:0:
131,160,28272,2,0,P|209:198|288:160,1,180,4|2,0:0|0:2,0:0:0:0:
369,90,28660,1,8,0:0:0:0:
369,90,28789,1,2,0:2:0:0:
471,138,28919,2,0,P|480:95|472:51,1,90,0|0,0:0|0:0,0:0:0:0:
364,165,29177,2,0,P|355:209|365:253,1,90,8|0,0:0|0:0,0:0:0:0:
467,370,29436,6,0,B|401:362|401:362|360:330|360:330|281:317,1,180,4|8,0:0|0:0,0:0:0:0:
40,232,29953,2,0,B|129:216|129:216|225:223,1,180,0|8,0:0|0:0,0:0:0:0:
365,253,30341,2,0,P|321:179|357:98,1,180,4|0,0:0|0:0,0:0:0:0:
265,266,30729,2,0,L|172:273,1,90,8|0,0:0|0:0,0:0:0:0:
415,317,30988,1,0,0:0:0:0:
412,173,31117,1,0,0:0:0:0:
195,211,31246,2,0,P|178:253|185:302,1,90
412,173,31505,54,0,P|416:122|419:69,1,90,0|4,0:0|0:0,0:0:0:0:
83,239,31893,2,0,P|131:247|178:251,1,90,4|0,0:0|0:0,0:0:0:0:
345,320,32281,6,0,P|336:275|332:231,1,90,8|0,0:0|0:0,0:0:0:0:
425,84,32669,2,0,P|420:128|412:172,1,90,4|8,0:0|0:0,0:0:0:0:
116,161,33057,54,0,B|206:125|201:190|296:160,1,180,0|8,0:0|0:0,0:0:0:0:
165,243,33445,1,0,0:0:0:0:
348,239,33574,22,0,P|387:162|341:79,1,180,4|8,0:0|0:0,0:0:0:0:
471,195,33962,1,0,2:0:0:0:
299,161,34091,2,0,P|209:155|117:149,1,180,0|8,0:0|0:0,0:0:0:0:
119,149,34479,1,0,2:0:0:0:
80,299,34608,1,0,0:0:0:0:
18,211,34738,2,8,P|1:123|21:25,1,180,2|0,2:0|2:0,0:0:0:0:
171,147,35126,1,0,0:0:0:0:
77,114,35255,1,2,2:0:0:0:
171,147,35384,2,0,L|260:138,1,90,8|0,0:0|2:0,0:0:0:0:
368,230,35643,6,0,L|279:239,1,90,0|0,0:0|2:0,0:0:0:0:
499,120,35902,2,0,P|505:72|507:20,1,90,8|0,0:0|2:0,0:0:0:0:
421,94,36160,2,0,B|397:162|479:197|436:275,1,180,0|8,0:0|0:0,0:0:0:0:
303,130,36548,2,0,B|287:101|287:101|217:138|136:95,1,180,2|0,2:0|2:0,0:0:0:0:
94,269,36936,1,8,0:0:0:0:
146,100,37065,1,2,2:0:0:0:
193,250,37195,2,0,P|198:298|201:342,1,90,0|0,0:0|2:0,0:0:0:0:
56,131,37453,2,0,P|51:83|48:39,1,90,8|8,0:0|2:1,0:0:0:0:
223,158,37712,54,0,P|289:214|370:182,1,180,4|8,0:0|0:0,0:0:0:0:
345,26,38100,1,0,2:0:0:0:
303,138,38229,2,0,P|299:224|388:264,1,180,0|8,0:0|0:0,0:0:0:0:
227,93,38617,2,0,B|168:118|168:118|126:71|61:79,1,180,0|0,2:0|2:0,0:0:0:0:
219,192,39005,2,0,L|309:152,1,90,8|0,0:0|2:0,0:0:0:0:
90,180,39264,1,0,0:0:0:0:
145,261,39393,2,0,P|151:305|156:350,1,90
156,350,39652,1,0,0:0:0:0:
411,137,39781,6,0,B|405:193|405:193|428:256|428:256|421:319,1,180,2|8,0:2|0:0,0:0:0:0:
501,174,40169,1,0,2:0:0:0:
336,269,40298,2,0,L|236:301,1,90,2|0,0:2|2:0,0:0:0:0:
303,130,40557,1,8,0:0:0:0:
119,191,40686,2,0,P|72:262|129:335,1,180,0|0,2:0|2:0,0:0:0:0:
270,244,41074,1,8,0:0:0:0:
145,261,41203,1,2,2:0:0:0:
270,244,41333,2,0,P|325:246|378:249,1,90,0|0,0:0|2:0,0:0:0:0:
246,331,41591,1,8,0:0:0:0:
209,188,41720,1,0,2:0:0:0:
209,188,41785,1,0,0:0:0:0:
209,188,41850,54,0,P|205:142|204:92,1,90,4|0,0:0|2:0,0:0:0:0:
339,36,42108,2,0,P|337:80|333:125,1,90,8|0,0:0|2:0,0:0:0:0:
390,199,42367,2,0,P|336:147|223:137,1,180,2|8,0:2|0:0,0:0:0:0:
246,331,42755,1,0,2:0:0:0:
270,244,42884,1,0,0:0:0:0:
145,261,43014,2,0,P|148:310|155:357,1,90,0|8,0:0|0:0,0:0:0:0:
209,188,43272,2,0,P|218:102|121:38,1,180,2|0,2:0|2:0,0:0:0:0:
330,89,43660,2,0,L|421:75,1,90,8|0,0:0|2:0,0:0:0:0:
310,163,43919,6,0,P|319:253|396:287,1,180,4|8,0:0|0:0,0:0:0:0:
409,185,44307,1,0,2:0:0:0:
209,188,44436,2,0,B|171:190|134:180|134:180|109:193|109:193|74:178|31:186,1,180,0|8,0:0|0:0,0:0:0:0:
193,305,44824,1,0,2:0:0:0:
209,188,44953,2,0,P|216:140|221:98,1,90,0|0,0:0|2:0,0:0:0:0:
131,33,45212,1,8,0:0:0:0:
221,99,45341,1,2,2:0:0:0:
336,49,45470,2,0,L|425:40,1,90,0|0,0:0|2:0,0:0:0:0:
409,185,45729,1,8,0:0:0:0:
488,88,45858,1,2,2:0:0:0:
351,126,45988,54,0,P|330:210|399:268,1,180,4|8,0:0|0:0,0:0:0:0:
208,77,46505,2,0,B|170:78|130:64|130:64|119:87|119:87|81:67|45:73,1,180,0|8,0:0|0:0,0:0:0:0:
223,147,46893,2,0,P|277:83|232:10,1,180,0|0,2:0|2:0,0:0:0:0:
351,126,47281,2,0,L|448:129,1,90,10|8,0:0|2:1,0:0:0:0:
271,301,47539,2,0,P|260:257|266:213,1,90,0|0,0:0|2:0,0:0:0:0:
361,340,47798,1,8,0:0:0:0:
187,290,47927,6,0,P|100:271|9:287,1,180,0|8,2:0|3:0,0:0:0:0:
343,258,48315,2,0,P|387:238|420:211,1,90,12|0,0:0|3:0,0:0:0:0:
197,80,48574,2,0,P|152:154|210:223,1,180,0|12,0:0|0:0,0:0:0:0:
284,73,48962,1,0,2:0:0:0:
112,49,49091,2,0,L|19:46,2,90,4|8|4,3:0|3:0|0:0,0:0:0:0:
189,244,49608,2,0,L|186:343,1,90,0|0,0:0|2:0,0:0:0:0:
321,234,49867,2,0,L|318:144,1,90,2|0,0:0|2:0,0:0:0:0:
150,145,50126,53,4,0:0:0:0:
256,192,50255,12,4,54264,2:2:0:0:
129,98,58660,6,0,L|233:105,1,90,12|0,0:0|2:0,0:0:0:0:
288,223,58919,2,0,L|198:216,1,90,0|0,0:0|2:0,0:0:0:0:
432,207,59177,2,0,P|439:164|445:111,1,90,8|0,0:0|2:0,0:0:0:0:
484,33,59436,1,0,0:0:0:0:
366,109,59565,2,0,P|279:126|203:78,1,180,0|0,2:0|2:0,0:0:0:0:
204,80,59953,1,0,0:0:0:0:
177,266,60083,1,0,2:0:0:0:
26,152,60212,2,0,P|70:159|115:167,1,90,8|0,0:0|2:0,0:0:0:0:
299,307,60470,54,0,P|307:266|303:218,1,90,0|0,0:0|2:0,0:0:0:0:
177,266,60729,2,0,P|172:310|181:354,1,90,8|0,0:0|2:0,0:0:0:0:
477,208,60988,2,0,L|377:217,1,90,0|0,0:0|2:0,0:0:0:0:
387,216,61246,1,8,0:0:0:0:
204,80,61376,2,0,P|119:88|116:168,1,180,0|2,2:0|2:0,0:0:0:0:
253,230,61764,1,8,0:0:0:0:
311,139,61893,1,2,2:0:0:0:
253,230,62022,2,0,P|248:278|245:337,1,90,0|0,0:0|2:0,0:0:0:0:
65,192,62281,1,8,0:0:0:0:
147,264,62410,1,8,2:1:0:0:
253,230,62539,6,0,P|297:220|347:217,1,90,4|0,0:0|2:0,0:0:0:0:
398,288,62798,2,0,P|359:212|405:136,1,180,8|0,0:0|0:0,0:0:0:0:
282,83,63186,1,0,2:0:0:0:
404,137,63315,1,8,0:0:0:0:
282,83,63445,2,0,P|194:75|103:73,1,180,0|0,2:0|2:0,0:0:0:0:
147,264,63833,2,0,P|235:272|326:274,1,180,8|0,0:0|0:0,0:0:0:0:
404,137,64220,1,0,2:0:0:0:
398,288,64350,1,8,0:0:0:0:
322,187,64479,54,0,P|248:145|168:186,1,180,0|0,2:0|2:0,0:0:0:0:
404,137,64867,2,0,P|407:91|409:42,1,90,8|0,0:0|2:0,0:0:0:0:
247,237,65126,2,0,P|248:281|251:326,1,90,0|0,0:0|2:0,0:0:0:0:
120,255,65384,1,8,0:0:0:0:
168,139,65514,1,0,2:0:0:0:
247,237,65643,1,0,0:0:0:0:
81,168,65772,2,0,P|94:85|177:49,1,180,0|0,2:0|2:0,0:0:0:0:
120,255,66160,2,0,L|19:268,1,90,0|0,0:0|2:0,0:0:0:0:
168,139,66419,1,8,0:0:0:0:
247,237,66548,1,0,2:0:0:0:
247,237,66613,1,0,0:0:0:0:
247,237,66677,6,0,P|251:291|255:334,1,90,4|0,0:0|2:0,0:0:0:0:
37,174,66936,2,0,P|30:128|37:79,1,90,8|0,0:0|2:0,0:0:0:0:
168,139,67195,2,0,P|173:183|166:227,1,90,0|0,0:0|2:0,0:0:0:0:
112,334,67453,1,8,0:0:0:0:
66,248,67583,2,0,P|154:245|209:327,1,180,0|0,2:0|2:0,0:0:0:0:
37,174,67970,2,0,P|35:124|34:79,1,90,8|0,0:0|2:0,0:0:0:0:
168,139,68229,2,0,P|250:171|341:132,1,180,0|8,0:0|0:0,0:0:0:0:
382,54,68617,1,0,2:0:0:0:
460,103,68746,54,0,P|470:193|457:289,1,180,0|8,0:0|0:0,0:0:0:0:
372,337,69134,1,0,2:0:0:0:
268,306,69264,2,0,L|177:299,1,90,0|0,0:0|2:0,0:0:0:0:
347,167,69522,2,0,P|349:211|337:257,1,90,8|0,0:0|2:0,0:0:0:0:
225,191,69781,2,0,P|223:147|235:101,1,90,0|0,0:0|2:0,0:0:0:0:
202,282,70039,2,0,B|114:306|114:240|25:275,1,180,8|0,0:0|0:0,0:0:0:0:
167,193,70427,1,0,2:0:0:0:
295,254,70557,2,0,L|287:352,1,90,8|0,0:0|2:0,0:0:0:0:
408,244,70815,6,0,P|447:167|405:88,1,180,4|8,0:0|0:0,0:0:0:0:
295,254,71203,1,0,2:0:0:0:
361,331,71333,2,0,L|461:342,1,90,0|0,0:0|2:0,0:0:0:0:
295,254,71591,2,0,L|195:243,1,90,8|0,0:0|2:0,0:0:0:0:
128,311,71850,2,0,P|174:238|137:154,1,180,0|8,0:0|0:0,0:0:0:0:
114,149,72173,1,0,0:0:0:0:
86,150,72238,1,0,2:0:0:0:
250,141,72367,2,0,L|345:136,1,90,0|0,0:0|2:0,0:0:0:0:
418,239,72626,2,0,L|323:244,1,90,8|0,0:0|2:0,0:0:0:0:
114,149,72884,53,0,0:0:0:0:
203,242,73014,1,0,2:0:0:0:
326,177,73143,2,0,P|323:91|239:56,1,180,12|0,0:0|0:0,0:0:0:0:
203,242,73531,5,0,2:0:0:0:
347,162,73660,2,0,P|344:76|260:41,1,180,12|0,0:0|0:0,0:0:0:0:
203,242,74048,53,0,2:0:0:0:
368,148,74177,2,0,P|365:62|281:27,1,180,12|0,0:0|0:0,0:0:0:0:
310,226,74565,1,0,2:0:0:0:
297,108,74695,1,8,0:0:0:0:
203,242,74824,1,0,2:0:0:0:
287,315,74953,6,0,P|361:358|439:313,1,180,4|8,0:0|0:0,0:0:0:0:
310,226,75341,1,0,2:0:0:0:
203,273,75470,2,0,L|214:370,1,90,0|0,0:0|2:0,0:0:0:0:
81,298,75729,2,0,L|91:208,1,90,8|0,0:0|2:0,0:0:0:0:
206,112,75988,2,0,L|195:201,1,90,0|0,0:0|2:0,0:0:0:0:
376,54,76246,2,0,P|325:46|269:40,1,90,8|0,0:0|2:0,0:0:0:0:
419,152,76505,1,0,0:0:0:0:
482,66,76634,1,0,0:0:0:0:
321,138,76764,2,0,L|326:238,1,90,8|0,0:0|2:0,0:0:0:0:
169,184,77022,54,0,P|125:112|179:35,1,180,0|8,0:0|0:0,0:0:0:0:
76,219,77410,1,0,2:0:0:0:
174,283,77539,2,0,L|273:289,1,90,0|0,0:0|2:0,0:0:0:0:
454,214,77798,2,0,L|355:220,1,90,8|0,0:0|2:0,0:0:0:0:
337,317,78057,2,0,P|346:230|285:169,1,180,0|8,0:0|0:0,0:0:0:0:
168,147,78445,2,0,L|72:139,1,90,0|0,2:0|0:0,0:0:0:0:
176,366,78703,1,0,2:0:0:0:
241,214,78833,1,8,0:0:0:0:
143,246,78962,1,8,2:1:0:0:
337,317,79091,6,0,P|367:234|331:147,1,180,4|8,0:0|0:0,0:0:0:0:
47,268,79608,1,0,0:0:0:0:
122,336,79738,1,0,2:0:0:0:
228,291,79867,2,0,L|323:282,1,90,8|0,0:0|2:0,0:0:0:0:
419,187,80126,2,0,L|324:196,1,90,0|0,0:0|2:0,0:0:0:0:
210,122,80384,2,0,L|305:113,1,90,8|0,0:0|2:0,0:0:0:0:
83,135,80643,2,0,P|72:90|80:46,1,90,0|0,0:0|2:0,0:0:0:0:
210,122,80902,2,0,P|217:166|206:209,1,90,8|0,0:0|2:0,0:0:0:0:
237,42,81160,54,0,B|300:49|300:49|337:82|337:82|410:89,1,180,0|8,0:0|0:0,0:0:0:0:
403,88,81548,1,0,2:0:0:0:
210,122,81677,2,0,L|112:113,1,90,0|0,0:0|2:0,0:0:0:0:
323,256,81936,2,0,P|331:211|323:164,1,90,8|0,0:0|2:0,0:0:0:0:
205,216,82195,2,0,P|198:260|206:304,1,90,0|0,0:0|2:0,0:0:0:0:
482,278,82453,2,0,L|393:288,1,90,8|0,0:0|0:0,0:0:0:0:
205,216,82712,2,0,L|201:121,1,90
327,166,82970,2,0,L|323:255,1,90,8|0,0:0|0:0,0:0:0:0:
295,76,83229,6,0,B|378:50|398:127|479:94,1,180,4|8,0:0|0:0,0:0:0:0:
327,166,83617,1,0,2:0:0:0:
223,118,83746,2,0,P|211:71|231:18,1,90,0|0,0:0|2:0,0:0:0:0:
327,166,84005,2,0,P|337:209|325:252,1,90,8|0,0:0|2:0,0:0:0:0:
295,76,84264,2,0,L|390:71,1,90,0|0,0:0|2:0,0:0:0:0:
254,206,84522,2,0,L|164:210,1,90,8|0,0:0|2:0,0:0:0:0:
435,291,84781,2,0,B|423:335|423:335|375:362,1,90
254,206,85039,2,0,B|266:162|266:162|314:135,1,90
261,302,85298,54,0,B|194:294|194:294|161:259|161:259|95:253,1,180,0|8,0:0|0:0,0:0:0:0:
12,95,85686,2,0,L|16:185,1,90,0|0,2:0|0:0,0:0:0:0:
43,313,85945,1,0,0:0:0:0:
126,178,86074,2,0,L|230:166,1,90,8|0,0:0|0:0,0:0:0:0:
404,256,86333,2,0,P|340:200|358:98,1,180,0|8,0:0|0:0,0:0:0:0:
347,111,86720,1,0,2:0:0:0:
294,267,86850,2,0,L|205:275,1,90,0|0,0:0|0:0,0:0:0:0:
423,167,87108,2,0,L|512:159,1,90,8|0,0:0|0:0,0:0:0:0:
343,205,87367,6,0,P|263:160|191:209,1,180,4|8,0:0|0:0,0:0:0:0:
404,256,87755,1,0,2:0:0:0:
413,132,87884,2,0,L|417:35,1,90,0|0,0:0|2:0,0:0:0:0:
270,244,88143,2,0,L|266:341,1,90,8|0,0:0|2:0,0:0:0:0:
92,213,88402,1,0,0:0:0:0:
259,163,88531,1,0,2:0:0:0:
187,106,88660,2,0,P|177:62|172:18,1,90,8|0,0:0|2:0,0:0:0:0:
344,134,88919,2,0,P|338:178|328:222,1,90,0|0,0:0|2:0,0:0:0:0:
265,355,89177,2,0,P|226:344|174:304,1,90
185,316,89436,5,0,0:0:0:0:
283,149,89565,6,0,P|342:85|429:88,1,180
211,204,89953,6,0,P|124:214|59:155,1,180
294,234,90341,6,0,P|367:281|378:368,1,180
133,324,90729,5,8,0:0:0:0:
133,324,90988,53,0,0:0:0:0:
215,364,91117,1,0,0:0:0:0:
296,309,91246,2,0,P|342:293|390:286,1,90,8|0,0:0|0:0,0:0:0:0:
196,257,91505,6,0,P|159:179|199:96,1,180,0|12,0:0|0:0,0:0:0:0:
195,98,91893,1,0,2:0:0:0:
286,266,92022,2,0,L|385:266,1,90,0|0,0:0|2:0,0:0:0:0:
487,166,92281,2,0,L|397:166,1,90,8|0,0:0|2:0,0:0:0:0:
266,73,92539,2,0,P|197:23|121:78,1,180,0|12,0:0|0:0,0:0:0:0:
189,188,92927,1,0,2:0:0:0:
319,237,93057,2,0,L|327:339,1,90,0|0,0:0|2:0,0:0:0:0:
189,188,93315,2,0,L|196:98,1,90,8|0,0:0|2:0,0:0:0:0:
45,302,93574,54,0,B|130:336|136:274|225:317,1,180,2|4,0:2|0:0,0:0:0:0:
94,211,93962,1,0,2:0:0:0:
189,188,94091,2,0,P|234:117|182:46,1,180,0|8,0:0|0:0,0:0:0:0:
298,206,94479,2,0,B|376:240|396:182|477:216,1,180,4|0,2:0|2:0,0:0:0:0:
255,277,94867,2,0,L|250:374,1,90,12|0,0:0|2:0,0:0:0:0:
189,188,95126,2,0,L|194:91,1,90,0|0,0:0|2:0,0:0:0:0:
162,290,95384,1,8,0:0:0:0:
94,211,95514,1,0,2:0:0:0:
278,193,95643,6,0,P|326:185|370:182,1,90,0|0,0:0|2:0,0:0:0:0:
472,280,95902,2,0,P|424:288|380:291,1,90,12|0,0:0|2:0,0:0:0:0:
189,188,96160,2,0,P|186:144|183:94,1,90,0|0,0:0|2:0,0:0:0:0:
97,47,96419,1,8,0:0:0:0:
267,148,96548,2,0,P|348:183|432:153,1,180,4|0,2:0|2:0,0:0:0:0:
252,51,96936,2,0,L|163:59,1,90,12|0,0:0|2:0,0:0:0:0:
349,88,97195,2,0,P|369:173|310:248,1,180,0|8,0:0|0:0,0:0:0:0:
463,108,97583,1,0,2:0:0:0:
267,148,97712,54,0,P|181:165|97:126,1,180,0|8,0:0|0:0,0:0:0:0:
38,55,98100,1,0,2:0:0:0:
34,169,98229,2,0,P|46:215|40:262,1,90,0|0,0:0|2:0,0:0:0:0:
112,316,98488,1,12,0:0:0:0:
189,271,98617,2,0,P|266:227|361:244,1,180,4|0,2:0|2:0,0:0:0:0:
144,203,99005,2,0,L|137:111,1,90,12|0,0:0|2:0,0:0:0:0:
251,34,99264,2,0,L|257:123,1,90,0|0,0:0|2:0,0:0:0:0:
271,307,99522,2,0,L|264:217,1,90,8|0,0:0|2:0,0:0:0:0:
256,192,99781,12,0,100686,0:0:0:0:
172,158,101074,6,0,P|161:203|173:246,1,90,0|0,0:0|0:0,0:0:0:0:
352,173,101333,2,0,P|327:120|213:103,1,180
256,192,101850,12,0,102755,0:0:0:0:
122,290,103445,6,0,P|199:291|278:299,1,135,0|0,2:0|2:0,0:0:0:0:
256,296,103919,6,0,P|335:259|358:167,1,180,4|8,0:0|0:0,0:0:0:0:
308,77,104307,1,0,2:0:0:0:
246,195,104436,2,0,L|156:173,1,90,0|0,0:0|2:0,0:0:0:0:
73,107,104695,2,0,P|66:154|61:212,1,90,8|0,0:0|2:0,0:0:0:0:
178,105,104953,2,0,P|184:60|189:15,1,90,0|0,0:0|2:0,0:0:0:0:
188,15,105212,1,8,0:0:0:0:
246,195,105341,2,0,P|323:235|408:188,1,180,0|0,2:0|2:0,0:0:0:0:
183,258,105729,2,0,P|179:305|176:352,1,90,8|0,0:0|2:0,0:0:0:0:
327,134,105988,6,0,P|237:119|141:127,2,180,4|8|0,0:0|0:0|0:0,0:0:0:0:
327,134,106634,1,0,2:0:0:0:
367,270,106764,2,0,P|369:320|396:360,1,90,8|0,0:0|2:0,0:0:0:0:
468,187,107022,2,0,P|470:141|468:95,1,90,0|0,0:0|2:0,0:0:0:0:
367,180,107281,2,0,P|365:224|367:269,1,90,8|0,0:0|2:0,0:0:0:0:
266,100,107539,2,0,P|183:74|119:138,1,180,0|8,0:0|0:0,0:0:0:0:
273,189,107927,1,0,2:0:0:0:
273,189,107992,1,0,0:0:0:0:
273,189,108057,54,0,P|315:174|356:126,1,90,4|0,0:0|2:0,0:0:0:0:
280,11,108315,2,0,L|265:107,1,90,8|0,0:0|2:0,0:0:0:0:
192,155,108574,2,0,P|116:111|31:137,1,180,0|8,0:0|0:0,0:0:0:0:
199,245,108962,1,0,2:0:0:0:
330,178,109091,6,0,P|334:130|336:82,1,90,4|0,0:0|2:0,0:0:0:0:
199,245,109350,2,0,P|201:289|204:334,1,90,8|0,0:0|2:0,0:0:0:0:
410,287,109608,2,0,P|445:208|414:124,1,180,0|8,0:0|0:0,0:0:0:0:
304,61,109996,1,0,2:0:0:0:
235,172,110126,54,0,P|281:172|337:146,1,90,4|0,0:0|2:0,0:0:0:0:
299,11,110384,2,0,L|269:100,1,90,8|0,0:0|2:0,0:0:0:0:
281,263,110643,1,0,0:0:0:0:
235,172,110772,2,0,P|166:118|82:154,1,180,0|0,2:0|2:0,0:0:0:0:
194,274,111160,5,0,0:0:0:0:
203,308,111225,1,0,0:0:0:0:
226,334,111289,1,0,2:0:0:0:
260,345,111354,1,0,0:0:0:0:
295,349,111419,1,8,0:0:0:0:
328,335,111483,1,0,0:0:0:0:
354,309,111548,1,0,2:0:0:0:
365,274,111613,1,0,0:0:0:0:
362,238,111677,2,0,P|356:191|354:143,1,90,4|0,0:0|2:0,0:0:0:0:
458,54,111936,2,0,P|464:101|466:149,1,90,8|0,0:0|2:0,0:0:0:0:
284,188,112195,54,0,P|195:183|94:172,1,180,4|8,0:0|0:0,0:0:0:0:
30,84,112583,1,0,2:0:0:0:
177,92,112712,2,0,P|183:48|187:0,1,90,0|0,0:0|2:0,0:0:0:0:
97,122,112970,2,0,P|100:166|106:211,1,90,8|0,0:0|2:0,0:0:0:0:
232,266,113229,2,0,P|316:285|376:220,1,180,0|8,0:0|0:0,0:0:0:0:
287,61,113617,1,0,2:0:0:0:
201,133,113746,1,0,0:0:0:0:
287,188,113876,1,0,2:0:0:0:
443,129,114005,2,0,P|397:121|344:117,1,90,8|0,0:0|2:0,0:0:0:0:
163,206,114264,6,0,P|116:135|168:56,1,180,4|8,0:0|0:0,0:0:0:0:
287,188,114652,2,0,B|259:277|314:278|287:380,1,180,0|0,2:0|2:0,0:0:0:0:
452,237,115039,2,0,P|405:233|353:236,1,90,8|0,0:0|2:0,0:0:0:0:
121,330,115298,2,0,P|166:334|211:333,1,90,0|0,0:0|2:0,0:0:0:0:
30,177,115557,2,0,P|28:221|37:265,1,90,8|0,0:0|2:0,0:0:0:0:
28,67,115815,2,0,P|116:62|208:61,1,180,0|8,0:0|0:0,0:0:0:0:
284,132,116203,1,0,2:0:0:0:
177,242,116333,54,0,P|168:198|163:151,1,90,0|0,0:0|2:0,0:0:0:0:
339,213,116591,2,0,P|334:257|325:301,1,90,8|0,0:0|2:0,0:0:0:0:
235,354,116850,2,0,P|146:350|51:348,1,180,4|8,0:0|0:0,0:0:0:0:
0,250,117238,1,0,2:0:0:0:
69,166,117367,2,0,L|160:160,1,90,0|0,0:0|0:0,2:0:0:0:
286,258,117626,2,0,L|196:263,1,90,8|0,0:0|0:0,0:0:0:0:
380,195,117884,2,0,P|413:113|375:31,1,180,4|8,0:0|0:0,0:0:0:0:
296,166,118272,1,0,2:0:0:0:
367,274,118402,6,0,L|358:365,1,90,0|0,0:0|2:0,0:0:0:0:
280,227,118660,2,0,L|271:318,1,90,8|0,0:0|2:0,0:0:0:0:
185,232,118919,2,0,P|94:234|42:164,1,180,4|8,0:0|0:0,0:0:0:0:
231,157,119307,1,0,2:0:0:0:
368,214,119436,54,0,L|377:118,1,90,0|0,0:0|0:0,2:0:0:0:
280,227,119695,2,0,L|289:323,1,90,8|0,0:0|2:0,0:0:0:0:
109,262,119953,1,0,0:0:0:0:
98,227,120018,1,0,0:0:0:0:
107,192,120083,1,0,2:0:0:0:
129,164,120147,1,0,0:0:0:0:
162,149,120212,1,8,0:0:0:0:
198,146,120277,1,0,0:0:0:0:
231,157,120341,1,0,2:0:0:0:
259,179,120406,1,0,0:0:0:0:
279,208,120470,6,0,P|350:267|445:231,1,180,4|8,0:0|0:0,0:0:0:0:
190,240,120858,1,0,2:0:0:0:
369,171,120988,2,0,L|372:74,1,90,4|0,0:0|2:0,0:0:0:0:
228,67,121246,2,0,L|230:156,1,90,8|0,0:0|2:0,0:0:0:0:
231,260,121505,2,0,P|164:310|91:265,1,180,4|8,0:0|0:0,0:0:0:0:
90,264,121893,1,0,2:0:0:0:
385,233,122022,1,0,0:0:0:0:
393,231,122281,53,8,0:0:0:0:
204,93,122410,1,4,0:0:0:0:
204,93,123315,54,0,P|208:142|214:198,1,90,8|0,3:0|0:0,0:0:0:0:
327,179,123574,2,0,P|323:228|317:284,1,90,4|0,3:0|0:0,0:0:0:0:
228,324,123833,2,0,P|302:292|391:330,1,180,8|4,3:0|0:0,0:0:0:0:
389,328,124220,1,0,0:0:0:0:
145,324,124350,2,0,L|137:235,1,90,2|0,2:0|0:0,0:0:0:0:
206,112,124608,6,0,P|131:156|56:110,1,180,4|8,0:0|0:0,0:0:0:0:
265,229,125126,2,0,B|358:197|350:257|443:227,1,180,0|8,0:0|0:0,0:0:0:0:
226,303,125514,2,0,P|180:231|228:154,1,180,4|0,2:1|2:0,0:0:0:0:
307,331,125902,1,8,0:0:0:0:
339,151,126031,2,0,L|329:50,1,90
467,155,126289,2,0,L|458:244,1,90,0|8,0:0|0:0,0:0:0:0:
353,327,126548,6,0,P|263:339|174:347,1,180,4|0,2:1|2:0,0:0:0:0:
189,180,126936,2,0,P|218:218|228:266,1,90,8|0,0:0|0:0,0:0:0:0:
123,212,127195,2,0,P|118:163|143:123,1,90
229,40,127453,1,8,0:0:0:0:
236,134,127583,2,0,P|162:107|141:6,1,180,4|0,2:1|2:0,0:0:0:0:
326,117,127970,2,0,L|338:209,1,90,8|0,0:0|2:0,0:0:0:0:
434,278,128229,2,0,L|446:189,1,90,0|0,0:0|2:0,0:0:0:0:
216,338,128488,54,0,P|172:348|130:335,2,90,8|0|4,0:0|2:0|0:0,0:0:0:0:
