osu file format v12

[General]
AudioFilename: 05 SilentMajority.mp3
AudioLeadIn: 0
PreviewTime: 49768
Countdown: 1
SampleSet: Soft
StackLeniency: 0.7
Mode: 0
LetterboxInBreaks: 1
WidescreenStoryboard: 0

[Editor]
Bookmarks: 1769,13063,24357,35651,44121,49768,66709,83651,94945,106239,117533,128827,140121,154239,165533,182474,199415,207886,224827
DistanceSpacing: 1.2
BeatDivisor: 8
GridSize: 4

[Metadata]
Title:Silent Majority
TitleUnicode:Silent Majority
Artist:Hanatan
ArtistUnicode:Hanatan
Creator:supun123
Version:Insane
Source:
Tags:hanatan yurica dirndl frau
BeatmapID:276743
BeatmapSetID:105414

[Difficulty]
HPDrainRate:7
CircleSize:4
OverallDifficulty:5
ApproachRate:8
SliderMultiplier:1.7
SliderTickRate:2

[Events]
//Background and Video events
0,0,"Miku-hatsune-miku-25858635-1920-1080.jpg",0,0
//Break Periods
2,83851,94195
2,179851,180665
//Storyboard Layer 0 (Background)
//Storyboard Layer 1 (Fail)
//Storyboard Layer 2 (Pass)
//Storyboard Layer 3 (Foreground)
//Storyboard Sound Samples
//Background Colour Transformations
3,100,163,162,255

[TimingPoints]
1416,705.882352941176,4,2,1,55,1,0
1769,-133.333333333333,4,2,1,55,0,0
3181,-133.333333333333,4,2,1,5,0,0
3887,-133.333333333333,4,2,1,55,0,0
6005,-133.333333333333,4,2,1,5,0,0
6710,-133.333333333333,4,2,1,55,0,0
8828,-133.333333333333,4,2,1,5,0,0
10240,-133.333333333333,4,2,1,55,0,0
11652,-133.333333333333,4,2,1,5,0,0
12004,352.941176470588,4,2,1,55,1,0
14475,-100,4,2,1,5,0,0
15004,-100,4,2,1,55,0,0
17298,-100,4,2,1,5,0,0
18004,-100,4,2,1,55,0,0
20121,-100,4,2,1,5,0,0
20827,-100,4,2,1,55,0,0
49768,-100,4,2,1,70,0,1
83651,-100,4,2,1,55,0,0
182474,-100,4,2,1,70,0,1
224827,-100,4,2,1,70,0,0
225003,-100,4,2,1,5,0,0

[HitObjects]
80,188,1768,2,0,P|208:212|268:40,1,340
348,324,3887,1,0,0:0:0:0:
420,280,4063,2,0,L|428:252,2,15.9375006079674
308,72,4592,6,0,P|212:144|240:276,1,255.000009727478
80,208,6710,1,0,0:0:0:0:
144,332,7063,1,0,0:0:0:0:
276,344,7416,6,0,B|411:301|370:134,1,255.000009727478
56,284,10239,6,0,P|160:328|256:240,1,255.000009727478
132,148,12181,2,0,B|120:56,2,85,2|8|2,0:0|0:0|0:0,0:0:0:0:
280,64,12886,1,0,0:0:0:0:
336,128,13063,6,0,B|316:172|256:168,1,85,6|0,0:0|0:0,0:0:0:0:
384,212,13416,2,0,B|428:228|440:276,1,85,0|2,0:0|0:0,0:0:0:0:
392,344,13769,1,8,0:0:0:0:
280,272,13945,2,0,B|263:222|300:181,1,85
376,92,14298,2,0,B|468:88,1,85,2|0,0:0|0:0,0:0:0:0:
144,64,15004,5,0,0:0:0:0:
72,112,15181,1,8,0:0:0:0:
76,196,15356,2,0,L|60:248,2,42.5
176,176,15710,1,0,0:0:0:0:
172,288,15886,6,0,B|176:336|228:360,1,85,6|0,0:0|0:0,0:0:0:0:
344,204,16239,2,0,B|300:216|288:268,1,85,0|2,0:0|0:0,0:0:0:0:
368,356,16592,2,0,B|426:362|473:281|434:217,1,170,8|0,0:0|0:0,0:0:0:0:
384,172,17122,2,0,B|280:188,1,85,2|0,0:0|0:0,0:0:0:0:
84,80,18004,1,0,0:0:0:0:
212,208,18356,2,0,P|180:176|176:128,1,85
216,52,18710,6,0,B|256:72|264:124,1,85,6|0,0:0|0:0,0:0:0:0:
220,192,19063,1,0,0:0:0:0:
332,220,19239,2,0,B|376:222|405:176,1,85,2|8,0:0|0:0,0:0:0:0:
396,96,19592,1,0,0:0:0:0:
316,72,19768,1,0,0:0:0:0:
256,168,19945,2,0,B|272:211|323:217,1,85,2|0,0:0|0:0,0:0:0:0:
488,116,20827,2,0,B|480:44|416:-8|320:4|287:62,1,255,2|0,0:0|0:0,0:0:0:0:
252,144,21533,6,0,B|248:192|303:222|348:229|389:191,1,170,6|0,0:0|0:0,0:0:0:0:
432,76,22062,2,0,B|400:36|347:51,1,85,2|8,0:0|0:0,0:0:0:0:
232,204,22592,1,0,0:0:0:0:
253,285,22768,1,2,0:0:0:0:
333,309,22945,2,0,B|375:302|395:250,1,85,0|0,0:0|0:0,0:0:0:0:
408,172,23298,1,2,0:0:0:0:
368,98,23474,1,0,0:0:0:0:
282,91,23651,1,8,0:0:0:0:
236,161,23827,1,0,0:0:0:0:
278,232,24003,1,0,0:0:0:0:
176,384,24356,6,0,B|100:328|131:230,1,170,6|0,0:0|0:0,0:0:0:0:
76,136,24886,2,0,P|100:100|144:84,1,85,0|8,0:0|0:0,0:0:0:0:
32,208,25239,1,0,0:0:0:0:
116,136,25415,2,0,B|220:124,1,85,0|2,0:0|0:0,0:0:0:0:
284,68,25768,1,2,0:0:0:0:
284,68,25945,1,0,0:0:0:0:
284,68,26121,1,0,0:0:0:0:
284,68,26298,2,0,B|332:78|353:130,1,85,0|8,0:0|0:0,0:0:0:0:
396,268,26827,2,0,B|396:220|432:184,1,85,0|2,0:0|0:0,0:0:0:0:
468,320,27180,6,0,B|430:410|300:372,1,170,6|0,0:0|0:0,0:0:0:0:
192,240,27709,2,0,B|252:164|359:207,1,170,2|0,0:0|0:0,0:0:0:0:
208,384,28239,2,0,B|123:330|171:219,1,170,0|2,0:0|0:0,0:0:0:0:
132,156,28768,1,2,0:0:0:0:
132,156,28945,1,2,0:0:0:0:
208,44,29298,1,12,0:0:0:0:
156,196,29827,1,0,0:0:0:0:
176,280,30003,6,0,B|228:364|348:328,1,170,6|0,0:0|0:0,0:0:0:0:
428,352,30533,2,0,P|424:312|400:276,1,85,2|0,0:0|0:0,0:0:0:0:
512,352,30886,1,0,0:0:0:0:
504,232,31062,2,0,P|480:196|432:184,1,85
400,104,31415,1,2,0:0:0:0:
400,104,31592,1,0,0:0:0:0:
400,104,31768,1,0,0:0:0:0:
400,104,31945,1,2,0:0:0:0:
400,104,32121,2,0,B|304:72,1,85
268,144,32474,2,0,B|364:176,1,85,0|2,0:0|0:0,0:0:0:0:
236,60,32827,6,0,B|177:78|157:160|196:208,1,170,2|0,0:0|0:0,0:0:0:0:
220,296,33356,1,2,0:0:0:0:
320,308,33533,2,0,B|378:289|398:207|359:159,1,170,10|0,0:0|0:0,0:0:0:0:
296,100,34062,1,2,0:0:0:0:
212,84,34239,2,0,B|124:84,2,85,2|2|2,0:0|0:0|0:0,0:0:0:0:
212,84,34945,1,2,0:0:0:0:
72,72,35298,1,0,0:0:0:0:
72,72,35474,1,0,0:0:0:0:
32,148,35651,6,0,B|44:208|120:232|168:192,1,170,6|0,0:0|0:0,0:0:0:0:
120,120,36180,2,0,P|156:104|208:112,1,85,0|8,0:0|0:0,0:0:0:0:
264,220,36533,1,0,0:0:0:0:
284,136,36709,2,0,B|300:93|350:79,1,85,0|2,0:0|0:0,0:0:0:0:
424,52,37062,1,2,0:0:0:0:
424,52,37239,1,0,0:0:0:0:
424,52,37415,1,0,0:0:0:0:
424,52,37592,2,0,B|464:76|472:132,1,85,2|8,0:0|0:0,0:0:0:0:
344,204,37945,2,0,B|318:160|348:114,2,85,0|0|2,0:0|0:0|0:0,0:0:0:0:
404,268,38474,5,6,0:0:0:0:
408,144,38651,2,0,B|391:97|329:90,1,85,2|8,0:0|0:0,0:0:0:0:
232,96,39003,1,6,0:0:0:0:
152,280,39356,1,6,0:0:0:0:
248,348,39533,1,2,0:0:0:0:
360,340,39709,2,2,B|477:312|507:168|450:43|302:47,1,425,4|8,0:0|0:0,0:0:0:0:
152,264,40945,1,0,0:0:0:0:
204,332,41121,1,0,0:0:0:0:
288,340,41298,6,0,P|344:296|336:200,1,170,6|0,0:0|0:0,0:0:0:0:
416,120,41827,2,0,P|388:88|336:72,2,85,2|8|0,0:0|0:0|0:0,0:0:0:0:
452,196,42356,1,0,0:0:0:0:
444,280,42533,2,0,P|400:344|224:328,1,255,2|0,0:0|0:0,0:0:0:0:
152,336,43239,2,0,P|128:304|132:248,2,85,2|8|0,0:0|0:0|0:0,0:0:0:0:
204,268,43768,2,0,P|220:228|209:177,1,85,0|2,0:0|0:0,0:0:0:0:
88,172,44121,6,0,B|184:212|248:116,1,170,6|0,0:0|0:0,0:0:0:0:
160,48,44651,2,0,B|179:143|288:180|363:122,1,255,2|0,0:0|0:0,0:0:0:0:
472,188,45356,2,0,B|463:278|362:332|279:281,1,255,2|0,0:0|0:0,0:0:0:0:
196,288,46062,2,0,P|168:256|164:204,1,85,0|8,0:0|0:0,0:0:0:0:
164,128,46415,1,0,0:0:0:0:
220,64,46592,1,0,0:0:0:0:
304,56,46768,1,0,0:0:0:0:
412,88,46945,6,0,B|465:103|496:180|451:233,1,170,4|0,0:0|0:0,0:0:0:0:
408,320,47474,1,0,0:0:0:0:
408,320,47651,2,0,P|380:292|372:248,1,85
268,124,48003,2,0,P|300:152|308:192,1,85
304,348,48356,2,0,P|272:320|264:276,1,85,4|0,0:0|0:0,0:0:0:0:
168,184,48709,2,0,P|192:144|232:128,1,85
392,224,49062,2,0,P|347:223|312:189,1,85
192,92,49415,2,0,P|221:44|263:31,1,85
368,16,49768,6,0,B|466:50|443:164,1,170,4|0,0:0|0:0,0:0:0:0:
332,188,50298,1,2,0:0:0:0:
444,208,50474,2,0,B|480:240|472:292,1,85
416,384,50827,2,0,B|324:348|360:228,1,170,8|0,0:0|0:0,0:0:0:0:
292,132,51356,2,0,B|295:85|348:56,1,85
448,132,51709,1,0,0:0:0:0:
464,232,51886,6,0,B|448:328|334:322,1,170,6|0,0:0|0:0,0:0:0:0:
228,328,52415,1,2,0:0:0:0:
152,236,52592,2,0,B|160:136,1,85
224,288,52945,2,0,B|271:315|349:276|348:211,1,170,8|0,0:0|0:0,0:0:0:0:
321,112,53474,1,0,0:0:0:0:
217,104,53651,1,2,0:0:0:0:
352,300,54003,6,0,B|440:248|388:124,1,170,6|0,0:0|0:0,0:0:0:0:
348,60,54533,2,0,B|304:68|284:120,2,85
356,224,55062,2,0,B|256:236|224:120,1,170,8|0,0:0|0:0,0:0:0:0:
224,288,55592,2,0,B|197:329|142:325,2,85,0|0|2,0:0|0:0|0:0,0:0:0:0:
128,136,56121,2,0,B|65:147|40:226|78:283,1,170,2|0,0:0|0:0,0:0:0:0:
176,384,56651,2,0,B|222:368|224:312,1,85,2|0,0:0|0:0,0:0:0:0:
176,232,57003,1,0,0:0:0:0:
288,184,57180,2,0,B|236:92|116:132,1,170,8|0,0:0|0:0,0:0:0:0:
96,248,57709,2,0,B|104:348,1,85,0|2,0:0|0:0,0:0:0:0:
0,132,58239,6,0,B|12:72|88:44|144:88,1,170,6|0,0:0|0:0,0:0:0:0:
184,172,58768,1,0,0:0:0:0:
264,236,58945,2,0,B|310:238|338:181,1,85
180,264,59298,2,0,B|180:327|260:372|318:340,1,170,8|0,0:0|0:0,0:0:0:0:
340,228,59827,2,0,B|272:151,2,85,0|0|2,0:0|0:0|0:0,0:0:0:0:
296,320,60356,2,0,B|240:328|184:284|192:204,1,170,2|0,0:0|0:0,0:0:0:0:
280,164,60886,2,0,B|378:140|381:35,1,170,2|0,0:0|0:0,0:0:0:0:
336,172,61415,2,0,B|344:236|416:264|476:232,1,170,8|0,0:0|0:0,0:0:0:0:
512,144,61945,2,0,B|504:100|456:76,1,85,0|2,0:0|0:0,0:0:0:0:
280,12,62474,6,0,B|216:12|179:80|204:143,1,170,6|0,0:0|0:0,0:0:0:0:
256,220,63003,2,0,P|272:264|268:308,1,85,2|0,0:0|0:0,0:0:0:0:
252,384,63356,1,0,0:0:0:0:
152,356,63533,2,0,B|96:320|108:220|172:208,1,170,8|0,0:0|0:0,0:0:0:0:
180,112,64062,2,0,B|184:64|152:32,2,85,0|0|2,0:0|0:0|0:0,0:0:0:0:
80,152,64592,2,0,B|108:248|223:228,1,170,2|0,0:0|0:0,0:0:0:0:
272,144,65121,2,0,B|243:108|194:115,2,85,2|0|0,0:0|0:0|0:0,0:0:0:0:
373,238,65651,2,0,B|433:221|452:143|414:79,1,170,8|0,0:0|0:0,0:0:0:0:
337,42,66180,1,0,0:0:0:0:
236,32,66356,1,0,0:0:0:0:
163,102,66533,1,2,0:0:0:0:
182,217,66709,6,0,P|244:268|335:243,1,170,4|0,0:0|0:0,0:0:0:0:
396,188,67239,2,0,P|336:220|324:328,1,170,2|0,0:0|0:0,0:0:0:0:
412,376,67768,2,0,P|472:343|484:235,1,170,8|0,0:0|0:0,0:0:0:0:
492,148,68298,2,0,L|460:68,2,85,0|0|2,0:0|0:0|0:0,0:0:0:0:
440,260,68827,2,0,B|376:284|316:236|324:164,1,170,2|0,0:0|0:0,0:0:0:0:
316,288,69356,2,0,B|302:354|229:380|173:335,1,170,2|0,0:0|0:0,0:0:0:0:
88,308,69886,2,0,L|84:132,1,170,8|0,0:0|0:0,0:0:0:0:
60,40,70415,2,0,P|21:59|0:102,2,85,0|0|2,0:0|0:0|0:0,0:0:0:0:
92,136,70945,6,0,P|130:216|218:222,1,170,2|0,0:0|0:0,0:0:0:0:
264,312,71474,2,0,P|302:231|390:225,1,170,2|0,0:0|0:0,0:0:0:0:
504,292,72003,2,8,P|468:364|384:368,1,170,8|0,0:0|0:0,0:0:0:0:
272,336,72533,2,2,L|256:240,1,85,0|2,0:0|0:0,0:0:0:0:
100,156,73062,2,0,B|112:96|196:56|276:80|304:144,1,255,2|0,0:0|0:0,0:0:0:0:
284,244,73768,2,0,P|308:308|408:328,1,170,2|8,0:0|0:0,0:0:0:0:
496,352,74298,1,0,0:0:0:0:
496,352,74474,2,0,L|512:268,1,85
432,180,74827,2,0,L|416:272,1,85,2|0,0:0|0:0,0:0:0:0:
512,128,75180,6,0,P|472:44|384:36,1,170,4|0,0:0|0:0,0:0:0:0:
300,44,75709,2,0,P|264:76|256:120,1,85,2|0,0:0|0:0,0:0:0:0:
276,212,76062,1,0,0:0:0:0:
360,156,76239,2,0,P|419:199|417:292,1,170,8|0,0:0|0:0,0:0:0:0:
328,332,76768,2,0,P|324:284|336:244,1,85
288,128,77121,1,2,0:0:0:0:
332,220,77298,2,0,P|288:300|204:292,1,170,2|0,0:0|0:0,0:0:0:0:
148,212,77827,2,0,L|156:124,2,85,2|0|0,0:0|0:0|0:0,0:0:0:0:
64,272,78356,1,8,0:0:0:0:
64,64,78709,2,0,L|152:76,1,85
140,176,79062,2,0,L|228:188,1,85,0|2,0:0|0:0,0:0:0:0:
264,288,79415,6,0,P|346:273|355:168,1,170,6|0,0:0|0:0,0:0:0:0:
368,328,79945,2,0,P|400:364|444:372,2,85,2|0|0,0:0|0:0|0:0,0:0:0:0:
344,228,80474,2,0,P|367:170|471:175,1,170,2|0,0:0|0:0,0:0:0:0:
512,276,81003,2,0,P|500:316|460:336,1,85,0|0,0:0|0:0,0:0:0:0:
368,364,81356,1,2,0:0:0:0:
268,352,81533,2,0,P|211:281|231:203,1,170,2|0,0:0|0:0,0:0:0:0:
312,155,82062,1,2,0:0:0:0:
312,155,82239,2,0,L|393:179,1,85
393,179,82592,1,8,0:0:0:0:
168,304,82945,5,2,0:0:0:0:
88,244,83121,1,2,0:0:0:0:
184,212,83298,1,2,0:0:0:0:
104,148,83474,1,2,0:0:0:0:
104,148,83651,5,6,0:0:0:0:
424,264,94945,6,0,P|380:316|272:292,1,170,4|0,0:0|0:0,0:0:0:0:
224,248,95474,2,0,P|236:196|256:172,1,85,0|8,0:0|0:0,0:0:0:0:
336,140,95827,2,0,L|432:148,2,85,0|0|2,0:0|0:0|0:0,0:0:0:0:
256,108,96356,2,0,L|160:100,2,85
256,192,96886,2,0,L|168:184,1,85,2|8,0:0|0:0,0:0:0:0:
92,156,97239,2,0,P|104:208|104:248,1,85
60,316,97592,1,2,0:0:0:0:
60,316,97768,6,0,P|8:264|4:164,1,170,2|0,0:0|0:0,0:0:0:0:
44,100,98298,1,2,0:0:0:0:
192,156,98474,2,0,L|88:160,1,85,8|0,0:0|0:0,0:0:0:0:
128,76,98827,2,0,L|236:72,1,85
296,48,99180,1,2,0:0:0:0:
296,48,99356,1,2,0:0:0:0:
296,48,99533,2,0,P|356:108|356:188,1,170,2|8,0:0|0:0,0:0:0:0:
492,128,100239,2,0,L|468:228,1,85
448,292,100592,6,0,P|376:344|288:336,1,170,4|0,0:0|0:0,0:0:0:0:
212,336,101121,2,0,L|116:348,2,85,2|0|0,0:0|0:0|0:0,0:0:0:0:
216,252,101651,2,0,L|120:264,1,85,0|2,0:0|0:0,0:0:0:0:
56,228,102003,1,2,0:0:0:0:
56,228,102180,2,0,P|64:184|100:148,1,85
32,92,102533,2,0,L|0:12,2,85,2|0|0,0:0|0:0|0:0,0:0:0:0:
100,188,103062,2,0,P|136:212|188:212,1,85,0|2,0:0|0:0,0:0:0:0:
236,276,103415,6,0,L|420:292,1,170,6|0,0:0|0:0,0:0:0:0:
488,372,103945,2,0,L|376:364,1,85,2|8,0:0|0:0,0:0:0:0:
340,232,104298,2,0,L|444:240,1,85
504,268,104651,1,2,0:0:0:0:
504,268,104827,1,2,0:0:0:0:
504,268,105003,1,2,0:0:0:0:
504,268,105180,2,0,P|456:328|360:324,1,170,2|2,0:0|0:0,0:0:0:0:
104,298,106062,5,0,0:0:0:0:
88,216,106239,2,0,P|99:177|148:150,1,85,4|0,0:0|0:0,0:0:0:0:
224,200,106592,2,0,P|252:232|260:280,1,85,0|2,0:0|0:0,0:0:0:0:
384,240,106945,2,0,P|416:203|414:159,2,85,8|0|0,0:0|0:0|0:0,0:0:0:0:
220,192,107474,1,2,0:0:0:0:
188,116,107651,2,0,P|227:45|326:60,1,170,2|0,0:0|0:0,0:0:0:0:
392,64,108180,1,2,0:0:0:0:
428,148,108356,2,0,L|448:248,1,85,8|0,0:0|0:0,0:0:0:0:
360,316,108709,2,0,L|260:336,1,85,0|2,0:0|0:0,0:0:0:0:
152,348,109062,6,0,P|88:312|84:204,1,170,6|0,0:0|0:0,0:0:0:0:
144,116,109592,2,0,P|228:152|232:236,1,170,2|0,0:0|0:0,0:0:0:0:
252,308,110121,1,0,0:0:0:0:
324,352,110298,2,0,P|424:304|420:232,1,170,2|0,0:0|0:0,0:0:0:0:
384,112,110827,2,0,L|380:212,1,85
464,272,111180,2,0,L|472:152,1,85
364,168,111533,2,0,L|360:268,1,85
508,236,111886,6,0,P|488:188|448:172,1,85,6|0,0:0|0:0,0:0:0:0:
380,104,112239,2,0,P|336:116|308:160,1,85,0|2,0:0|0:0,0:0:0:0:
316,232,112592,1,8,0:0:0:0:
200,192,112768,2,0,P|147:243|151:340,1,170,0|2,0:0|0:0,0:0:0:0:
268,284,113298,1,0,0:0:0:0:
296,364,113474,2,0,P|373:370|437:282,1,170,0|2,0:0|0:0,0:0:0:0:
480,224,114003,2,0,L|396:208,1,85,8|0,0:0|0:0,0:0:0:0:
424,128,114356,2,0,L|340:112,1,85,0|2,0:0|0:0,0:0:0:0:
216,100,114709,6,0,P|144:116|92:208,1,170,2|0,0:0|0:0,0:0:0:0:
40,300,115239,2,0,P|104:240|198:254,1,170,2|0,0:0|0:0,0:0:0:0:
280,284,115768,2,0,L|380:312,1,85,0|2,0:0|0:0,0:0:0:0:
344,208,116121,2,2,P|320:172|320:128,2,85
484,276,116827,1,8,0:0:0:0:
208,72,117356,1,0,0:0:0:0:
128,104,117533,6,0,P|96:132|92:180,1,85,6|0,0:0|0:0,0:0:0:0:
220,248,117886,2,0,P|212:196|180:168,1,85,0|2,0:0|0:0,0:0:0:0:
104,296,118239,2,0,P|156:360|260:356,1,170,8|0,0:0|0:0,0:0:0:0:
320,340,118768,1,2,0:0:0:0:
272,272,118945,1,2,0:0:0:0:
292,188,119121,2,0,P|348:132|436:144,1,170,0|2,0:0|0:0,0:0:0:0:
484,272,119651,2,0,P|508:240|504:188,1,85,8|0,0:0|0:0,0:0:0:0:
376,296,120003,2,0,P|400:344|428:360,1,85,0|2,0:0|0:0,0:0:0:0:
344,224,120356,6,0,P|297:175|199:192,1,170,6|0,0:0|0:0,0:0:0:0:
96,232,120886,2,0,L|80:320,1,85,2|8,0:0|0:0,0:0:0:0:
212,248,121239,2,0,L|224:164,2,85,0|0|2,0:0|0:0|0:0,0:0:0:0:
260,320,121768,1,0,0:0:0:0:
344,320,121945,2,0,P|412:272|408:188,1,170
304,64,122474,2,0,P|272:96|264:148,1,85
324,208,122827,2,0,P|360:172|364:116,1,85
432,32,123180,6,0,P|498:94|499:175,1,170,6|0,0:0|0:0,0:0:0:0:
432,280,123709,2,0,P|402:245|397:201,1,85,2|8,0:0|0:0,3:0:0:0:
380,360,124062,1,0,0:0:0:0:
288,352,124239,2,0,L|204:316,1,85,0|2,0:0|0:0,0:0:0:0:
136,208,124592,2,0,P|156:164|196:140,2,85
280,148,125121,1,2,0:0:0:0:
240,240,125298,2,0,P|266:307|442:312,1,255,0|0,0:0|0:0,0:0:0:0:
464,168,126003,6,0,P|412:100|318:118,1,170,6|0,0:0|0:0,0:0:0:0:
304,216,126533,2,0,P|204:244|116:116,1,255,2|0,0:0|0:0,0:0:0:0:
164,40,127239,2,2,P|200:68|208:116,1,85,2|2,0:0|0:0,0:0:0:0:
172,180,127592,1,2,0:0:0:0:
209,104,127768,1,2,0:0:0:0:
292,92,127945,1,0,0:0:0:0:
364,136,128121,1,8,0:0:0:0:
380,220,128298,1,0,0:0:0:0:
320,280,128474,1,0,0:0:0:0:
72,328,128827,6,0,P|32:256|76:184,1,170,6|0,0:0|0:0,0:0:0:0:
168,136,129356,2,0,L|156:36,1,85,2|8,0:0|0:0,0:0:0:0:
72,92,129709,1,0,0:0:0:0:
160,220,129886,2,0,P|204:212|228:164,1,85,0|2,0:0|0:0,0:0:0:0:
272,88,130239,1,2,0:0:0:0:
272,88,130415,1,0,0:0:0:0:
272,88,130592,1,0,0:0:0:0:
272,88,130768,2,0,P|288:132|328:164,1,85,2|8,0:0|0:0,0:0:0:0:
400,220,131121,2,0,P|440:212|468:180,1,85
380,316,131474,1,2,0:0:0:0:
364,196,131651,6,0,P|312:144|210:161,1,170,6|0,0:0|0:0,0:0:0:0:
136,240,132180,2,0,P|152:292|260:324,1,170,2|0,0:0|0:0,0:0:0:0:
336,372,132709,2,0,P|364:296|452:256,1,170,0|2,0:0|0:0,0:0:0:0:
488,176,133239,1,2,0:0:0:0:
488,176,133415,1,2,0:0:0:0:
304,68,133768,1,12,0:0:0:0:
168,204,134121,2,0,P|179:243|213:275,1,85
264,336,134474,6,0,P|316:303|320:197,1,170,4|0,0:0|0:0,0:0:0:0:
384,140,135003,2,0,P|352:104|308:92,1,85,2|0,0:0|0:0,0:0:0:0:
216,144,135356,1,0,0:0:0:0:
172,48,135533,2,0,P|204:24|254:23,1,85,0|2,0:0|0:0,0:0:0:0:
344,28,135886,1,2,0:0:0:0:
344,28,136062,1,0,0:0:0:0:
344,28,136239,1,0,0:0:0:0:
344,28,136415,1,2,0:0:0:0:
344,28,136592,2,0,L|340:116,1,85
352,228,136945,2,0,P|373:188|408:157,1,85,0|2,0:0|0:0,0:0:0:0:
512,272,137298,6,0,P|484:332|376:332,1,170,6|0,0:0|0:0,0:0:0:0:
272,288,137827,1,2,0:0:0:0:
264,184,138003,2,0,P|292:124|399:124,1,170,10|0,0:0|0:0,0:0:0:0:
416,220,138533,1,2,0:0:0:0:
376,328,138709,2,2,P|351:355|292:366,2,85
376,328,139415,1,2,0:0:0:0:
152,328,139768,2,0,P|180:288|176:240,1,85
80,240,140121,6,0,P|40:196|64:76,1,170,4|0,0:0|0:0,0:0:0:0:
168,168,140651,2,0,P|193:212|193:257,1,85,0|8,0:0|0:0,0:0:0:0:
240,316,141003,1,0,0:0:0:0:
264,200,141180,2,0,P|280:156|304:120,1,85,0|2,0:0|0:0,0:0:0:0:
372,56,141533,1,2,0:0:0:0:
372,56,141709,1,0,0:0:0:0:
372,56,141886,1,0,0:0:0:0:
372,56,142062,2,0,P|412:84|428:120,1,85,2|8,0:0|0:0,0:0:0:0:
424,228,142415,2,0,P|392:212|372:160,2,85,0|0|2,0:0|0:0|0:0,0:0:0:0:
508,280,142945,5,6,0:0:0:0:
392,320,143121,2,0,L|288:316,1,85,2|8,0:0|0:0,0:0:0:0:
136,292,143474,2,0,P|168:252|204:240,1,85,4|0,0:0|0:0,0:0:0:0:
112,156,143827,2,2,P|86:124|80:68,1,85,6|2,0:0|0:0,0:0:0:0:
208,8,144180,2,0,B|319:-8|413:79|412:248|304:312,1,425,6|8,0:0|0:0,0:0:0:0:
116,232,145415,2,0,P|115:187|138:149,1,85
204,256,145768,6,0,P|158:325|43:331,1,170,6|0,0:0|0:0,0:0:0:0:
0,296,146298,2,0,L|16:200,1,85,2|8,0:0|0:0,0:0:0:0:
44,112,146651,2,0,P|68:84|124:68,1,85
156,180,147003,2,0,P|250:291|361:266,1,255,2|0,0:0|0:0,0:0:0:0:
412,224,147709,1,2,0:0:0:0:
352,164,147886,2,0,P|272:228|312:360,1,255,8|2,0:0|0:0,0:0:0:0:
436,384,148592,6,0,P|504:316|472:228,1,170,6|0,0:0|0:0,0:0:0:0:
500,152,149121,2,0,P|468:96|368:84,1,170,2|0,0:0|0:0,0:0:0:0:
340,176,149651,1,0,0:0:0:0:
276,68,149827,2,0,P|152:84|160:192,1,255,2|0,0:0|0:0,0:0:0:0:
244,204,150533,2,0,P|245:163|214:125,2,85,0|8|0,0:0|0:0|0:0,0:0:0:0:
232,288,151062,2,0,P|252:316|300:328,1,85
408,344,151415,6,0,P|460:300|440:188,1,170,4|0,0:0|0:0,0:0:0:0:
372,144,151945,1,2,0:0:0:0:
336,232,152121,2,0,P|272:176|280:92,1,170,2|0,0:0|0:0,0:0:0:0:
344,20,152651,1,2,0:0:0:0:
344,20,152827,2,0,P|384:52|392:92,1,85,2|0,0:0|0:0,0:0:0:0:
436,200,153180,2,0,P|447:153|475:129,1,85,0|2,0:0|0:0,0:0:0:0:
472,296,153533,2,0,L|384:312,1,85
276,244,153886,2,0,L|300:348,1,85,0|2,0:0|0:0,0:0:0:0:
340,160,154239,6,0,P|344:100|439:50,1,170,6|0,0:0|0:0,0:0:0:0:
504,84,154768,1,2,0:0:0:0:
512,164,154945,2,0,P|492:232|388:264,1,170,8|0,0:0|0:0,0:0:0:0:
316,320,155474,1,2,0:0:0:0:
288,240,155651,2,0,P|244:168|144:168,1,170,2|0,0:0|0:0,0:0:0:0:
84,168,156180,2,0,L|68:252,1,85,0|8,0:0|0:0,0:0:0:0:
152,228,156533,2,0,L|136:312,1,85,0|0,0:0|0:0,0:0:0:0:
136,311,156886,1,2,0:0:0:0:
220,364,157062,6,0,P|316:348|324:264,1,170,6|0,0:0|0:0,0:0:0:0:
260,244,157592,1,2,0:0:0:0:
256,160,157768,6,0,P|296:88|390:108,1,170,10|0,0:0|0:0,0:0:0:0:
436,152,158298,1,0,0:0:0:0:
432,264,158474,2,2,P|408:300|360:316,1,85
264,356,158827,2,0,P|184:328|180:244,1,170,2|8,0:0|0:0,0:0:0:0:
120,52,159533,2,0,P|152:88|152:132,1,85
112,196,159886,6,0,P|148:132|248:116,1,170,4|0,0:0|0:0,0:0:0:0:
320,140,160415,1,2,0:0:0:0:
280,256,160592,2,0,P|352:260|400:340,1,170,8|0,0:0|0:0,0:0:0:0:
484,328,161121,1,2,0:0:0:0:
392,372,161298,2,0,P|328:324|348:212,1,170,2|0,0:0|0:0,0:0:0:0:
440,128,161827,2,0,P|464:164|464:216,1,85,2|8,0:0|0:0,0:0:0:0:
208,352,162356,2,0,P|188:304|192:268,1,85,2|2,0:0|0:0,0:0:0:0:
312,264,162709,6,0,P|400:188|340:56,1,255,6|2,0:0|0:0,0:0:0:0:
260,24,163415,2,0,P|172:100|232:232,1,255,8|0,0:0|0:0,0:0:0:0:
292,276,164121,2,2,L|384:292,2,85
292,276,164827,1,10,0:0:0:0:
112,336,165180,2,0,P|76:292|72:252,1,85
32,160,165533,6,0,P|72:88|168:88,1,170,4|0,0:0|0:0,0:0:0:0:
192,172,166062,1,2,0:0:0:0:
248,236,166239,2,0,L|428:272,1,170,8|0,0:0|0:0,0:0:0:0:
496,204,166768,1,2,0:0:0:0:
432,148,166945,2,0,P|364:180|348:276,1,170,2|0,0:0|0:0,0:0:0:0:
380,344,167474,2,0,P|344:360|292:356,1,85,2|8,0:0|0:0,0:0:0:0:
176,264,167827,2,0,P|224:260|256:284,1,85
144,360,168180,1,2,0:0:0:0:
144,360,168356,6,2,P|80:308|96:228,1,170,6|0,0:0|0:0,0:0:0:0:
144,160,168886,1,2,0:0:0:0:
188,232,169062,2,0,P|268:248|328:184,1,170,8|0,0:0|0:0,0:0:0:0:
404,224,169592,1,0,0:0:0:0:
360,324,169768,2,2,P|384:356|431:362,2,85
360,324,170474,1,8,0:0:0:0:
460,220,170827,2,0,L|440:128,1,85
476,44,171180,6,0,P|420:36|356:120,1,170,6|0,0:0|0:0,0:0:0:0:
404,188,171709,1,2,0:0:0:0:
380,268,171886,2,0,P|344:324|244:316,1,170,8|0,0:0|0:0,0:0:0:0:
180,272,172415,1,2,0:0:0:0:
128,356,172592,2,0,P|84:324|92:216,1,170,2|0,0:0|0:0,0:0:0:0:
176,220,173121,2,0,L|260:200,1,85,2|8,0:0|0:0,0:0:0:0:
92,68,173474,2,0,L|120:160,1,85
180,204,173827,1,2,0:0:0:0:
204,104,174003,6,0,P|121:100|71:179,1,170,6|0,0:0|0:0,0:0:0:0:
68,252,174533,1,2,0:0:0:0:
140,316,174709,2,0,L|236:324,1,85,8|0,0:0|0:0,0:0:0:0:
320,360,175062,2,0,L|416:368,1,85
380,272,175415,2,2,L|284:264,2,85
484,120,176121,2,0,P|460:88|416:68,1,85,8|0,0:0|0:0,0:0:0:0:
336,60,176474,1,0,0:0:0:0:
268,108,176651,1,0,0:0:0:0:
232,32,176827,6,0,P|178:85|215:174,1,170,6|0,0:0|0:0,0:0:0:0:
288,192,177356,2,0,P|328:168|368:164,1,85,0|8,0:0|0:0,0:0:0:0:
496,208,177709,2,0,P|448:276|364:268,1,170,0|2,0:0|0:0,0:0:0:0:
292,312,178239,2,0,P|230:279|230:184,1,170,2|0,0:0|0:0,0:0:0:0:
292,128,178768,1,2,0:0:0:0:
292,212,178945,2,0,P|216:203|188:111,1,170,8|0,0:0|0:0,0:0:0:0:
228,32,179474,1,2,0:0:0:0:
228,32,179651,5,6,0:0:0:0:
432,288,181415,5,0,0:0:0:0:
408,208,181768,1,0,0:0:0:0:
388,124,182121,1,0,0:0:0:0:
136,64,182474,6,0,P|168:120|272:112,1,170,4|0,0:0|0:0,0:0:0:0:
308,212,183003,2,0,P|340:244|360:284,1,85,2|0,0:0|0:0,0:0:0:0:
312,368,183356,1,0,0:0:0:0:
192,384,183533,2,0,P|144:316|199:240,1,170,8|0,0:0|0:0,0:0:0:0:
264,184,184062,2,0,P|296:140|300:96,1,85
212,44,184415,1,2,0:0:0:0:
160,160,184592,6,0,P|96:136|76:40,1,170,2|2,0:0|0:0,0:0:0:0:
196,108,185121,2,0,P|168:170|71:185,1,170,2|0,0:0|0:0,0:0:0:0:
192,188,185651,2,0,P|265:236|253:311,1,170,8|0,0:0|0:0,0:0:0:0:
144,340,186180,2,0,P|160:292|200:264,1,85,0|2,0:0|0:0,0:0:0:0:
448,280,186709,6,0,P|420:336|316:336,1,170,4|0,0:0|0:0,0:0:0:0:
252,252,187239,2,0,L|236:156,2,85,2|0|0,0:0|0:0|0:0,0:0:0:0:
352,236,187768,2,0,P|398:171|367:72,1,170,8|0,0:0|0:0,0:0:0:0:
284,48,188298,2,0,L|196:36,1,85
96,100,188651,1,2,0:0:0:0:
128,196,188827,2,0,P|200:212|272:120,1,170,2|0,0:0|0:0,0:0:0:0:
284,264,189356,2,0,P|324:320|428:312,1,170,2|0,0:0|0:0,0:0:0:0:
492,228,189886,2,0,P|450:172|346:182,1,170,8|0,0:0|0:0,0:0:0:0:
408,261,190415,2,0,P|380:301|348:314,1,85,0|2,0:0|0:0,0:0:0:0:
152,320,190945,6,0,P|109:246|161:174,1,170,6|0,0:0|0:0,0:0:0:0:
288,224,191474,2,0,P|256:252|205:251,2,85,2|0|0,0:0|0:0|0:0,0:0:0:0:
320,120,192003,2,0,P|264:64|172:88,1,170,8|0,0:0|0:0,0:0:0:0:
148,212,192533,2,0,P|188:196|212:164,1,85
312,144,192886,1,2,0:0:0:0:
284,248,193062,2,0,P|304:312|404:328,1,170,2|0,0:0|0:0,0:0:0:0:
448,260,193592,2,0,L|468:160,1,85,2|0,0:0|0:0,0:0:0:0:
436,96,193945,1,0,0:0:0:0:
388,208,194121,2,0,P|336:260|244:228,1,170,8|0,0:0|0:0,0:0:0:0:
312,152,194651,2,0,P|338:123|346:79,1,85,0|2,0:0|0:0,0:0:0:0:
412,352,195180,6,0,P|456:296|448:196,1,170,6|0,0:0|0:0,0:0:0:0:
404,108,195709,2,0,L|340:52,2,85,2|0|0,0:0|0:0|0:0,0:0:0:0:
288,124,196239,2,0,P|228:144|208:252,1,170,8|0,0:0|0:0,0:0:0:0:
296,340,196768,2,0,L|400:316,2,85,0|0|2,0:0|0:0|0:0,0:0:0:0:
152,352,197298,2,0,P|100:304|100:200,1,170,2|0,0:0|0:0,0:0:0:0:
128,96,197827,2,0,P|176:152|280:152,1,170,2|0,0:0|0:0,0:0:0:0:
400,160,198356,2,0,P|332:204|320:296,1,170,8|0,0:0|0:0,0:0:0:0:
424,352,198886,2,0,P|458:318|471:271,1,85
484,184,199239,1,2,0:0:0:0:
400,264,199415,6,0,P|344:235|336:135,1,170,6|0,0:0|0:0,0:0:0:0:
416,72,199945,2,0,P|451:105|459:158,2,85,2|0|0,0:0|0:0|0:0,0:0:0:0:
320,40,200474,2,0,P|252:56|212:152,1,170,8|0,0:0|0:0,0:0:0:0:
120,216,201003,2,0,P|92:180|92:140,2,85,0|0|2,0:0|0:0|0:0,0:0:0:0:
216,264,201533,2,0,P|183:341|104:350,1,170,2|0,0:0|0:0,0:0:0:0:
24,276,202062,2,0,P|57:199|136:190,1,170,2|0,0:0|0:0,0:0:0:0:
200,280,202592,2,0,P|284:284|332:348,1,170,8|0,0:0|0:0,0:0:0:0:
336,248,203121,2,0,P|355:208|402:187,1,85
488,164,203474,1,2,0:0:0:0:
416,240,203651,6,0,P|350:199|370:115,1,170,6|0,0:0|0:0,0:0:0:0:
448,40,204180,2,0,P|488:72|496:112,2,85,2|0|0,0:0|0:0|0:0,0:0:0:0:
328,40,204709,2,0,L|152:72,1,170,8|0,0:0|0:0,0:0:0:0:
60,92,205239,2,0,P|32:144|28:180,1,85,0|2,0:0|0:0,0:0:0:0:
128,352,205768,2,0,P|244:364|300:240,1,255,2|0,0:0|0:0,0:0:0:0:
228,152,206474,2,0,P|144:150|96:224,1,170,2|8,0:0|0:0,0:0:0:0:
272,352,207180,2,0,L|300:240,1,85
392,288,207533,2,0,P|380:212|288:152,1,170,2|4,0:0|0:0,0:0:0:0:
108,116,208239,5,0,0:0:0:0:
64,208,208415,2,0,P|108:272|200:272,1,170,2|0,0:0|0:0,0:0:0:0:
272,352,208945,2,0,P|328:316|320:204,1,170,8|0,0:0|0:0,0:0:0:0:
268,140,209474,2,0,P|236:100|236:56,2,85,0|0|2,0:0|0:0|0:0,0:0:0:0:
368,152,210003,2,0,P|280:160|240:240,1,170,2|0,0:0|0:0,0:0:0:0:
268,328,210533,2,0,P|196:340|136:272,1,170,2|0,0:0|0:0,0:0:0:0:
132,172,211062,1,8,0:0:0:0:
376,272,211415,2,0,P|357:233|311:212,1,85
220,164,211768,2,0,P|259:149|284:111,1,85,0|2,0:0|0:0,0:0:0:0:
128,160,212121,6,0,P|156:232|252:240,1,170,6|0,0:0|0:0,0:0:0:0:
328,176,212651,2,0,P|300:103|204:95,1,170,2|0,0:0|0:0,0:0:0:0:
156,168,213180,2,0,L|180:340,1,170,10|0,0:0|0:0,0:0:0:0:
280,352,213709,1,0,0:0:0:0:
268,252,213886,2,0,P|239:208|207:190,1,85
108,184,214239,2,0,P|205:186|272:52,1,255,6|2,0:0|0:0,0:0:0:0:
372,88,214945,1,0,0:0:0:0:
372,88,215298,2,0,P|320:132|192:40,1,255,10|2,0:0|0:0,0:0:0:0:
192,140,216003,2,2,P|166:187|137:211,1,85
80,288,216356,6,6,P|160:188|280:232,1,255,6|2,0:0|0:0,0:0:0:0:
340,296,217062,2,0,L|436:308,1,85
480,220,217415,1,8,0:0:0:0:
272,152,217768,2,0,P|304:120|356:116,1,85
428,172,218121,2,0,P|396:204|344:208,1,85,0|2,0:0|0:0,0:0:0:0:
304,308,218474,2,0,P|356:232|444:244,1,170,6|0,0:0|0:0,0:0:0:0:
480,320,219003,1,2,0:0:0:0:
500,96,219356,2,0,L|484:184,1,85,0|8,0:0|0:0,0:0:0:0:
400,320,219886,2,0,L|376:236,1,85
268,208,220239,2,0,P|284:160|324:132,1,85,0|2,0:0|0:0,0:0:0:0:
412,64,220592,6,0,P|480:96|496:268,1,255,6|2,0:0|0:0,0:0:0:0:
416,336,221298,2,0,P|352:300|348:196,2,170,0|8|0,0:0|0:0|0:0,0:0:0:0:
488,268,222180,2,0,P|512:220|508:184,1,85,0|2,0:0|0:0,0:0:0:0:
468,96,222533,1,2,0:0:0:0:
436,204,222709,2,0,P|372:220|312:140,1,170,6|0,0:0|0:0,0:0:0:0:
320,52,223239,2,0,P|240:28|200:96,1,170,2|0,0:0|0:0,0:0:0:0:
244,184,223768,1,8,0:0:0:0:
464,292,224122,5,2,0:0:0:0:
384,232,224298,1,2,0:0:0:0:
480,196,224475,1,2,0:0:0:0:
396,136,224651,1,2,0:0:0:0:
396,136,224827,1,6,0:0:0:0:
256,192,224915,12,0,226945,0:0:0:0:
