osu file format v12

[General]
AudioFilename: 05 SilentMajority.mp3
AudioLeadIn: 0
PreviewTime: 49768
Countdown: 1
SampleSet: Soft
StackLeniency: 0.7
Mode: 0
LetterboxInBreaks: 1
WidescreenStoryboard: 0

[Editor]
Bookmarks: 1769,13063,24357,35651,44121,49768,66709
DistanceSpacing: 1
BeatDivisor: 4
GridSize: 4

[Metadata]
Title:Silent Majority
TitleUnicode:Silent Majority
Artist:Hanatan
ArtistUnicode:Hanatan
Creator:supun123
Version:Easy
Source:
Tags:hanatan yurica dirndl frau
BeatmapID:278470
BeatmapSetID:105414

[Difficulty]
HPDrainRate:5
CircleSize:3
OverallDifficulty:3
ApproachRate:5
SliderMultiplier:0.8
SliderTickRate:1

[Events]
//Background and Video events
0,0,"Miku-hatsune-miku-25858635-1920-1080.jpg",0,0
//Break Periods
//Storyboard Layer 0 (Background)
//Storyboard Layer 1 (Fail)
//Storyboard Layer 2 (Pass)
//Storyboard Layer 3 (Foreground)
//Storyboard Sound Samples
//Background Colour Transformations
3,100,163,162,255

[TimingPoints]
1416,705.882352941176,4,2,1,55,1,0
1769,-200,4,2,1,55,0,0
3181,-200,4,2,1,5,0,0
3887,-200,4,2,1,55,0,0
6005,-200,4,2,1,5,0,0
6710,-200,4,2,1,55,0,0
8828,-200,4,2,1,5,0,0
10240,-200,4,2,1,55,0,0
11652,-200,4,2,1,5,0,0
12004,352.941176470588,4,2,1,55,1,0
14475,-100,4,2,1,5,0,0
15004,-100,4,2,1,55,0,0
17298,-100,4,2,1,5,0,0
18004,-100,4,2,1,55,0,0
20121,-100,4,2,1,5,0,0
20827,-100,4,2,1,55,0,0
49768,-100,4,2,1,70,0,1
83651,-100,4,2,1,55,0,0
182474,-100,4,2,1,70,0,1
224827,-100,4,2,1,70,0,0
225003,-100,4,2,1,5,0,0

[HitObjects]
368,348,13062,6,0,P|468:276|428:140,1,280,4|2,0:0|0:0,0:0:0:0:
252,232,15180,2,0,L|232:144,1,80
156,136,15886,6,0,P|224:44|376:80,1,280,4|2,0:0|0:0,0:0:0:0:
336,276,18003,1,0,0:0:0:0:
404,316,18356,1,0,0:0:0:0:
448,248,18709,6,0,B|416:200|328:188|320:292|224:252|200:200,1,280,4|2,0:0|0:0,0:0:0:0:
24,296,20827,2,0,P|32:216|96:152,1,160,0|4,0:0|0:0,0:0:0:0:
232,100,22239,5,8,0:0:0:0:
332,224,22945,2,0,L|320:312,1,80,2|2,0:0|0:0,0:0:0:0:
392,344,23651,2,0,P|444:312|444:208,1,160,8|4,0:0|0:0,0:0:0:0:
336,196,24886,6,0,L|356:64,1,120
120,132,26474,2,0,P|156:184|260:200,1,160,8|6,0:0|0:0,0:0:0:0:
364,176,27709,6,0,P|320:204|300:280,1,120,2|0,0:0|0:0,0:0:0:0:
336,336,28592,1,2,0:0:0:0:
176,328,29298,2,0,P|116:280|116:188,1,160,8|4,0:0|0:0,0:0:0:0:
40,104,30533,6,0,P|74:66|154:71,1,120,2|0,0:0|0:0,0:0:0:0:
216,40,31415,2,0,L|248:128,1,80
324,104,32121,2,0,P|315:177|231:218,1,160,0|4,0:0|0:0,0:0:0:0:
308,368,33533,5,8,0:0:0:0:
216,240,34239,2,2,L|228:160,1,80
188,92,34945,1,2,0:0:0:0:
80,208,35651,5,4,0:0:0:0:
112,324,36180,2,0,P|152:368|220:368,1,120,0|0,0:0|0:0,0:0:0:0:
436,300,37768,2,0,P|488:240|484:160,1,160,8|6,0:0|0:0,0:0:0:0:
384,100,39003,6,6,L|292:80,1,80
276,156,39709,2,0,L|476:200,1,200,6|8,0:0|0:0,0:0:0:0:
320,256,41298,6,0,P|256:268|224:312,1,120,4|2,0:0|0:0,0:0:0:0:
108,280,42356,2,0,L|96:184,1,80,0|2,0:0|0:0,0:0:0:0:
208,196,43415,2,0,P|284:216|336:152,2,160,0|4|0,0:0|0:0|0:0,0:0:0:0:
92,84,45533,6,0,P|144:152|136:236,1,160,0|8,0:0|0:0,0:0:0:0:
276,308,46945,6,0,P|328:260|416:264,1,160,4|0,0:0|0:0,0:0:0:0:
436,104,48356,2,0,P|396:96|368:64,1,80
292,84,49062,1,0,0:0:0:0:
312,160,49415,1,0,0:0:0:0:
252,216,49768,6,0,P|136:232|88:120,1,240,4|8,0:0|0:0,0:0:0:0:
300,72,51886,6,0,P|348:92|368:260,1,240,6|8,0:0|0:0,0:0:0:0:
292,280,53298,2,0,P|260:248|256:208,1,80
196,272,54003,6,0,P|124:284|76:152,1,240,4|8,0:0|0:0,0:0:0:0:
316,120,56121,2,0,P|371:118|416:61,1,120,2|2,0:0|0:0,0:0:0:0:
400,192,57180,2,0,P|418:264|498:277,1,160,8|0,0:0|0:0,0:0:0:0:
484,200,58239,6,8,B|464:156|360:148|404:232|280:220|268:168,3,240,4|8|2|8,0:0|0:0|0:0|0:0,0:0:0:0:
204,220,61768,2,0,P|176:192|168:152,1,80
120,92,62474,6,0,B|148:36|240:8|304:68|308:128,2,240,6|8|2,0:0|0:0|0:0,0:0:0:0:
56,212,65121,2,0,P|80:256|156:272,1,120,2|8,0:0|0:0,0:0:0:0:
204,224,66003,1,0,0:0:0:0:
184,148,66356,1,0,0:0:0:0:
252,108,66709,6,0,P|360:152|360:264,1,240,4|8,0:0|0:0,0:0:0:0:
124,296,68827,2,0,P|172:200|296:216,1,240,2|8,0:0|0:0,0:0:0:0:
340,272,70239,2,0,P|372:296|416:300,1,80
460,240,70945,6,0,L|484:108,2,120,6|2|8,0:0|0:0|0:0,0:0:0:0:
328,332,72709,1,2,0:0:0:0:
256,300,73062,2,0,B|195:262|180:201|193:137|265:104,2,240,2|8|4,0:0|0:0|0:0,0:0:0:0:
328,264,75533,2,0,P|284:200|200:208,1,160
188,280,76592,2,0,P|132:320|36:296,1,160
104,200,77827,2,0,P|124:164|200:140,1,120
268,176,78709,1,0,0:0:0:0:
