osu file format v14

[General]
AudioFilename: shiwa.mp3
AudioLeadIn: 0
PreviewTime: 33644
Countdown: 0
SampleSet: Soft
StackLeniency: 0.7
Mode: 3
LetterboxInBreaks: 0
SpecialStyle: 0
WidescreenStoryboard: 0

[Editor]
Bookmarks: 33239
DistanceSpacing: 0.8
BeatDivisor: 4
GridSize: 4
TimelineZoom: 1.3

[Metadata]
Title:Shiwa
TitleUnicode:しわ
Artist:Hanatan
ArtistUnicode:花たん
Creator:puxtu
Version:HD
Source:
Tags:bilqiscutee YURiCa cordelia VOCALOID utaite nicovideo buzzG
BeatmapID:476760
BeatmapSetID:201333

[Difficulty]
HPDrainRate:8
CircleSize:4
OverallDifficulty:8
ApproachRate:9
SliderMultiplier:1.4
SliderTickRate:1

[Events]
//Background and Video events
0,0,"Mogelatte.full.868006.jpg",0,0
//Break Periods
//Storyboard Layer 0 (Background)
//Storyboard Layer 1 (Fail)
//Storyboard Layer 2 (Pass)
//Storyboard Layer 3 (Foreground)
//Storyboard Sound Samples

[TimingPoints]
2834,324.324324324324,4,2,1,10,1,0
33969,-100,4,2,1,10,0,1
67698,-100,4,2,1,10,0,0
109212,-100,4,2,1,10,0,1
142942,-100,4,2,1,10,0,0
174077,-133.333333333333,4,2,1,10,0,0
182833,-100,4,2,1,10,0,0
184455,-100,4,2,1,10,0,1
215590,-100,4,2,1,10,0,0

[HitObjects]
64,192,2834,128,0,3158:0:0:0:70:cymbol 2.wav
320,192,2834,1,0,0:0:0:70:bass.wav
192,192,3158,1,0,0:0:0:70:hihat.wav
448,192,3158,1,0,0:0:0:70:snare.wav
320,192,3482,1,0,0:0:0:70:bass.wav
192,192,3644,1,0,0:0:0:70:bass.wav
64,192,3806,1,0,0:0:0:70:hihat.wav
448,192,3806,1,0,0:0:0:70:snare.wav
320,192,4131,1,0,0:0:0:70:bass.wav
64,192,4455,1,0,0:0:0:70:hihat.wav
448,192,4455,1,0,0:0:0:70:snare.wav
320,192,4617,1,0,0:0:0:0:
192,192,4779,1,0,0:0:0:70:bass.wav
448,192,4942,1,0,0:0:0:70:bass.wav
192,192,5104,1,0,0:0:0:70:snare.wav
64,192,5104,1,0,0:0:0:70:hihat.wav
448,192,5266,1,0,0:0:0:0:
192,192,5428,1,0,0:0:0:70:bass.wav
64,192,5752,1,0,0:0:0:70:hihat.wav
448,192,5752,1,0,0:0:0:70:snare.wav
448,192,6077,1,0,0:0:0:70:bass.wav
320,192,6239,1,0,0:0:0:70:bass.wav
448,192,6401,1,0,0:0:0:70:hihat.wav
64,192,6401,1,0,0:0:0:70:snare.wav
320,192,6725,1,0,0:0:0:70:bass.wav
448,192,7050,1,0,0:0:0:70:snare.wav
64,192,7050,1,0,0:0:0:70:hihat.wav
192,192,7374,1,0,0:0:0:70:bass.wav
320,192,7536,1,0,0:0:0:70:bass.wav
64,192,7698,1,0,0:0:0:70:hihat.wav
448,192,7698,1,0,0:0:0:70:snare.wav
192,192,8023,1,0,0:0:0:70:bass.wav
64,192,8347,1,0,0:0:0:70:snare.wav
448,192,8347,1,0,0:0:0:70:hihat.wav
192,192,8671,1,0,0:0:0:70:bass.wav
64,192,8833,1,0,0:0:0:70:bass.wav
192,192,8996,1,0,0:0:0:70:snare.wav
448,192,8996,1,0,0:0:0:70:hihat.wav
320,192,9320,1,0,0:0:0:70:bass.wav
192,192,9644,1,0,0:0:0:70:snare.wav
64,192,9644,1,0,0:0:0:70:hihat.wav
192,192,9969,1,0,0:0:0:70:bass.wav
448,192,10131,1,0,0:0:0:70:bass.wav
64,192,10293,1,0,0:0:0:70:hihat01-M.wav
320,192,10293,1,0,0:0:0:70:snare.wav
192,192,10617,1,0,0:0:0:70:bass.wav
320,192,10942,1,0,0:0:0:70:hihat.wav
64,192,10942,1,0,0:0:0:70:snare.wav
320,192,11266,1,0,0:0:0:70:bass.wav
192,192,11428,1,0,0:0:0:70:bass.wav
64,192,11590,1,0,0:0:0:70:snare.wav
448,192,11590,1,0,0:0:0:70:hihat.wav
320,192,11915,1,0,0:0:0:70:bass.wav
64,192,12239,1,0,0:0:0:70:snare.wav
448,192,12239,1,0,0:0:0:70:hihat.wav
448,192,12563,1,0,0:0:0:50:snare.wav
320,192,12644,1,0,0:0:0:50:snare.wav
192,192,12725,1,0,0:0:0:50:snare.wav
64,192,12806,1,0,0:0:0:50:snare.wav
448,192,12888,1,0,0:0:0:50:tom01.wav
320,192,12969,1,0,0:0:0:50:tom01.wav
192,192,13050,1,0,0:0:0:50:tom02.wav
64,192,13131,1,0,0:0:0:50:tom02.wav
320,192,13212,1,0,0:0:0:70:cymbol 2.wav
448,192,13212,128,0,13536:0:0:0:70:hihat01.wav
192,192,13536,1,0,0:0:0:70:hihat.wav
320,192,13536,1,0,0:0:0:70:snare.wav
64,192,13698,1,0,0:0:0:0:
192,192,13861,1,0,0:0:0:70:bass.wav
320,192,14023,1,0,0:0:0:70:bass.wav
448,192,14185,1,0,0:0:0:70:hihat.wav
192,192,14185,1,0,0:0:0:70:snare.wav
64,192,14347,1,0,0:0:0:0:
320,192,14509,1,0,0:0:0:70:bass.wav
192,192,14671,1,0,0:0:0:0:
448,192,14833,1,0,0:0:0:70:snare.wav
64,192,14833,1,0,0:0:0:70:hihat.wav
320,192,14996,1,0,0:0:0:0:
192,192,15158,1,0,0:0:0:70:bass.wav
320,192,15320,1,0,0:0:0:70:bass.wav
448,192,15482,1,0,0:0:0:70:hihat.wav
192,192,15482,1,0,0:0:0:70:snare.wav
64,192,15644,1,0,0:0:0:0:
320,192,15806,1,0,0:0:0:70:hihat.wav
192,192,15806,128,0,16131:0:0:0:70:bass.wav
448,192,15969,1,0,0:0:0:0:
64,192,16131,1,0,0:0:0:70:hihat.wav
320,192,16131,1,0,0:0:0:70:snare.wav
448,192,16293,1,0,0:0:0:0:
64,192,16455,1,0,0:0:0:70:bass.wav
320,192,16617,1,0,0:0:0:70:bass.wav
448,192,16779,1,0,0:0:0:70:hihat.wav
192,192,16779,1,0,0:0:0:70:snare.wav
320,192,16942,1,0,0:0:0:0:
64,192,17104,1,0,0:0:0:70:bass.wav
192,192,17266,1,0,0:0:0:0:
448,192,17428,1,0,0:0:0:70:snare.wav
320,192,17428,1,0,0:0:0:70:hihat.wav
64,192,17590,1,0,0:0:0:0:
320,192,17752,1,0,0:0:0:70:bass.wav
192,192,17915,1,0,0:0:0:70:bass.wav
448,192,18077,1,0,0:0:0:50:snare.wav
320,192,18158,1,0,0:0:0:50:snare.wav
192,192,18239,1,0,0:0:0:50:snare.wav
64,192,18320,1,0,0:0:0:50:snare.wav
320,192,18401,1,0,0:0:0:70:hihat01-M.wav
448,192,18401,128,0,18725:0:0:0:70:cymbol.wav
64,192,18725,1,0,0:0:0:70:hihat01-M.wav
320,192,18725,1,0,0:0:0:70:snare.wav
448,192,19050,1,0,0:0:0:70:bass.wav
64,192,19212,1,0,0:0:0:70:bass.wav
448,192,19374,1,0,0:0:0:70:hihat01-M.wav
192,192,19374,1,0,0:0:0:70:snare.wav
320,192,19698,1,0,0:0:0:70:bass.wav
64,192,20023,1,0,0:0:0:70:hihat01-M.wav
192,192,20023,1,0,0:0:0:70:snare.wav
192,192,20347,1,0,0:0:0:70:bass.wav
448,192,20509,1,0,0:0:0:70:bass.wav
320,192,20671,1,0,0:0:0:70:hihat01-M.wav
64,192,20671,1,0,0:0:0:70:snare.wav
192,192,20996,1,0,0:0:0:70:bass.wav
448,192,21320,1,0,0:0:0:70:hihat01-M.wav
320,192,21320,1,0,0:0:0:70:snare.wav
64,192,21644,1,0,0:0:0:70:bass.wav
192,192,21806,1,0,0:0:0:70:bass.wav
64,192,21969,1,0,0:0:0:70:hihat01-M.wav
320,192,21969,1,0,0:0:0:70:snare.wav
192,192,22293,1,0,0:0:0:70:bass.wav
448,192,22617,1,0,0:0:0:70:hihat01-M.wav
64,192,22617,1,0,0:0:0:70:snare.wav
192,186,22861,1,0,0:0:0:50:snare.wav
448,192,22942,1,0,0:0:0:50:bass.wav
64,192,23104,1,0,0:0:0:30:tom02.wav
192,192,23185,1,0,0:0:0:30:tom01.wav
320,192,23266,1,0,0:0:0:70:hihat01-M.wav
64,192,23428,1,0,0:0:0:30:tom01.wav
192,192,23590,1,0,0:0:0:70:hihat.wav
320,192,23590,1,0,0:0:0:70:bass.wav
448,192,23915,1,0,0:0:0:70:cymbol.wav
192,192,23915,1,0,0:0:0:70:snare.wav
64,192,23915,128,0,24239:0:0:0:0:
192,192,24239,1,0,0:0:0:70:bass.wav
448,192,24401,1,0,0:0:0:70:bass.wav
192,192,24563,1,0,0:0:0:70:hihat.wav
64,192,24725,1,0,0:0:0:70:snare.wav
320,192,24725,1,0,0:0:0:0:
192,192,24888,1,0,0:0:0:70:hihat.wav
64,192,25050,1,0,0:0:0:70:bass.wav
192,192,25212,1,0,0:0:0:70:hihat.wav
320,192,25212,1,0,0:0:0:70:snare.wav
448,192,25374,1,0,0:0:0:0:
64,192,25536,1,0,0:0:0:70:bass.wav
320,192,25698,1,0,0:0:0:70:bass.wav
192,192,25861,1,0,0:0:0:70:hihat.wav
448,192,25861,1,0,0:0:0:70:snare.wav
64,192,26023,1,0,0:0:0:0:
320,192,26185,1,0,0:0:0:70:hihat.wav
448,192,26185,128,0,26509:0:0:0:70:bass.wav
64,192,26509,1,0,0:0:0:70:snare.wav
320,192,26509,1,0,0:0:0:70:hihat.wav
192,192,26671,1,0,0:0:0:0:
448,192,26833,1,0,0:0:0:70:bass.wav
320,192,26996,1,0,0:0:0:70:bass.wav
64,192,27158,1,0,0:0:0:70:hihat.wav
192,192,27320,1,0,0:0:0:70:snare.wav
320,192,27320,1,0,0:0:0:0:
448,192,27482,1,0,0:0:0:70:hihat.wav
64,192,27644,1,0,0:0:0:70:bass.wav
192,192,27806,1,0,0:0:0:70:snare.wav
448,192,27806,1,0,0:0:0:70:hihat.wav
320,192,27969,1,0,0:0:0:0:
192,192,28131,1,0,0:0:0:70:bass.wav
320,192,28293,1,0,0:0:0:70:bass.wav
192,192,28455,1,0,0:0:0:70:hihat.wav
64,192,28455,1,0,0:0:0:70:snare.wav
448,192,28617,1,0,0:0:0:50:snare.wav
320,192,28698,1,0,0:0:0:50:snare.wav
192,192,28779,1,0,0:0:0:70:hihat.wav
64,192,28779,1,0,0:0:0:70:bass.wav
320,192,29104,1,0,0:0:0:70:cymbol.wav
64,192,29104,1,0,0:0:0:70:snare.wav
448,192,29104,128,0,29428:0:0:0:0:
64,192,29428,1,0,0:0:0:70:bass.wav
320,192,29590,1,0,0:0:0:70:bass.wav
192,192,29752,1,0,0:0:0:70:hihat.wav
64,192,29915,1,0,0:0:0:70:snare.wav
448,192,29915,1,0,0:0:0:0:
320,192,30077,1,0,0:0:0:70:hihat.wav
192,192,30239,1,0,0:0:0:70:bass.wav
64,192,30401,1,0,0:0:0:70:hihat.wav
448,192,30401,1,0,0:0:0:70:snare.wav
192,192,30563,1,0,0:0:0:0:
320,192,30725,1,0,0:0:0:70:bass.wav
192,192,30888,1,0,0:0:0:70:bass.wav
64,192,31050,1,0,0:0:0:70:hihat.wav
320,192,31050,1,0,0:0:0:70:snare.wav
192,192,31374,1,0,0:0:0:70:cymbol.wav
64,192,31374,1,0,0:0:0:70:bass.wav
448,192,31374,128,0,31861:0:0:0:0:
192,192,31698,1,0,0:0:0:0:
64,192,31861,1,0,0:0:0:70:hihat.wav
320,192,31861,1,0,0:0:0:50:snare.wav
64,192,32185,1,0,0:0:0:70:bass.wav
448,192,32347,1,0,0:0:0:70:snare.wav
320,192,32347,1,0,0:0:0:70:hihat.wav
64,192,32509,1,0,0:0:0:70:snare.wav
192,192,32509,1,0,0:0:0:0:
448,192,32671,1,0,0:0:0:70:bass.wav
64,192,32833,1,0,0:0:0:50:hihat01.wav
192,192,32833,1,0,0:0:0:70:snare.wav
192,192,32996,1,0,0:0:0:50:hihat01.wav
320,192,32996,1,0,0:0:0:70:snare.wav
320,192,33158,1,0,0:0:0:50:hihat01.wav
448,192,33158,128,0,33644:0:0:0:70:snare.wav
192,192,33969,5,0,0:0:0:70:cymbol 2.wav
64,192,33969,128,0,34293:0:0:0:70:hihat01.wav
448,192,34293,1,0,0:0:0:70:hihat.wav
192,192,34293,1,0,0:0:0:70:snare.wav
64,192,34617,1,0,0:0:0:70:bass.wav
192,192,34779,1,0,0:0:0:70:bass.wav
448,192,34942,1,0,0:0:0:70:snare.wav
320,192,34942,1,0,0:0:0:70:hihat.wav
64,192,35104,1,0,0:0:0:0:
320,192,35266,1,0,0:0:0:70:bass.wav
192,192,35428,1,0,0:0:0:70:bass.wav
448,192,35590,1,0,0:0:0:70:hihat.wav
64,192,35590,1,0,0:0:0:70:snare.wav
320,192,35752,1,0,0:0:0:0:
192,192,35915,1,0,0:0:0:70:bass.wav
320,192,36077,1,0,0:0:0:70:bass.wav
448,192,36239,1,0,0:0:0:70:snare.wav
192,192,36239,1,0,0:0:0:70:hihat.wav
64,192,36401,1,0,0:0:0:0:
320,192,36563,1,0,0:0:0:70:bass.wav
448,192,36725,1,0,0:0:0:0:
64,192,36888,1,0,0:0:0:70:snare.wav
192,192,36888,1,0,0:0:0:70:hihat.wav
320,192,37050,1,0,0:0:0:0:
192,192,37212,1,0,0:0:0:70:bass.wav
320,192,37374,1,0,0:0:0:70:bass.wav
448,192,37536,1,0,0:0:0:70:hihat.wav
192,192,37536,1,0,0:0:0:70:snare.wav
320,192,37698,1,0,0:0:0:0:
64,192,37861,1,0,0:0:0:70:bass.wav
192,192,38023,1,0,0:0:0:70:bass.wav
448,192,38185,1,0,0:0:0:70:hihat.wav
320,192,38185,1,0,0:0:0:70:snare.wav
64,192,38347,1,0,0:0:0:0:
192,192,38509,1,0,0:0:0:70:bass.wav
320,192,38671,1,0,0:0:0:70:bass.wav
448,192,38833,1,0,0:0:0:70:hihat.wav
192,192,38833,1,0,0:0:0:70:snare.wav
64,192,39077,1,0,0:0:0:50:snare.wav
448,192,39158,128,0,39482:0:0:0:70:cymbol 2.wav
320,192,39158,1,0,0:0:0:70:bass.wav
192,192,39482,1,0,0:0:0:70:snare.wav
64,192,39482,1,0,0:0:0:70:hihat.wav
320,192,39644,1,0,0:0:0:0:
448,192,39806,1,0,0:0:0:70:bass.wav
64,192,39969,1,0,0:0:0:70:bass.wav
448,192,40131,1,0,0:0:0:70:snare.wav
192,192,40131,1,0,0:0:0:70:hihat.wav
64,192,40293,1,0,0:0:0:0:
320,192,40455,1,0,0:0:0:70:bass.wav
448,192,40617,1,0,0:0:0:70:bass.wav
64,192,40779,1,0,0:0:0:70:hihat.wav
192,192,40779,1,0,0:0:0:70:snare.wav
320,192,40942,1,0,0:0:0:0:
192,192,41104,1,0,0:0:0:70:bass.wav
448,192,41266,1,0,0:0:0:70:bass.wav
320,192,41428,1,0,0:0:0:70:snare.wav
64,192,41428,1,0,0:0:0:70:hihat.wav
192,192,41590,1,0,0:0:0:0:
320,192,41752,1,0,0:0:0:70:bass.wav
448,192,41915,1,0,0:0:0:0:
64,192,42077,1,0,0:0:0:70:hihat.wav
320,192,42077,1,0,0:0:0:70:snare.wav
192,192,42239,1,0,0:0:0:0:
448,192,42401,1,0,0:0:0:70:bass.wav
192,192,42563,1,0,0:0:0:70:bass.wav
64,192,42725,1,0,0:0:0:70:hihat.wav
320,192,42725,1,0,0:0:0:70:snare.wav
192,192,42888,1,0,0:0:0:0:
448,192,43050,1,0,0:0:0:70:bass.wav
64,192,43212,1,0,0:0:0:70:bass.wav
448,192,43374,1,0,0:0:0:70:snare.wav
192,192,43374,1,0,0:0:0:70:hihat.wav
320,192,43536,1,0,0:0:0:0:
192,192,43698,1,0,0:0:0:70:bass.wav
320,192,43861,1,0,0:0:0:70:snare.wav
64,192,43861,1,0,0:0:0:0:
448,192,44023,1,0,0:0:0:70:bass.wav
192,192,44185,1,0,0:0:0:50:snare.wav
320,185,44266,1,0,0:0:0:50:snare.wav
448,192,44347,1,0,0:0:0:70:cymbol 2.wav
64,192,44347,128,0,44671:0:0:0:70:bass.wav
192,192,44671,1,0,0:0:0:70:snare.wav
448,192,44671,1,0,0:0:0:70:hihat.wav
320,192,44833,1,0,0:0:0:0:
64,192,44996,1,0,0:0:0:70:bass.wav
192,192,45158,1,0,0:0:0:70:bass.wav
448,192,45320,1,0,0:0:0:70:snare.wav
320,192,45320,1,0,0:0:0:70:hihat.wav
64,192,45482,1,0,0:0:0:0:
320,192,45644,1,0,0:0:0:70:bass.wav
192,192,45806,1,0,0:0:0:70:bass.wav
64,192,45969,1,0,0:0:0:70:snare.wav
448,192,45969,1,0,0:0:0:70:hihat.wav
320,192,46131,1,0,0:0:0:0:
192,192,46293,1,0,0:0:0:70:bass.wav
320,192,46455,1,0,0:0:0:70:bass.wav
192,192,46617,1,0,0:0:0:70:snare.wav
448,192,46617,1,0,0:0:0:70:hihat.wav
64,192,46779,1,0,0:0:0:0:
320,192,46942,1,0,0:0:0:70:bass.wav
448,192,47104,1,0,0:0:0:70:bass.wav
192,192,47266,1,0,0:0:0:70:snare.wav
64,192,47266,1,0,0:0:0:70:hihat.wav
448,192,47428,1,0,0:0:0:0:
64,192,47590,1,0,0:0:0:70:bass.wav
320,192,47752,1,0,0:0:0:70:bass.wav
192,192,47915,1,0,0:0:0:70:snare.wav
448,192,47915,1,0,0:0:0:70:hihat.wav
320,192,48077,1,0,0:0:0:0:
64,192,48239,1,0,0:0:0:70:bass.wav
192,192,48401,1,0,0:0:0:30:hihat02.wav
448,192,48401,1,0,0:0:0:70:snare.wav
64,192,48563,1,0,0:0:0:30:hihat02.wav
320,192,48563,1,0,0:0:0:70:snare.wav
320,192,48806,1,0,0:0:0:0:
448,192,48888,1,0,0:0:0:50:snare.wav
192,192,48888,1,0,0:0:0:70:bass.wav
64,192,49050,1,0,0:0:0:50:snare.wav
192,192,49131,1,0,0:0:0:50:snare.wav
448,192,49212,1,0,0:0:0:50:snare.wav
320,192,49212,1,0,0:0:0:70:bass.wav
64,192,49374,1,0,0:0:0:50:snare.wav
190,192,49455,1,0,0:0:0:50:snare.wav
320,192,49536,1,0,0:0:0:70:cymbol 2.wav
448,192,49536,128,0,49861:0:0:0:50:snare.wav
64,192,49861,1,0,0:0:0:70:hihat.wav
320,192,49861,1,0,0:0:0:70:snare.wav
448,192,50185,1,0,0:0:0:70:bass.wav
319,192,50347,1,0,0:0:0:70:bass.wav
192,192,50509,1,0,0:0:0:70:hihat.wav
448,192,50509,1,0,0:0:0:70:snare.wav
64,192,50671,1,0,0:0:0:0:
320,192,50833,1,0,0:0:0:70:bass.wav
448,192,50996,1,0,0:0:0:70:bass.wav
192,192,51158,1,0,0:0:0:70:hihat.wav
64,192,51158,1,0,0:0:0:70:snare.wav
320,192,51320,1,0,0:0:0:0:
192,192,51482,1,0,0:0:0:70:bass.wav
448,192,51644,1,0,0:0:0:70:bass.wav
64,192,51806,1,0,0:0:0:70:hihat.wav
320,192,51806,1,0,0:0:0:70:snare.wav
448,192,51969,1,0,0:0:0:0:
192,192,52131,1,0,0:0:0:70:bass.wav
64,192,52293,1,0,0:0:0:0:
320,192,52455,1,0,0:0:0:70:snare.wav
448,192,52455,1,0,0:0:0:70:hihat.wav
192,192,52617,1,0,0:0:0:0:
64,192,52779,1,0,0:0:0:70:bass.wav
192,192,52942,1,0,0:0:0:70:bass.wav
320,192,53104,1,0,0:0:0:70:hihat.wav
64,192,53104,1,0,0:0:0:70:snare.wav
192,192,53266,1,0,0:0:0:0:
448,192,53428,1,0,0:0:0:70:bass.wav
320,192,53590,1,0,0:0:0:70:bass.wav
64,192,53752,1,0,0:0:0:70:snare.wav
448,192,53752,1,0,0:0:0:70:hihat.wav
192,192,53915,1,0,0:0:0:0:
64,192,54077,1,0,0:0:0:70:bass.wav
448,192,54239,1,0,0:0:0:70:bass.wav
320,192,54401,1,0,0:0:0:70:hihat.wav
64,192,54401,1,0,0:0:0:70:snare.wav
448,192,54644,1,0,0:0:0:50:snare.wav
192,192,54725,1,0,0:0:0:70:cymbol 2.wav
64,192,54725,128,0,55050:0:0:0:70:bass.wav
192,192,55050,1,0,0:0:0:70:snare.wav
320,192,55050,1,0,0:0:0:70:hihat.wav
448,192,55212,1,0,0:0:0:0:
192,192,55374,1,0,0:0:0:70:bass.wav
64,192,55536,1,0,0:0:0:70:bass.wav
320,192,55698,1,0,0:0:0:70:snare.wav
448,192,55698,1,0,0:0:0:70:hihat.wav
192,192,55861,1,0,0:0:0:0:
320,192,56023,1,0,0:0:0:70:bass.wav
64,192,56185,1,0,0:0:0:70:bass.wav
320,192,56347,1,0,0:0:0:70:snare.wav
192,192,56347,1,0,0:0:0:70:hihat.wav
64,192,56509,1,0,0:0:0:0:
448,192,56671,1,0,0:0:0:70:bass.wav
320,192,56833,1,0,0:0:0:70:bass.wav
448,192,56996,1,0,0:0:0:70:hihat.wav
192,192,56996,1,0,0:0:0:70:snare.wav
64,192,57158,1,0,0:0:0:0:
320,192,57320,1,0,0:0:0:70:bass.wav
448,192,57482,1,0,0:0:0:0:
192,192,57644,1,0,0:0:0:70:snare.wav
64,192,57644,1,0,0:0:0:70:hihat.wav
320,192,57806,1,0,0:0:0:0:
448,192,57969,1,0,0:0:0:70:bass.wav
320,192,58131,1,0,0:0:0:70:bass.wav
64,192,58293,1,0,0:0:0:70:snare.wav
448,192,58293,1,0,0:0:0:70:hihat.wav
192,192,58455,1,0,0:0:0:0:
64,192,58617,1,0,0:0:0:70:bass.wav
320,192,58779,1,0,0:0:0:70:bass.wav
448,192,58942,1,0,0:0:0:70:hihat.wav
192,192,58942,1,0,0:0:0:70:snare.wav
64,192,59104,1,0,0:0:0:0:
192,192,59266,1,0,0:0:0:70:bass.wav
320,192,59428,1,0,0:0:0:70:snare.wav
448,192,59428,1,0,0:0:0:0:
64,192,59590,1,0,0:0:0:70:bass.wav
320,192,59752,1,0,0:0:0:50:snare.wav
192,192,59833,1,0,0:0:0:50:snare.wav
64,192,59915,1,0,0:0:0:70:cymbol 2.wav
448,192,59915,128,0,60239:0:0:0:70:bass.wav
64,192,60239,1,0,0:0:0:70:snare.wav
320,192,60239,1,0,0:0:0:70:hihat.wav
192,192,60401,1,0,0:0:0:0:
320,192,60563,1,0,0:0:0:70:bass.wav
448,192,60725,1,0,0:0:0:70:bass.wav
64,192,60725,1,0,0:0:0:0:
320,192,60888,1,0,0:0:0:70:snare.wav
192,192,60888,1,0,0:0:0:70:hihat.wav
448,192,61050,1,0,0:0:0:0:
64,192,61212,1,0,0:0:0:70:bass.wav
320,192,61374,1,0,0:0:0:70:bass.wav
448,192,61536,1,0,0:0:0:70:hihat.wav
64,192,61536,1,0,0:0:0:70:snare.wav
192,192,61698,1,0,0:0:0:0:
320,192,61861,1,0,0:0:0:70:bass.wav
192,192,62023,1,0,0:0:0:70:bass.wav
448,192,62185,1,0,0:0:0:70:hihat.wav
64,192,62185,1,0,0:0:0:70:snare.wav
192,191,62428,1,0,0:0:0:50:snare.wav
320,192,62509,1,0,0:0:0:70:cymbol 2.wav
64,192,62509,128,0,62833:0:0:0:70:bass.wav
192,192,62833,1,0,0:0:0:70:hihat.wav
320,192,62833,1,0,0:0:0:70:snare.wav
448,192,62996,1,0,0:0:0:0:
64,192,63158,1,0,0:0:0:70:bass.wav
448,192,63320,1,0,0:0:0:70:bass.wav
64,192,63482,1,0,0:0:0:70:snare.wav
320,192,63482,1,0,0:0:0:70:hihat.wav
320,192,63725,1,0,0:0:0:50:snare.wav
192,192,63806,1,0,0:0:0:70:cymbol 2.wav
448,192,63806,128,0,64131:0:0:0:70:bass.wav
192,192,64131,1,0,0:0:0:70:snare.wav
320,192,64131,1,0,0:0:0:70:hihat.wav
64,192,64293,1,0,0:0:0:0:
320,192,64455,1,0,0:0:0:70:bass.wav
448,192,64617,1,0,0:0:0:70:bass.wav
320,192,64779,1,0,0:0:0:70:hihat.wav
64,192,64779,1,0,0:0:0:70:snare.wav
192,192,65023,1,0,0:0:0:50:snare.wav
320,192,65104,1,0,0:0:0:70:cymbol 2.wav
64,192,65104,128,0,65428:0:0:0:70:bass.wav
320,192,65428,1,0,0:0:0:70:snare.wav
192,192,65428,1,0,0:0:0:70:hihat.wav
448,192,65671,1,0,0:0:0:0:
64,192,65752,1,0,0:0:0:50:snare.wav
192,192,65752,1,0,0:0:0:70:bass.wav
318,192,65915,1,0,0:0:0:50:snare.wav
192,192,65996,1,0,0:0:0:50:snare.wav
64,192,66077,1,0,0:0:0:50:snare.wav
320,192,66239,1,0,0:0:0:50:snare.wav
192,192,66320,1,0,0:0:0:50:snare.wav
64,192,66401,1,0,0:0:0:70:cymbol 2.wav
448,192,66401,128,0,67698:0:0:0:50:snare.wav
192,192,67698,1,0,0:0:0:50:cymbol 2.wav
64,192,67698,1,0,0:0:0:50:cymbol.wav
448,192,67861,1,0,0:0:0:0:
64,192,68023,1,0,0:0:0:70:hihat.wav
320,192,68023,1,0,0:0:0:70:snare.wav
192,192,68185,1,0,0:0:0:0:
320,192,68347,1,0,0:0:0:70:bass.wav
192,192,68509,1,0,0:0:0:70:bass.wav
64,192,68671,1,0,0:0:0:70:hihat.wav
448,192,68671,1,0,0:0:0:70:snare.wav
192,192,68833,1,0,0:0:0:0:
320,192,68996,1,0,0:0:0:70:bass.wav
64,192,69158,1,0,0:0:0:0:
448,192,69320,1,0,0:0:0:70:hihat.wav
320,192,69320,1,0,0:0:0:70:snare.wav
192,192,69482,1,0,0:0:0:0:
320,192,69644,1,0,0:0:0:70:bass.wav
64,192,69806,1,0,0:0:0:0:
192,192,69969,1,0,0:0:0:70:snare.wav
448,192,69969,1,0,0:0:0:70:hihat.wav
320,192,70131,1,0,0:0:0:0:
192,192,70293,1,0,0:0:0:70:bass.wav
64,192,70455,1,0,0:0:0:0:
192,192,70617,1,0,0:0:0:70:snare.wav
320,192,70617,1,0,0:0:0:70:hihat.wav
448,192,70779,1,0,0:0:0:0:
320,192,70942,1,0,0:0:0:70:bass.wav
192,192,71104,1,0,0:0:0:70:bass.wav
64,192,71266,1,0,0:0:0:70:hihat.wav
448,192,71266,1,0,0:0:0:70:snare.wav
192,192,71428,1,0,0:0:0:0:
320,192,71590,1,0,0:0:0:70:bass.wav
192,192,71752,1,0,0:0:0:0:
64,192,71915,1,0,0:0:0:70:snare.wav
448,192,71915,1,0,0:0:0:70:hihat.wav
320,192,72077,1,0,0:0:0:0:
192,192,72239,1,0,0:0:0:70:bass.wav
64,192,72401,1,0,0:0:0:0:
320,192,72563,1,0,0:0:0:70:hihat.wav
448,192,72563,1,0,0:0:0:70:snare.wav
64,192,72725,1,0,0:0:0:0:
192,192,72888,1,0,0:0:0:70:bass.wav
320,192,73050,1,0,0:0:0:0:
192,192,73212,1,0,0:0:0:70:hihat.wav
64,192,73212,1,0,0:0:0:70:snare.wav
448,192,73374,1,0,0:0:0:0:
320,192,73536,1,0,0:0:0:70:bass.wav
192,192,73698,1,0,0:0:0:70:bass.wav
320,192,73861,1,0,0:0:0:70:hihat.wav
448,192,73861,1,0,0:0:0:70:snare.wav
64,192,74023,1,0,0:0:0:0:
192,192,74185,1,0,0:0:0:70:bass.wav
320,192,74347,1,0,0:0:0:0:
192,192,74509,1,0,0:0:0:70:hihat.wav
64,192,74509,1,0,0:0:0:70:snare.wav
448,192,74671,1,0,0:0:0:0:
320,192,74833,1,0,0:0:0:70:bass.wav
64,192,74996,1,0,0:0:0:0:
320,192,75158,1,0,0:0:0:70:hihat.wav
448,192,75158,1,0,0:0:0:70:snare.wav
64,192,75320,1,0,0:0:0:0:
448,192,75482,1,0,0:0:0:70:bass.wav
320,192,75644,1,0,0:0:0:0:
448,192,75806,1,0,0:0:0:70:snare.wav
64,192,75806,1,0,0:0:0:70:hihat.wav
192,192,75969,1,0,0:0:0:0:
320,192,76131,1,0,0:0:0:70:bass.wav
64,192,76293,1,0,0:0:0:70:bass.wav
448,192,76455,1,0,0:0:0:70:snare.wav
192,192,76455,1,0,0:0:0:70:hihat.wav
320,192,76617,1,0,0:0:0:0:
64,192,76779,1,0,0:0:0:70:bass.wav
448,192,76942,1,0,0:0:0:0:
320,192,77104,1,0,0:0:0:70:snare.wav
192,192,77104,1,0,0:0:0:70:hihat.wav
64,192,77266,1,0,0:0:0:0:
192,192,77428,1,0,0:0:0:70:bass.wav
317,192,77590,1,0,0:0:0:70:snare.wav
445,192,77590,1,0,0:0:0:0:
192,192,77752,1,0,0:0:0:70:bass.wav
64,192,77915,1,0,0:0:0:50:snare.wav
192,192,77996,1,0,0:0:0:50:snare.wav
320,192,78077,1,0,0:0:0:70:cymbol 2.wav
448,192,78077,128,0,78401:0:0:0:70:bass.wav
64,192,78401,1,0,0:0:0:70:hihat.wav
320,192,78401,1,0,0:0:0:70:snare.wav
192,192,78563,1,0,0:0:0:0:
64,192,78725,1,0,0:0:0:70:bass.wav
320,192,78888,1,0,0:0:0:70:bass.wav
192,192,79050,1,0,0:0:0:70:snare.wav
448,192,79050,1,0,0:0:0:70:hihat.wav
64,192,79212,1,0,0:0:0:0:
320,192,79374,1,0,0:0:0:70:bass.wav
192,192,79536,1,0,0:0:0:0:
448,192,79698,1,0,0:0:0:70:hihat.wav
64,192,79698,1,0,0:0:0:70:snare.wav
320,192,79861,1,0,0:0:0:0:
192,192,80023,1,0,0:0:0:70:bass.wav
320,192,80185,1,0,0:0:0:70:bass.wav
448,192,80347,1,0,0:0:0:70:hihat.wav
192,192,80347,1,0,0:0:0:70:snare.wav
64,192,80509,1,0,0:0:0:0:
192,192,80671,128,0,80996:0:0:0:70:hihat.wav
320,192,80671,1,0,0:0:0:70:bass.wav
448,192,80833,1,0,0:0:0:0:
64,192,80996,1,0,0:0:0:70:hihat.wav
320,192,80996,1,0,0:0:0:70:snare.wav
448,192,81158,1,0,0:0:0:0:
64,192,81320,1,0,0:0:0:70:bass.wav
320,192,81482,1,0,0:0:0:70:bass.wav
448,192,81644,1,0,0:0:0:70:snare.wav
192,192,81644,1,0,0:0:0:70:hihat.wav
320,192,81806,1,0,0:0:0:0:
64,192,81969,1,0,0:0:0:70:bass.wav
192,192,82131,1,0,0:0:0:0:
320,192,82293,1,0,0:0:0:70:hihat.wav
448,192,82293,1,0,0:0:0:70:snare.wav
64,192,82455,1,0,0:0:0:0:
192,192,82617,1,0,0:0:0:70:bass.wav
320,192,82779,1,0,0:0:0:70:bass.wav
448,192,82942,1,0,0:0:0:70:snare.wav
192,192,82942,1,0,0:0:0:70:hihat.wav
64,192,83104,1,0,0:0:0:0:
448,192,83266,128,0,83590:0:0:0:70:hihat.wav
320,192,83266,1,0,0:0:0:70:bass.wav
192,192,83428,1,0,0:0:0:0:
320,192,83590,1,0,0:0:0:70:snare.wav
64,192,83590,1,0,0:0:0:70:hihat.wav
192,192,83752,1,0,0:0:0:0:
448,192,83915,1,0,0:0:0:70:bass.wav
64,192,84077,1,0,0:0:0:70:bass.wav
448,192,84239,1,0,0:0:0:70:snare.wav
192,192,84239,1,0,0:0:0:70:hihat.wav
64,192,84401,1,0,0:0:0:0:
320,192,84563,1,0,0:0:0:70:bass.wav
448,192,84725,1,0,0:0:0:0:
64,192,84888,1,0,0:0:0:70:hihat.wav
192,192,84888,1,0,0:0:0:70:snare.wav
320,192,85050,1,0,0:0:0:0:
192,192,85212,1,0,0:0:0:70:bass.wav
448,192,85374,1,0,0:0:0:70:bass.wav
320,192,85536,1,0,0:0:0:70:hihat01-M.wav
64,192,85536,1,0,0:0:0:70:snare.wav
192,192,85698,1,0,0:0:0:0:
448,192,85861,1,0,0:0:0:70:hihat.wav
64,192,85861,128,0,86185:0:0:0:70:bass.wav
320,192,86023,1,0,0:0:0:0:
192,192,86185,1,0,0:0:0:70:hihat.wav
448,192,86185,1,0,0:0:0:70:snare.wav
320,192,86347,1,0,0:0:0:0:
64,192,86509,1,0,0:0:0:70:bass.wav
192,192,86671,1,0,0:0:0:70:bass.wav
320,192,86833,1,0,0:0:0:70:snare.wav
64,192,86833,1,0,0:0:0:70:hihat.wav
192,192,86996,1,0,0:0:0:0:
320,192,87158,1,0,0:0:0:70:hihat.wav
448,192,87158,128,0,87482:0:0:0:70:bass.wav
64,192,87320,1,0,0:0:0:0:
192,192,87482,1,0,0:0:0:70:hihat.wav
320,192,87482,1,0,0:0:0:70:snare.wav
64,192,87644,1,0,0:0:0:0:
448,192,87806,1,0,0:0:0:30:hihat01-M.wav
320,192,87888,1,0,0:0:0:0:
192,192,87969,1,0,0:0:0:40:tom02.wav
64,192,88050,1,0,0:0:0:30:tom01.wav
448,192,88131,1,0,0:0:0:30:hihat.wav
320,192,88212,1,0,0:0:0:20:tom01.wav
192,192,88293,1,0,0:0:0:20:tom02.wav
64,192,88374,1,0,0:0:0:20:tom02.wav
448,192,88455,128,0,88779:0:0:0:70:ride.wav
320,192,88455,1,0,0:0:0:70:bass.wav
192,192,88942,1,0,0:0:0:0:
320,192,89104,1,0,0:0:0:70:hihat.wav
448,192,89104,1,0,0:0:0:70:snare.wav
64,192,89104,1,0,0:0:0:0:
448,192,89428,1,0,0:0:0:70:hihat.wav
320,192,89428,1,0,0:0:0:70:bass.wav
192,192,89590,1,0,0:0:0:70:bass.wav
64,192,89590,1,0,0:0:0:0:
192,192,89915,1,0,0:0:0:70:snare.wav
448,192,89915,1,0,0:0:0:0:
192,192,90239,1,0,0:0:0:70:bass.wav
64,192,90401,1,0,0:0:0:70:snare.wav
448,192,90401,1,0,0:0:0:70:hihat.wav
320,192,90401,1,0,0:0:0:0:
320,192,90725,1,0,0:0:0:70:hihat.wav
448,192,90725,1,0,0:0:0:70:bass.wav
192,192,90888,1,0,0:0:0:70:snare.wav
64,192,90888,1,0,0:0:0:0:
448,192,91050,1,0,0:0:0:70:hihat.wav
320,192,91050,1,0,0:0:0:70:bass.wav
320,192,91536,1,0,0:0:0:70:bass.wav
192,192,91698,1,0,0:0:0:70:hihat.wav
448,192,91698,1,0,0:0:0:70:snare.wav
64,192,91698,1,0,0:0:0:0:
192,192,92023,1,0,0:0:0:70:hihat.wav
448,192,92023,1,0,0:0:0:70:bass.wav
64,192,92185,1,0,0:0:0:70:bass.wav
320,192,92185,1,0,0:0:0:0:
64,192,92509,1,0,0:0:0:70:snare.wav
320,192,92509,1,0,0:0:0:70:hihat.wav
448,192,92509,1,0,0:0:0:0:
192,192,92833,1,0,0:0:0:70:bass.wav
320,192,92833,1,0,0:0:0:0:
448,192,92996,1,0,0:0:0:70:hihat.wav
64,192,92996,1,0,0:0:0:70:bass.wav
192,192,93158,1,0,0:0:0:30:snare.wav
64,192,93239,1,0,0:0:0:40:snare.wav
320,192,93320,1,0,0:0:0:50:snare.wav
448,192,93401,1,0,0:0:0:50:snare.wav
192,192,93482,1,0,0:0:0:50:snare.wav
64,192,93563,1,0,0:0:0:50:snare.wav
320,192,93644,1,0,0:0:0:70:cymbol 2.wav
448,192,93644,128,0,93969:0:0:0:70:bass.wav
192,192,93969,1,0,0:0:0:70:hihat01-M.wav
64,192,93969,1,0,0:0:0:70:snare.wav
192,192,94293,1,0,0:0:0:70:bass.wav
64,192,94455,1,0,0:0:0:70:bass.wav
320,192,94617,1,0,0:0:0:70:hihat01-M.wav
448,192,94617,1,0,0:0:0:70:snare.wav
64,192,94942,1,0,0:0:0:70:bass.wav
320,192,95266,1,0,0:0:0:70:hihat01-M.wav
192,192,95266,1,0,0:0:0:70:snare.wav
448,192,95590,1,0,0:0:0:70:bass.wav
192,192,95752,1,0,0:0:0:70:bass.wav
64,192,95915,1,0,0:0:0:70:hihat01-M.wav
320,192,95915,1,0,0:0:0:70:snare.wav
192,192,96239,1,0,0:0:0:70:bass.wav
64,192,96563,1,0,0:0:0:70:hihat01-M.wav
447,192,96563,1,0,0:0:0:70:snare.wav
192,192,96888,1,0,0:0:0:70:bass.wav
320,192,97050,1,0,0:0:0:70:bass.wav
192,192,97212,1,0,0:0:0:70:hihat01-M.wav
448,192,97212,1,0,0:0:0:70:snare.wav
320,192,97536,1,0,0:0:0:70:bass.wav
64,192,97861,1,0,0:0:0:70:hihat01-M.wav
192,192,97861,1,0,0:0:0:70:snare.wav
192,192,98104,1,0,0:0:0:0:
448,192,98185,1,0,0:0:0:70:bass.wav
64,192,98347,1,0,0:0:0:30:tom02.wav
192,192,98428,1,0,0:0:0:30:tom01.wav
320,192,98509,1,0,0:0:0:70:hihat01-M.wav
64,192,98671,1,0,0:0:0:30:tom01.wav
320,192,98833,1,0,0:0:0:70:hihat.wav
448,192,98833,1,0,0:0:0:70:bass.wav
448,192,99158,1,0,0:0:0:70:cymbol.wav
192,192,99158,1,0,0:0:0:70:snare.wav
64,192,99158,128,0,99482:0:0:0:0:
192,192,99482,1,0,0:0:0:70:bass.wav
448,192,99644,1,0,0:0:0:70:bass.wav
320,192,99969,1,0,0:0:0:70:snare.wav
64,192,99969,1,0,0:0:0:0:
192,192,100131,1,0,0:0:0:70:hihat.wav
320,192,100293,1,0,0:0:0:70:bass.wav
192,192,100455,1,0,0:0:0:70:snare.wav
448,192,100455,1,0,0:0:0:70:hihat.wav
320,192,100617,1,0,0:0:0:0:
64,192,100779,1,0,0:0:0:70:bass.wav
320,192,100942,1,0,0:0:0:70:bass.wav
192,192,101104,1,0,0:0:0:70:snare.wav
448,192,101104,1,0,0:0:0:70:hihat.wav
64,192,101266,1,0,0:0:0:0:
320,192,101428,1,0,0:0:0:70:bass.wav
448,192,101590,1,0,0:0:0:0:
320,192,101752,1,0,0:0:0:70:hihat.wav
64,192,101752,1,0,0:0:0:70:snare.wav
192,192,101915,1,0,0:0:0:0:
448,192,102077,1,0,0:0:0:70:bass.wav
320,192,102239,1,0,0:0:0:70:bass.wav
64,192,102401,1,0,0:0:0:70:hihat.wav
320,192,102563,1,0,0:0:0:70:snare.wav
192,192,102563,1,0,0:0:0:0:
448,192,102725,1,0,0:0:0:70:hihat.wav
64,192,102888,1,0,0:0:0:70:bass.wav
192,192,103050,1,0,0:0:0:70:snare.wav
448,192,103050,1,0,0:0:0:70:hihat.wav
192,192,103374,1,0,0:0:0:70:bass.wav
320,192,103536,1,0,0:0:0:70:bass.wav
64,192,103698,1,0,0:0:0:70:snare.wav
192,192,103698,1,0,0:0:0:70:hihat.wav
448,192,103861,1,0,0:0:0:50:snare.wav
320,192,103942,1,0,0:0:0:50:snare.wav
192,192,104023,1,0,0:0:0:70:bass.wav
320,192,104347,1,0,0:0:0:70:cymbol.wav
64,192,104347,1,0,0:0:0:70:snare.wav
448,192,104347,128,0,104671:0:0:0:0:
64,192,104671,1,0,0:0:0:70:bass.wav
320,192,104833,1,0,0:0:0:70:bass.wav
192,192,104996,1,0,0:0:0:70:hihat.wav
448,192,105158,1,0,0:0:0:70:snare.wav
64,192,105158,1,0,0:0:0:0:
192,192,105320,1,0,0:0:0:70:hihat.wav
320,192,105482,1,0,0:0:0:70:bass.wav
64,192,105644,1,0,0:0:0:70:snare.wav
448,192,105644,1,0,0:0:0:70:hihat.wav
192,192,105806,1,0,0:0:0:0:
320,192,105969,1,0,0:0:0:70:hihat.wav
448,192,105969,1,0,0:0:0:70:bass.wav
192,192,106131,1,0,0:0:0:70:snare.wav
64,192,106131,1,0,0:0:0:0:
320,192,106293,1,0,0:0:0:70:snare.wav
192,192,106293,1,0,0:0:0:70:hihat.wav
320,192,106455,1,0,0:0:0:70:snare.wav
448,192,106455,1,0,0:0:0:0:
64,192,106617,128,0,107266:0:0:0:70:cymbol 2.wav
192,192,106617,1,0,0:0:0:70:hihat01.wav
320,192,107104,1,0,0:0:0:70:bass.wav
448,192,107266,1,0,0:0:0:70:hihat.wav
192,192,107266,1,0,0:0:0:70:snare.wav
64,192,107590,1,0,0:0:0:70:hihat.wav
320,192,107590,1,0,0:0:0:70:bass.wav
448,192,107752,1,0,0:0:0:70:snare.wav
64,192,107915,1,0,0:0:0:70:bass.wav
192,192,108077,1,0,0:0:0:70:snare.wav
320,192,108077,1,0,0:0:0:0:
448,192,108239,1,0,0:0:0:0:
320,192,108401,1,0,0:0:0:70:bass.wav
64,192,108563,1,0,0:0:0:70:hihat.wav
448,192,108563,1,0,0:0:0:70:snare.wav
192,192,108725,1,0,0:0:0:70:bass.wav
448,192,108888,1,0,0:0:0:50:snare.wav
320,192,108969,1,0,0:0:0:50:snare.wav
192,192,109050,1,0,0:0:0:50:snare.wav
64,192,109131,1,0,0:0:0:50:snare.wav
320,192,109212,1,0,0:0:0:70:cymbol 2.wav
448,192,109212,128,0,109536:0:0:0:70:hihat01.wav
61,192,109536,1,0,0:0:0:70:hihat.wav
192,192,109536,1,0,0:0:0:70:snare.wav
192,192,109861,1,0,0:0:0:70:bass.wav
320,192,110023,1,0,0:0:0:70:bass.wav
192,192,110185,1,0,0:0:0:70:hihat.wav
448,192,110185,1,0,0:0:0:70:snare.wav
64,192,110347,1,0,0:0:0:0:
320,192,110509,1,0,0:0:0:70:bass.wav
192,192,110671,1,0,0:0:0:70:bass.wav
64,192,110833,1,0,0:0:0:70:hihat.wav
448,192,110833,1,0,0:0:0:70:snare.wav
320,192,110996,1,0,0:0:0:0:
192,192,111158,1,0,0:0:0:70:bass.wav
320,192,111320,1,0,0:0:0:70:bass.wav
192,192,111482,1,0,0:0:0:70:snare.wav
448,192,111482,1,0,0:0:0:70:hihat.wav
64,192,111644,1,0,0:0:0:0:
320,192,111806,1,0,0:0:0:70:bass.wav
448,192,111969,1,0,0:0:0:0:
192,192,112131,1,0,0:0:0:70:hihat.wav
64,192,112131,1,0,0:0:0:70:snare.wav
448,192,112293,1,0,0:0:0:0:
64,192,112455,1,0,0:0:0:70:bass.wav
320,192,112617,1,0,0:0:0:70:bass.wav
448,192,112779,1,0,0:0:0:70:hihat.wav
192,192,112779,1,0,0:0:0:70:snare.wav
320,192,112942,1,0,0:0:0:0:
64,192,113104,1,0,0:0:0:70:bass.wav
192,192,113266,1,0,0:0:0:70:bass.wav
320,192,113428,1,0,0:0:0:70:snare.wav
448,192,113428,1,0,0:0:0:70:hihat.wav
64,192,113590,1,0,0:0:0:0:
192,192,113752,1,0,0:0:0:70:bass.wav
320,192,113915,1,0,0:0:0:70:bass.wav
448,192,114077,1,0,0:0:0:70:hihat.wav
192,192,114077,1,0,0:0:0:70:snare.wav
64,192,114320,1,0,0:0:0:50:snare.wav
448,192,114401,128,0,114725:0:0:0:70:cymbol 2.wav
320,192,114401,1,0,0:0:0:70:bass.wav
64,192,114725,1,0,0:0:0:70:hihat.wav
320,192,114725,1,0,0:0:0:70:snare.wav
192,192,114888,1,0,0:0:0:0:
320,192,115050,1,0,0:0:0:70:bass.wav
64,192,115212,1,0,0:0:0:70:bass.wav
448,192,115374,1,0,0:0:0:70:snare.wav
192,192,115374,1,0,0:0:0:70:hihat.wav
64,192,115536,1,0,0:0:0:0:
320,192,115698,1,0,0:0:0:70:bass.wav
448,192,115861,1,0,0:0:0:70:bass.wav
192,192,116023,1,0,0:0:0:70:snare.wav
64,192,116023,1,0,0:0:0:70:hihat.wav
320,192,116185,1,0,0:0:0:0:
192,192,116347,1,0,0:0:0:70:bass.wav
448,192,116509,1,0,0:0:0:70:bass.wav
320,192,116671,1,0,0:0:0:70:snare.wav
64,192,116671,1,0,0:0:0:70:hihat.wav
192,192,116833,1,0,0:0:0:0:
320,192,116996,1,0,0:0:0:70:bass.wav
448,192,117158,1,0,0:0:0:0:
320,192,117320,1,0,0:0:0:70:snare.wav
64,192,117320,1,0,0:0:0:70:hihat.wav
192,192,117482,1,0,0:0:0:0:
448,192,117644,1,0,0:0:0:70:bass.wav
320,192,117806,1,0,0:0:0:70:bass.wav
64,192,117969,1,0,0:0:0:70:hihat.wav
192,192,117969,1,0,0:0:0:70:snare.wav
320,192,118131,1,0,0:0:0:0:
448,192,118293,1,0,0:0:0:70:bass.wav
192,192,118455,1,0,0:0:0:70:bass.wav
448,192,118617,1,0,0:0:0:70:snare.wav
64,192,118617,1,0,0:0:0:70:hihat.wav
320,192,118779,1,0,0:0:0:0:
192,192,118942,1,0,0:0:0:70:bass.wav
64,192,119104,1,0,0:0:0:70:snare.wav
320,192,119104,1,0,0:0:0:0:
448,192,119266,1,0,0:0:0:70:bass.wav
192,192,119428,1,0,0:0:0:50:snare.wav
320,192,119509,1,0,0:0:0:50:snare.wav
448,192,119590,1,0,0:0:0:70:cymbol 2.wav
64,192,119590,128,0,119915:0:0:0:70:bass.wav
448,192,119915,1,0,0:0:0:70:snare.wav
320,192,119915,1,0,0:0:0:70:hihat.wav
192,192,120077,1,0,0:0:0:0:
64,192,120239,1,0,0:0:0:70:bass.wav
192,192,120401,1,0,0:0:0:70:bass.wav
448,192,120563,1,0,0:0:0:70:hihat.wav
320,192,120563,1,0,0:0:0:70:snare.wav
64,192,120725,1,0,0:0:0:0:
320,192,120888,1,0,0:0:0:70:bass.wav
192,192,121050,1,0,0:0:0:70:bass.wav
64,192,121212,1,0,0:0:0:70:hihat.wav
448,192,121212,1,0,0:0:0:70:snare.wav
320,192,121374,1,0,0:0:0:0:
192,192,121536,1,0,0:0:0:70:bass.wav
320,192,121698,1,0,0:0:0:70:bass.wav
192,192,121861,1,0,0:0:0:70:hihat.wav
448,192,121861,1,0,0:0:0:70:snare.wav
64,192,122023,1,0,0:0:0:0:
320,192,122185,1,0,0:0:0:70:bass.wav
448,192,122347,1,0,0:0:0:70:bass.wav
64,192,122509,1,0,0:0:0:70:snare.wav
192,192,122509,1,0,0:0:0:70:hihat.wav
448,192,122671,1,0,0:0:0:0:
64,192,122833,1,0,0:0:0:70:bass.wav
320,192,122996,1,0,0:0:0:70:bass.wav
448,192,123158,1,0,0:0:0:70:snare.wav
192,192,123158,1,0,0:0:0:70:hihat.wav
320,192,123320,1,0,0:0:0:0:
64,192,123482,1,0,0:0:0:70:bass.wav
192,192,123644,1,0,0:0:0:30:hihat02.wav
448,192,123644,1,0,0:0:0:70:snare.wav
320,192,123806,1,0,0:0:0:30:hihat02.wav
64,192,123806,1,0,0:0:0:70:snare.wav
448,192,124050,1,0,0:0:0:0:
64,192,124131,1,0,0:0:0:50:snare.wav
192,192,124131,1,0,0:0:0:70:bass.wav
448,192,124293,1,0,0:0:0:50:snare.wav
320,192,124374,1,0,0:0:0:50:snare.wav
64,192,124455,1,0,0:0:0:50:snare.wav
192,192,124455,1,0,0:0:0:70:bass.wav
448,192,124617,1,0,0:0:0:50:snare.wav
320,192,124698,1,0,0:0:0:50:snare.wav
192,192,124779,1,0,0:0:0:70:cymbol 2.wav
64,192,124779,128,0,125104:0:0:0:50:snare.wav
192,192,125104,1,0,0:0:0:70:hihat.wav
448,192,125104,1,0,0:0:0:70:snare.wav
448,192,125428,1,0,0:0:0:70:bass.wav
64,192,125590,1,0,0:0:0:70:bass.wav
448,192,125752,1,0,0:0:0:70:hihat.wav
192,192,125752,1,0,0:0:0:70:snare.wav
64,192,125915,1,0,0:0:0:0:
320,192,126077,1,0,0:0:0:70:bass.wav
448,192,126239,1,0,0:0:0:70:bass.wav
64,192,126401,1,0,0:0:0:70:snare.wav
192,192,126401,1,0,0:0:0:70:hihat.wav
320,192,126563,1,0,0:0:0:0:
192,192,126725,1,0,0:0:0:70:bass.wav
448,192,126888,1,0,0:0:0:70:bass.wav
320,192,127050,1,0,0:0:0:70:snare.wav
64,192,127050,1,0,0:0:0:70:hihat.wav
448,192,127212,1,0,0:0:0:0:
192,192,127374,1,0,0:0:0:70:bass.wav
64,192,127536,1,0,0:0:0:0:
448,192,127698,1,0,0:0:0:70:hihat.wav
320,192,127698,1,0,0:0:0:70:snare.wav
192,192,127861,1,0,0:0:0:0:
64,192,128023,1,0,0:0:0:70:bass.wav
192,192,128185,1,0,0:0:0:70:bass.wav
320,192,128347,1,0,0:0:0:70:snare.wav
64,192,128347,1,0,0:0:0:70:hihat.wav
192,192,128509,1,0,0:0:0:0:
448,192,128671,1,0,0:0:0:70:bass.wav
320,192,128833,1,0,0:0:0:70:bass.wav
448,192,128996,1,0,0:0:0:70:hihat.wav
64,192,128996,1,0,0:0:0:70:snare.wav
192,192,129158,1,0,0:0:0:0:
64,192,129320,1,0,0:0:0:70:bass.wav
320,192,129482,1,0,0:0:0:70:bass.wav
192,192,129644,1,0,0:0:0:70:snare.wav
64,192,129644,1,0,0:0:0:70:hihat.wav
192,192,129888,1,0,0:0:0:50:snare.wav
448,192,129969,1,0,0:0:0:70:cymbol 2.wav
64,192,129969,128,0,130293:0:0:0:70:bass.wav
448,192,130293,1,0,0:0:0:70:snare.wav
192,192,130293,1,0,0:0:0:70:hihat.wav
320,192,130455,1,0,0:0:0:0:
192,192,130617,1,0,0:0:0:70:bass.wav
64,192,130779,1,0,0:0:0:70:bass.wav
448,192,130942,1,0,0:0:0:70:snare.wav
320,192,130942,1,0,0:0:0:70:hihat.wav
192,192,131104,1,0,0:0:0:0:
320,192,131266,1,0,0:0:0:70:bass.wav
64,192,131428,1,0,0:0:0:70:bass.wav
192,192,131590,1,0,0:0:0:70:snare.wav
320,192,131590,1,0,0:0:0:70:hihat.wav
64,192,131752,1,0,0:0:0:0:
448,192,131915,1,0,0:0:0:70:bass.wav
320,192,132077,1,0,0:0:0:70:bass.wav
448,192,132239,1,0,0:0:0:70:snare.wav
192,192,132239,1,0,0:0:0:70:hihat.wav
64,192,132401,1,0,0:0:0:0:
320,192,132563,1,0,0:0:0:70:bass.wav
192,192,132725,1,0,0:0:0:0:
64,192,132888,1,0,0:0:0:70:snare.wav
448,192,132888,1,0,0:0:0:70:hihat.wav
320,192,133050,1,0,0:0:0:0:
190,192,133212,1,0,0:0:0:70:bass.wav
320,192,133374,1,0,0:0:0:70:bass.wav
448,192,133536,1,0,0:0:0:70:snare.wav
64,192,133536,1,0,0:0:0:70:hihat.wav
192,192,133698,1,0,0:0:0:0:
64,192,133861,1,0,0:0:0:70:bass.wav
320,192,134023,1,0,0:0:0:70:bass.wav
192,192,134185,1,0,0:0:0:70:hihat.wav
448,192,134185,1,0,0:0:0:70:snare.wav
64,192,134347,1,0,0:0:0:0:
192,192,134509,1,0,0:0:0:70:bass.wav
320,192,134671,1,0,0:0:0:70:snare.wav
448,192,134671,1,0,0:0:0:0:
64,192,134833,1,0,0:0:0:70:bass.wav
320,192,134996,1,0,0:0:0:50:snare.wav
192,192,135077,1,0,0:0:0:50:snare.wav
64,192,135158,1,0,0:0:0:70:cymbol 2.wav
448,192,135158,128,0,135482:0:0:0:70:bass.wav
64,192,135482,1,0,0:0:0:70:hihat.wav
320,192,135482,1,0,0:0:0:70:snare.wav
192,192,135644,1,0,0:0:0:0:
320,192,135806,1,0,0:0:0:70:bass.wav
64,192,135969,1,0,0:0:0:70:bass.wav
192,192,136131,1,0,0:0:0:70:snare.wav
320,192,136131,1,0,0:0:0:70:hihat.wav
448,192,136293,1,0,0:0:0:0:
64,192,136455,1,0,0:0:0:70:bass.wav
320,192,136617,1,0,0:0:0:70:bass.wav
448,192,136779,1,0,0:0:0:70:hihat.wav
64,192,136779,1,0,0:0:0:70:snare.wav
192,192,136942,1,0,0:0:0:0:
320,192,137104,1,0,0:0:0:70:bass.wav
192,192,137266,1,0,0:0:0:70:bass.wav
448,192,137428,1,0,0:0:0:70:snare.wav
64,192,137428,1,0,0:0:0:70:hihat.wav
192,192,137671,1,0,0:0:0:50:snare.wav
320,192,137752,1,0,0:0:0:70:cymbol 2.wav
64,192,137752,128,0,138077:0:0:0:70:bass.wav
320,192,138077,1,0,0:0:0:70:snare.wav
192,192,138077,1,0,0:0:0:70:hihat.wav
448,192,138239,1,0,0:0:0:0:
64,192,138401,1,0,0:0:0:70:bass.wav
320,192,138563,1,0,0:0:0:70:bass.wav
192,192,138725,1,0,0:0:0:70:hihat.wav
448,192,138725,1,0,0:0:0:70:snare.wav
192,192,138969,1,0,0:0:0:50:snare.wav
320,192,139050,1,0,0:0:0:70:cymbol 2.wav
64,192,139050,128,0,139374:0:0:0:70:bass.wav
192,192,139374,1,0,0:0:0:70:snare.wav
320,192,139374,1,0,0:0:0:70:hihat.wav
448,192,139536,1,0,0:0:0:0:
192,192,139698,1,0,0:0:0:70:bass.wav
64,192,139861,1,0,0:0:0:70:bass.wav
448,192,140023,1,0,0:0:0:70:snare.wav
192,192,140023,1,0,0:0:0:70:hihat.wav
320,192,140266,1,0,0:0:0:50:snare.wav
192,192,140347,1,0,0:0:0:70:cymbol 2.wav
448,192,140347,128,0,140671:0:0:0:70:bass.wav
64,192,140671,1,0,0:0:0:70:hihat.wav
320,192,140671,1,0,0:0:0:70:snare.wav
192,192,140915,1,0,0:0:0:0:
64,192,140996,1,0,0:0:0:50:snare.wav
448,192,140996,1,0,0:0:0:70:bass.wav
320,192,141158,1,0,0:0:0:50:snare.wav
192,192,141239,1,0,0:0:0:50:snare.wav
64,192,141320,1,0,0:0:0:50:snare.wav
320,192,141482,1,0,0:0:0:50:snare.wav
192,192,141563,1,0,0:0:0:50:snare.wav
64,192,141644,1,0,0:0:0:70:cymbol 2.wav
448,192,141644,128,0,142942:0:0:0:50:snare.wav
320,192,142293,1,0,0:0:0:70:bass.wav
64,192,142455,1,0,0:0:0:70:snare.wav
192,192,142455,1,0,0:0:0:0:
320,192,142617,1,0,0:0:0:30:tom01.wav
192,192,142779,1,0,0:0:0:30:tom02.wav
320,192,142942,1,0,0:0:0:50:cymbol 2.wav
64,192,142942,1,0,0:0:0:30:bass.wav
64,192,143104,1,0,0:0:0:30:bass.wav
320,192,143104,1,0,0:0:0:0:
320,192,143428,1,0,0:0:0:30:tom01.wav
192,192,143590,1,0,0:0:0:30:snare.wav
448,192,143590,1,0,0:0:0:30:hihat.wav
64,192,143590,128,0,143915:0:0:0:0:
192,192,143915,1,0,0:0:0:30:hihat01.wav
448,192,143915,1,0,0:0:0:30:tom02.wav
320,192,144077,1,0,0:0:0:30:tom01.wav
64,192,144239,1,0,0:0:0:30:bass.wav
448,192,144239,1,0,0:0:0:0:
64,192,144401,1,0,0:0:0:30:bass.wav
448,192,144401,1,0,0:0:0:0:
192,192,144725,1,0,0:0:0:30:tom01.wav
64,192,144888,1,0,0:0:0:30:snare.wav
448,192,144888,1,0,0:0:0:30:hihat.wav
320,192,144888,128,0,145212:0:0:0:0:
192,192,145212,1,0,0:0:0:30:hihat01.wav
448,192,145212,1,0,0:0:0:30:tom02.wav
64,192,145374,1,0,0:0:0:30:tom01.wav
320,192,145536,1,0,0:0:0:40:bass.wav
192,192,145536,1,0,0:0:0:0:
320,192,145698,1,0,0:0:0:40:bass.wav
192,192,145698,1,0,0:0:0:0:
448,192,146023,1,0,0:0:0:40:tom02.wav
64,192,146185,1,0,0:0:0:40:hihat.wav
320,192,146185,1,0,0:0:0:40:snare.wav
192,192,146185,128,0,146509:0:0:0:0:
64,192,146509,1,0,0:0:0:40:hihat01.wav
448,192,146509,1,0,0:0:0:40:tom02.wav
320,192,146671,1,0,0:0:0:40:tom01.wav
64,192,146833,1,0,0:0:0:40:bass.wav
448,192,146833,1,0,0:0:0:0:
448,192,146996,1,0,0:0:0:40:bass.wav
64,192,146996,1,0,0:0:0:0:
192,192,147320,1,0,0:0:0:40:tom02.wav
448,192,147482,1,0,0:0:0:40:hihat.wav
320,192,147482,1,0,0:0:0:40:snare.wav
64,192,147482,128,0,147806:0:0:0:0:
448,192,147806,1,0,0:0:0:40:hihat01.wav
320,192,147806,1,0,0:0:0:40:tom02.wav
192,192,147969,1,0,0:0:0:40:tom01.wav
320,192,148131,1,0,0:0:0:40:bass.wav
64,192,148131,1,0,0:0:0:0:
320,192,148293,1,0,0:0:0:40:bass.wav
64,192,148293,1,0,0:0:0:0:
192,192,148617,1,0,0:0:0:40:tom01.wav
448,192,148779,1,0,0:0:0:40:snare.wav
320,192,148779,1,0,0:0:0:40:hihat.wav
64,192,148779,128,0,149104:0:0:0:0:
448,192,149104,1,0,0:0:0:40:hihat01.wav
192,192,149104,1,0,0:0:0:40:tom02.wav
320,192,149266,1,0,0:0:0:40:tom01.wav
448,192,149428,1,0,0:0:0:40:bass.wav
64,192,149428,1,0,0:0:0:0:
448,192,149590,1,0,0:0:0:40:bass.wav
64,192,149590,1,0,0:0:0:0:
320,192,149915,1,0,0:0:0:40:tom01.wav
192,192,150077,1,0,0:0:0:40:snare.wav
448,192,150077,1,0,0:0:0:40:hihat.wav
64,192,150077,128,0,150401:0:0:0:0:
448,192,150401,1,0,0:0:0:40:hihat01.wav
320,192,150401,1,0,0:0:0:40:tom02.wav
192,192,150563,1,0,0:0:0:40:tom01.wav
64,192,150725,1,0,0:0:0:40:bass.wav
320,192,150725,1,0,0:0:0:0:
320,192,150888,1,0,0:0:0:40:bass.wav
64,192,150888,1,0,0:0:0:0:
448,192,151212,1,0,0:0:0:40:tom02.wav
192,192,151374,1,0,0:0:0:40:snare.wav
64,192,151374,1,0,0:0:0:40:hihat.wav
320,192,151374,128,0,151698:0:0:0:0:
64,192,151698,1,0,0:0:0:40:hihat01.wav
448,192,151698,1,0,0:0:0:40:tom02.wav
192,192,151861,1,0,0:0:0:40:tom01.wav
448,192,152023,1,0,0:0:0:40:hihat03.wav
64,192,152023,1,0,0:0:0:40:bass.wav
448,192,152185,1,0,0:0:0:40:bass.wav
64,192,152185,1,0,0:0:0:0:
320,192,152347,1,0,0:0:0:40:hihat01-M.wav
192,192,152509,1,0,0:0:0:40:tom02.wav
320,192,152671,1,0,0:0:0:40:hihat02.wav
448,192,152671,1,0,0:0:0:40:snare.wav
64,192,152671,128,0,152996:0:0:0:0:
448,192,152996,1,0,0:0:0:40:hihat01.wav
192,192,152996,1,0,0:0:0:0:
320,192,153158,1,0,0:0:0:40:tom01.wav
192,192,153320,1,0,0:0:0:40:cymbol.wav
448,192,153320,1,0,0:0:0:40:bass.wav
64,192,153320,1,0,0:0:0:0:
192,192,153482,1,0,0:0:0:40:bass.wav
448,192,153482,1,0,0:0:0:0:
64,192,153644,1,0,0:0:0:40:hihat01-M.wav
320,192,153806,1,0,0:0:0:40:tom01.wav
64,192,153969,1,0,0:0:0:40:snare.wav
192,192,153969,1,0,0:0:0:40:hihat.wav
448,192,153969,1,0,0:0:0:0:
320,192,154131,1,0,0:0:0:0:
448,192,154293,1,0,0:0:0:40:hihat01.wav
192,192,154293,1,0,0:0:0:0:
64,192,154455,1,0,0:0:0:40:tom02.wav
448,192,154617,1,0,0:0:0:40:bass.wav
192,192,154617,1,0,0:0:0:0:
448,192,154779,1,0,0:0:0:40:bass.wav
192,192,154779,1,0,0:0:0:0:
64,192,154942,1,0,0:0:0:40:hihat01-M.wav
192,192,155104,1,0,0:0:0:40:tom01.wav
448,192,155266,1,0,0:0:0:40:hihat.wav
320,192,155266,1,0,0:0:0:40:snare.wav
64,192,155266,1,0,0:0:0:0:
192,192,155428,1,0,0:0:0:0:
448,192,155590,1,0,0:0:0:40:hihat01.wav
320,192,155590,1,0,0:0:0:0:
192,192,155752,1,0,0:0:0:40:tom02.wav
64,192,155915,1,0,0:0:0:40:bass.wav
448,192,155915,1,0,0:0:0:0:
64,192,156077,1,0,0:0:0:40:bass.wav
448,192,156077,1,0,0:0:0:0:
192,192,156239,1,0,0:0:0:40:hihat01-M.wav
448,192,156401,1,0,0:0:0:40:tom01.wav
320,192,156563,1,0,0:0:0:40:snare.wav
192,192,156563,1,0,0:0:0:40:hihat.wav
64,192,156563,1,0,0:0:0:0:
448,192,156725,1,0,0:0:0:0:
192,192,156888,1,0,0:0:0:40:hihat01.wav
64,192,156888,1,0,0:0:0:0:
320,192,157050,1,0,0:0:0:40:tom02.wav
64,192,157212,1,0,0:0:0:40:bass.wav
448,192,157212,1,0,0:0:0:0:
64,192,157374,1,0,0:0:0:40:bass.wav
448,192,157374,1,0,0:0:0:0:
320,192,157536,1,0,0:0:0:40:hihat01-M.wav
192,192,157698,1,0,0:0:0:40:tom01.wav
64,192,157861,1,0,0:0:0:40:hihat.wav
320,192,157861,1,0,0:0:0:40:snare.wav
448,192,157861,1,0,0:0:0:0:
192,192,158023,1,0,0:0:0:0:
320,192,158185,1,0,0:0:0:40:hihat01.wav
448,192,158185,1,0,0:0:0:0:
64,192,158347,1,0,0:0:0:40:tom02.wav
448,192,158509,1,0,0:0:0:40:bass.wav
192,192,158509,1,0,0:0:0:0:
448,192,158671,1,0,0:0:0:40:bass.wav
192,192,158671,1,0,0:0:0:0:
320,192,158833,1,0,0:0:0:40:hihat01-M.wav
448,192,158996,1,0,0:0:0:40:tom01.wav
64,192,159158,1,0,0:0:0:40:snare.wav
192,192,159158,1,0,0:0:0:40:hihat.wav
320,192,159158,1,0,0:0:0:0:
448,192,159320,1,0,0:0:0:0:
320,192,159482,1,0,0:0:0:40:hihat01.wav
64,192,159482,1,0,0:0:0:0:
192,192,159644,1,0,0:0:0:40:tom02.wav
448,192,159806,1,0,0:0:0:40:bass.wav
320,192,159806,1,0,0:0:0:0:
448,192,159969,1,0,0:0:0:40:bass.wav
320,192,159969,1,0,0:0:0:0:
192,192,160131,1,0,0:0:0:40:hihat01-M.wav
64,192,160293,1,0,0:0:0:40:tom01.wav
448,192,160455,1,0,0:0:0:40:hihat.wav
320,192,160455,1,0,0:0:0:40:snare.wav
192,192,160455,1,0,0:0:0:0:
64,192,160617,1,0,0:0:0:0:
448,192,160779,1,0,0:0:0:40:hihat01.wav
192,192,160779,1,0,0:0:0:0:
64,192,160942,1,0,0:0:0:40:tom02.wav
192,192,161104,1,0,0:0:0:40:bass.wav
448,192,161104,1,0,0:0:0:0:
192,192,161266,1,0,0:0:0:40:bass.wav
448,192,161266,1,0,0:0:0:0:
320,192,161428,1,0,0:0:0:40:hihat01-M.wav
448,192,161590,1,0,0:0:0:40:tom01.wav
320,192,161752,1,0,0:0:0:40:snare.wav
192,192,161752,1,0,0:0:0:40:hihat.wav
64,192,161752,1,0,0:0:0:0:
448,192,161915,1,0,0:0:0:0:
64,192,162077,1,0,0:0:0:40:hihat01.wav
320,192,162077,1,0,0:0:0:0:
192,192,162239,1,0,0:0:0:40:tom02.wav
64,192,162401,1,0,0:0:0:40:bass.wav
448,192,162401,1,0,0:0:0:0:
64,192,162563,1,0,0:0:0:40:bass.wav
448,192,162563,1,0,0:0:0:0:
320,192,162725,1,0,0:0:0:40:hihat01-M.wav
192,192,162888,1,0,0:0:0:40:tom01.wav
64,192,163050,1,0,0:0:0:40:hihat.wav
320,192,163050,1,0,0:0:0:40:snare.wav
448,192,163050,1,0,0:0:0:0:
192,192,163212,1,0,0:0:0:0:
320,192,163374,1,0,0:0:0:40:hihat01.wav
448,192,163374,1,0,0:0:0:0:
64,192,163536,1,0,0:0:0:40:tom02.wav
320,192,163698,1,0,0:0:0:40:bass.wav
192,192,163698,1,0,0:0:0:0:
320,192,163861,1,0,0:0:0:40:bass.wav
192,192,163861,1,0,0:0:0:0:
448,192,164023,1,0,0:0:0:40:hihat01-M.wav
64,192,164185,1,0,0:0:0:40:tom01.wav
448,192,164347,1,0,0:0:0:40:hihat.wav
192,192,164347,1,0,0:0:0:40:snare.wav
320,192,164347,1,0,0:0:0:0:
64,192,164509,1,0,0:0:0:0:
448,192,164671,1,0,0:0:0:40:hihat01.wav
192,192,164671,1,0,0:0:0:0:
320,192,164833,1,0,0:0:0:40:tom02.wav
448,192,164996,1,0,0:0:0:40:bass.wav
64,192,164996,1,0,0:0:0:0:
448,192,165158,1,0,0:0:0:40:bass.wav
64,192,165158,1,0,0:0:0:0:
320,192,165320,1,0,0:0:0:40:hihat01-M.wav
192,192,165482,1,0,0:0:0:40:tom01.wav
448,192,165644,1,0,0:0:0:40:hihat.wav
320,192,165644,1,0,0:0:0:40:snare.wav
64,192,165644,1,0,0:0:0:0:
192,192,165806,1,0,0:0:0:0:
448,192,165969,1,0,0:0:0:40:hihat01.wav
64,192,165969,1,0,0:0:0:0:
320,192,166131,1,0,0:0:0:40:tom02.wav
448,192,166293,1,0,0:0:0:40:bass.wav
192,192,166293,1,0,0:0:0:0:
448,192,166455,1,0,0:0:0:40:bass.wav
192,192,166455,1,0,0:0:0:0:
320,192,166617,1,0,0:0:0:40:hihat01-M.wav
64,192,166779,1,0,0:0:0:40:tom01.wav
320,192,166942,1,0,0:0:0:40:snare.wav
192,192,166942,1,0,0:0:0:40:hihat.wav
448,192,166942,1,0,0:0:0:0:
64,192,167104,1,0,0:0:0:0:
192,192,167266,1,0,0:0:0:40:hihat01.wav
448,192,167266,1,0,0:0:0:0:
320,192,167428,1,0,0:0:0:40:tom02.wav
64,192,167590,1,0,0:0:0:40:bass.wav
448,192,167590,1,0,0:0:0:0:
64,192,167752,1,0,0:0:0:40:bass.wav
448,192,167752,1,0,0:0:0:0:
320,192,167915,1,0,0:0:0:40:hihat01-M.wav
192,192,168077,1,0,0:0:0:40:tom01.wav
64,192,168239,1,0,0:0:0:40:snare.wav
320,192,168239,1,0,0:0:0:40:hihat.wav
448,192,168239,1,0,0:0:0:0:
192,192,168401,1,0,0:0:0:0:
320,192,168563,1,0,0:0:0:40:hihat01.wav
448,192,168563,1,0,0:0:0:0:
64,192,168725,1,0,0:0:0:40:tom02.wav
320,192,168888,1,0,0:0:0:40:bass.wav
192,192,168888,1,0,0:0:0:0:
320,192,169050,1,0,0:0:0:40:bass.wav
192,192,169050,1,0,0:0:0:0:
448,192,169212,1,0,0:0:0:40:hihat01-M.wav
64,192,169374,1,0,0:0:0:40:tom01.wav
448,192,169536,1,0,0:0:0:40:hihat.wav
192,192,169536,1,0,0:0:0:40:snare.wav
320,192,169536,1,0,0:0:0:0:
64,192,169698,1,0,0:0:0:0:
192,192,169861,1,0,0:0:0:40:hihat01.wav
448,192,169861,1,0,0:0:0:0:
320,192,170023,1,0,0:0:0:40:tom02.wav
64,192,170185,1,0,0:0:0:40:bass.wav
448,192,170185,1,0,0:0:0:0:
64,192,170347,1,0,0:0:0:40:bass.wav
448,192,170347,1,0,0:0:0:0:
320,192,170509,1,0,0:0:0:40:hihat01-M.wav
192,192,170671,1,0,0:0:0:40:tom01.wav
64,192,170833,1,0,0:0:0:40:snare.wav
320,192,170833,1,0,0:0:0:40:hihat.wav
448,192,170833,1,0,0:0:0:0:
192,192,170996,1,0,0:0:0:0:
320,192,171158,1,0,0:0:0:40:hihat01.wav
448,192,171158,1,0,0:0:0:0:
64,192,171320,1,0,0:0:0:40:tom02.wav
320,192,171482,1,0,0:0:0:40:bass.wav
192,192,171482,1,0,0:0:0:0:
320,192,171644,1,0,0:0:0:40:bass.wav
192,192,171644,1,0,0:0:0:0:
64,192,171806,1,0,0:0:0:40:hihat01-M.wav
448,192,171969,1,0,0:0:0:40:tom01.wav
64,192,172131,1,0,0:0:0:40:hihat.wav
192,192,172131,1,0,0:0:0:40:snare.wav
320,192,172131,1,0,0:0:0:0:
448,192,172293,1,0,0:0:0:0:
320,192,172455,1,0,0:0:0:40:hihat01.wav
64,192,172455,1,0,0:0:0:0:
192,192,172617,1,0,0:0:0:40:tom02.wav
448,192,172779,1,0,0:0:0:40:bass.wav
64,192,172779,1,0,0:0:0:0:
448,192,172942,1,0,0:0:0:40:bass.wav
64,192,172942,1,0,0:0:0:0:
320,192,173104,1,0,0:0:0:40:hihat01-M.wav
192,192,173266,1,0,0:0:0:40:tom01.wav
320,192,173428,1,0,0:0:0:40:snare.wav
64,192,173428,1,0,0:0:0:40:hihat.wav
64,192,173590,1,0,0:0:0:40:snare.wav
448,192,173590,1,0,0:0:0:0:
320,192,173752,1,0,0:0:0:40:hihat01.wav
64,192,173752,1,0,0:0:0:40:snare.wav
64,192,173915,1,0,0:0:0:40:snare.wav
448,192,173915,1,0,0:0:0:0:
192,192,174077,1,2,0:0:0:10:hihat01.wav
320,192,174077,1,2,0:0:0:40:ride.wav
448,192,174563,1,0,0:0:0:10:hihat02.wav
192,192,175050,1,0,0:0:0:10:hihat01.wav
320,192,175374,1,0,0:0:0:10:hihat03.wav
64,192,175374,128,0,176023:0:0:0:0:
192,192,176023,1,0,0:0:0:10:hihat01.wav
64,192,176671,1,0,0:0:0:10:hihat01-M.wav
448,192,176671,128,0,177644:0:0:0:0:
320,192,177158,1,0,0:0:0:10:hihat02.wav
192,192,177644,1,0,0:0:0:10:hihat01.wav
320,192,179266,1,0,0:0:0:10:hihat01-M.wav
64,192,179266,128,0,180239:0:0:0:10:hihat01.wav
448,192,180239,1,0,0:0:0:10:hihat01.wav
192,192,180401,1,0,0:0:0:10:hihat01.wav
317,192,180482,1,0,0:0:0:10:hihat02.wav
448,192,180563,1,0,0:0:0:10:hihat03.wav
320,192,181050,1,0,0:0:0:10:hihat02.wav
192,192,181536,1,0,0:0:0:10:hihat01-M.wav
320,192,181861,1,0,0:0:0:10:hihat03.wav
448,192,181861,128,0,182833:0:0:0:0:
64,192,182347,1,0,0:0:0:10:hihat01-M.wav
192,192,182833,1,0,0:0:0:10:hihat03.wav
320,192,184455,5,0,0:0:0:50:hihat01-M.wav
64,192,184455,128,0,184779:0:0:0:50:cymbol.wav
448,192,184455,1,0,0:0:0:70:bass.wav
448,192,184779,1,0,0:0:0:50:hihat01-M.wav
192,192,184779,1,0,0:0:0:70:snare.wav
64,192,185104,1,0,0:0:0:50:hihat.wav
192,192,185104,1,0,0:0:0:50:snare.wav
320,192,185266,1,0,0:0:0:30:snare.wav
448,192,185347,1,0,0:0:0:30:snare.wav
64,192,185428,1,0,0:0:0:40:snare.wav
192,192,185509,1,0,0:0:0:40:snare.wav
448,192,185590,1,0,0:0:0:50:snare.wav
320,192,185671,1,0,0:0:0:50:snare.wav
64,192,185752,1,0,0:0:0:50:cymbol 2.wav
192,192,185752,1,0,0:0:0:50:snare.wav
320,192,185915,1,0,0:0:0:50:bass.wav
448,192,186077,1,0,0:0:0:70:snare.wav
64,192,186077,1,0,0:0:0:50:hihat.wav
320,189,186320,1,0,0:0:0:50:snare.wav
192,189,186320,1,0,0:0:0:0:
448,189,186401,1,0,0:0:0:50:hihat.wav
64,192,186401,1,0,0:0:0:70:bass.wav
192,192,186563,1,0,0:0:0:30:snare.wav
64,192,186644,1,0,0:0:0:30:snare.wav
448,192,186725,1,0,0:0:0:40:snare.wav
320,192,186806,1,0,0:0:0:40:snare.wav
192,189,186888,1,0,0:0:0:50:snare.wav
64,189,186969,1,0,0:0:0:50:snare.wav
448,192,187050,1,0,0:0:0:50:tom02.wav
320,192,187050,1,0,0:0:0:30:bass.wav
192,189,187212,1,0,0:0:0:30:bass.wav
64,192,187374,1,0,0:0:0:50:hihat.wav
448,192,187374,1,0,0:0:0:50:tom01.wav
320,192,187536,1,0,0:0:0:30:bass.wav
192,192,187617,1,0,0:0:0:30:bass.wav
320,192,187698,1,0,0:0:0:50:cymbol 2.wav
64,192,187698,1,0,0:0:0:50:snare.wav
448,192,187698,1,0,0:0:0:30:bass.wav
64,192,187942,1,0,0:0:0:20:tom01.wav
448,192,187942,1,0,0:0:0:50:snare.wav
192,192,187942,1,0,0:0:0:0:
64,192,188185,1,0,0:0:0:50:snare.wav
320,192,188185,1,0,0:0:0:20:tom01.wav
448,192,188185,1,0,0:0:0:0:
192,192,188347,1,0,0:0:0:50:hihat.wav
320,192,188347,1,0,0:0:0:70:bass.wav
64,192,188509,1,0,0:0:0:50:snare.wav
192,192,188590,1,0,0:0:0:50:snare.wav
448,192,188671,1,0,0:0:0:50:hihat01-M.wav
320,192,188671,1,0,0:0:0:50:bass.wav
64,192,188833,1,0,0:0:0:50:snare.wav
192,192,188915,1,0,0:0:0:50:snare.wav
448,192,188996,1,0,0:0:0:70:hihat.wav
320,192,188996,1,0,0:0:0:50:bass.wav
64,192,189158,1,0,0:0:0:50:snare.wav
192,192,189239,1,0,0:0:0:50:snare.wav
448,192,189320,1,0,0:0:0:50:hihat01.wav
320,192,189320,1,0,0:0:0:50:bass.wav
64,192,189482,1,0,0:0:0:40:snare.wav
192,192,189563,1,0,0:0:0:40:snare.wav
320,192,189644,1,0,0:0:0:50:cymbol 2.wav
448,192,189644,128,0,189969:0:0:0:50:bass.wav
320,192,189969,1,0,0:0:0:50:hihat01-M.wav
64,192,189969,1,0,0:0:0:70:snare.wav
192,192,190131,1,0,0:0:0:0:
448,192,190293,1,0,0:0:0:70:snare.wav
320,192,190293,1,0,0:0:0:50:hihat.wav
64,192,190455,1,0,0:0:0:30:snare.wav
192,192,190536,1,0,0:0:0:30:snare.wav
448,192,190617,1,0,0:0:0:40:snare.wav
320,192,190698,1,0,0:0:0:40:snare.wav
64,192,190779,1,0,0:0:0:50:snare.wav
192,192,190861,1,0,0:0:0:50:snare.wav
448,192,190942,1,0,0:0:0:70:bass.wav
320,192,191023,1,0,0:0:0:0:
192,192,191104,1,0,0:0:0:0:
64,192,191185,1,0,0:0:0:0:
448,192,191266,1,0,0:0:0:50:hihat02.wav
320,192,191347,1,0,0:0:0:0:
192,192,191428,1,0,0:0:0:0:
64,192,191509,1,0,0:0:0:50:snare.wav
320,192,191590,1,0,0:0:0:50:hihat01-M.wav
448,192,191590,1,0,0:0:0:70:bass.wav
64,192,191752,1,0,0:0:0:30:snare.wav
192,192,191833,1,0,0:0:0:30:snare.wav
448,192,191915,1,0,0:0:0:40:snare.wav
320,192,191996,1,0,0:0:0:40:snare.wav
64,192,192077,1,0,0:0:0:50:snare.wav
192,192,192158,1,0,0:0:0:50:snare.wav
320,192,192239,1,0,0:0:0:50:cymbol 2.wav
448,192,192239,128,0,192563:0:0:0:50:snare.wav
320,192,192563,1,0,0:0:0:70:hihat.wav
192,192,192563,1,0,0:0:0:70:snare.wav
64,192,192725,1,0,0:0:0:0:
320,192,192888,1,0,0:0:0:70:bass.wav
448,192,193050,1,0,0:0:0:70:bass.wav
320,192,193212,1,0,0:0:0:70:hihat.wav
64,192,193212,1,0,0:0:0:70:snare.wav
192,192,193374,1,0,0:0:0:0:
448,192,193536,1,0,0:0:0:70:bass.wav
320,192,193698,1,0,0:0:0:70:bass.wav
64,192,193861,1,0,0:0:0:70:hihat.wav
448,192,193861,1,0,0:0:0:70:snare.wav
192,192,194023,1,0,0:0:0:0:
64,192,194185,1,0,0:0:0:70:bass.wav
320,192,194347,1,0,0:0:0:70:bass.wav
192,192,194509,1,0,0:0:0:70:snare.wav
448,192,194509,1,0,0:0:0:70:hihat.wav
320,192,194671,1,0,0:0:0:0:
192,192,194833,1,0,0:0:0:70:bass.wav
64,192,194996,1,0,0:0:0:70:bass.wav
192,192,195158,1,0,0:0:0:70:hihat.wav
448,192,195158,1,0,0:0:0:70:snare.wav
320,192,195320,1,0,0:0:0:0:
64,192,195482,1,0,0:0:0:70:bass.wav
192,192,195644,1,0,0:0:0:70:bass.wav
64,192,195806,1,0,0:0:0:70:hihat.wav
320,192,195806,1,0,0:0:0:70:snare.wav
448,192,195969,1,0,0:0:0:0:
64,192,196131,1,0,0:0:0:70:hihat.wav
192,192,196131,1,0,0:0:0:70:bass.wav
320,192,196293,1,0,0:0:0:50:snare.wav
192,192,196374,1,0,0:0:0:50:snare.wav
64,192,196455,1,0,0:0:0:50:snare.wav
448,192,196455,1,0,0:0:0:70:bass.wav
192,192,196536,1,0,0:0:0:50:snare.wav
320,192,196617,1,0,0:0:0:50:snare.wav
192,192,196779,1,0,0:0:0:50:snare.wav
64,192,196779,1,0,0:0:0:70:bass.wav
448,192,196942,1,0,0:0:0:50:snare.wav
320,192,197023,1,0,0:0:0:50:snare.wav
64,192,197104,1,0,0:0:0:50:snare.wav
192,192,197104,1,0,0:0:0:70:bass.wav
448,192,197266,1,0,0:0:0:50:snare.wav
320,192,197347,1,0,0:0:0:50:snare.wav
192,192,197428,1,0,0:0:0:50:snare.wav
64,192,197428,128,0,197752:0:0:0:50:cymbol 2.wav
320,192,197752,1,0,0:0:0:70:hihat.wav
192,192,197752,1,0,0:0:0:70:snare.wav
192,192,198077,1,0,0:0:0:70:bass.wav
320,192,198239,1,0,0:0:0:70:bass.wav
64,192,198401,1,0,0:0:0:70:snare.wav
192,192,198401,1,0,0:0:0:70:hihat.wav
448,192,198563,1,0,0:0:0:0:
192,192,198725,1,0,0:0:0:70:bass.wav
320,192,198888,1,0,0:0:0:70:bass.wav
448,192,199050,1,0,0:0:0:70:snare.wav
64,192,199050,1,0,0:0:0:70:hihat.wav
192,192,199212,1,0,0:0:0:0:
64,192,199374,1,0,0:0:0:70:bass.wav
192,192,199536,1,0,0:0:0:70:bass.wav
448,192,199698,1,0,0:0:0:70:snare.wav
64,192,199698,1,0,0:0:0:70:hihat.wav
320,192,199861,1,0,0:0:0:0:
448,192,200023,1,0,0:0:0:70:bass.wav
192,192,200185,1,0,0:0:0:0:
448,192,200347,1,0,0:0:0:70:snare.wav
64,192,200347,1,0,0:0:0:70:hihat.wav
192,192,200509,1,0,0:0:0:0:
320,192,200671,1,0,0:0:0:70:bass.wav
64,192,200833,1,0,0:0:0:70:bass.wav
448,192,200996,1,0,0:0:0:70:hihat.wav
192,192,200996,1,0,0:0:0:70:snare.wav
320,192,201158,1,0,0:0:0:0:
192,192,201320,1,0,0:0:0:70:bass.wav
64,192,201482,1,0,0:0:0:70:bass.wav
448,192,201644,1,0,0:0:0:70:hihat.wav
192,192,201644,1,0,0:0:0:70:snare.wav
64,192,201806,1,0,0:0:0:0:
320,192,201969,1,0,0:0:0:70:bass.wav
448,192,202131,1,0,0:0:0:70:bass.wav
64,192,202293,1,0,0:0:0:70:snare.wav
192,192,202293,1,0,0:0:0:70:hihat.wav
192,192,202536,1,0,0:0:0:50:snare.wav
64,192,202617,1,0,0:0:0:70:cymbol 2.wav
448,192,202617,128,0,202942:0:0:0:70:bass.wav
64,192,202942,1,0,0:0:0:70:snare.wav
192,192,202942,1,0,0:0:0:70:hihat.wav
320,192,203104,1,0,0:0:0:0:
192,192,203266,1,0,0:0:0:70:bass.wav
64,192,203428,1,0,0:0:0:70:bass.wav
448,192,203590,1,0,0:0:0:70:hihat.wav
320,192,203590,1,0,0:0:0:70:snare.wav
192,192,203752,1,0,0:0:0:0:
64,192,203915,1,0,0:0:0:70:bass.wav
192,192,204077,1,0,0:0:0:70:bass.wav
64,192,204239,1,0,0:0:0:70:snare.wav
320,192,204239,1,0,0:0:0:70:hihat.wav
192,192,204401,1,0,0:0:0:0:
448,192,204563,1,0,0:0:0:70:bass.wav
320,192,204725,1,0,0:0:0:70:bass.wav
448,192,204888,1,0,0:0:0:70:hihat.wav
64,192,204888,1,0,0:0:0:70:snare.wav
192,192,205050,1,0,0:0:0:0:
64,192,205212,1,0,0:0:0:70:bass.wav
320,192,205374,1,0,0:0:0:0:
448,192,205536,1,0,0:0:0:70:hihat.wav
192,192,205536,1,0,0:0:0:70:snare.wav
320,192,205698,1,0,0:0:0:0:
448,192,205861,1,0,0:0:0:70:bass.wav
320,192,206023,1,0,0:0:0:70:bass.wav
192,192,206185,1,0,0:0:0:70:hihat.wav
64,192,206185,1,0,0:0:0:70:snare.wav
320,192,206347,1,0,0:0:0:0:
192,192,206509,1,0,0:0:0:70:bass.wav
64,192,206671,1,0,0:0:0:70:bass.wav
448,192,206833,1,0,0:0:0:70:hihat.wav
320,192,206833,1,0,0:0:0:70:snare.wav
192,192,206996,1,0,0:0:0:0:
320,192,207158,1,0,0:0:0:70:bass.wav
192,192,207320,1,0,0:0:0:70:snare.wav
64,192,207320,1,0,0:0:0:0:
448,192,207482,1,0,0:0:0:70:bass.wav
320,192,207644,1,0,0:0:0:50:snare.wav
192,192,207725,1,0,0:0:0:50:snare.wav
448,192,207806,1,0,0:0:0:70:cymbol 2.wav
64,192,207806,128,0,208131:0:0:0:70:bass.wav
192,192,208131,1,0,0:0:0:70:hihat.wav
448,192,208131,1,0,0:0:0:70:snare.wav
320,192,208293,1,0,0:0:0:0:
192,192,208455,1,0,0:0:0:70:bass.wav
448,192,208617,1,0,0:0:0:70:bass.wav
64,192,208779,1,0,0:0:0:70:hihat.wav
192,192,208779,1,0,0:0:0:70:snare.wav
320,192,208942,1,0,0:0:0:0:
448,192,209104,1,0,0:0:0:70:bass.wav
320,192,209266,1,0,0:0:0:70:bass.wav
448,192,209428,1,0,0:0:0:70:snare.wav
64,192,209428,1,0,0:0:0:70:hihat.wav
192,192,209590,1,0,0:0:0:0:
64,192,209752,1,0,0:0:0:70:bass.wav
320,192,209915,1,0,0:0:0:70:bass.wav
192,192,210077,1,0,0:0:0:70:hihat.wav
448,192,210077,1,0,0:0:0:70:snare.wav
192,192,210320,1,0,0:0:0:50:snare.wav
64,192,210401,1,0,0:0:0:70:cymbol 2.wav
448,192,210401,128,0,210725:0:0:0:70:bass.wav
192,192,210725,1,0,0:0:0:70:snare.wav
64,192,210725,1,0,0:0:0:70:hihat.wav
320,192,210888,1,0,0:0:0:0:
448,192,211050,1,0,0:0:0:70:bass.wav
64,192,211212,1,0,0:0:0:70:bass.wav
448,192,211374,1,0,0:0:0:70:hihat.wav
192,192,211374,1,0,0:0:0:70:snare.wav
320,192,211617,1,0,0:0:0:50:snare.wav
448,192,211698,1,0,0:0:0:70:cymbol 2.wav
64,192,211698,128,0,212023:0:0:0:70:bass.wav
448,192,212023,1,0,0:0:0:70:hihat.wav
192,192,212023,1,0,0:0:0:70:snare.wav
320,192,212185,1,0,0:0:0:0:
64,192,212347,1,0,0:0:0:70:bass.wav
320,192,212509,1,0,0:0:0:70:bass.wav
64,192,212671,1,0,0:0:0:70:hihat.wav
448,192,212671,1,0,0:0:0:70:snare.wav
192,192,212915,1,0,0:0:0:50:snare.wav
64,192,212996,1,0,0:0:0:70:cymbol 2.wav
448,192,212996,128,0,213320:0:0:0:70:bass.wav
64,192,213320,1,0,0:0:0:70:snare.wav
192,192,213320,1,0,0:0:0:70:hihat.wav
320,192,213482,1,0,0:0:0:0:
64,192,213644,1,0,0:0:0:70:bass.wav
320,192,213806,1,0,0:0:0:70:bass.wav
448,192,213969,1,0,0:0:0:70:snare.wav
192,192,213969,1,0,0:0:0:70:hihat.wav
320,192,214131,1,0,0:0:0:0:
64,192,214293,1,0,0:0:0:70:bass.wav
320,192,214455,1,0,0:0:0:0:
192,192,214617,1,0,0:0:0:70:hihat.wav
448,192,214617,1,0,0:0:0:70:snare.wav
320,192,214779,1,0,0:0:0:0:
64,192,214942,1,0,0:0:0:70:hihat.wav
192,192,214942,1,0,0:0:0:70:bass.wav
448,192,215104,1,0,0:0:0:70:snare.wav
192,192,215266,1,0,0:0:0:70:hihat03.wav
320,192,215266,1,0,0:0:0:50:snare.wav
64,192,215428,1,0,0:0:0:30:snare.wav
320,192,215590,1,0,0:0:0:70:hihat01-M.wav
192,192,215590,1,0,0:0:0:70:cymbol 2.wav
448,192,215590,128,0,216239:0:0:0:0:
192,192,216077,1,0,0:0:0:50:bass.wav
64,192,216239,1,0,0:0:0:70:hihat.wav
320,192,216239,1,0,0:0:0:70:snare.wav
320,192,216563,1,0,0:0:0:50:bass.wav
320,192,216725,1,0,0:0:0:70:bass.wav
192,192,217050,1,0,0:0:0:70:snare.wav
64,192,217050,1,0,0:0:0:0:
448,192,217050,1,0,0:0:0:0:
64,192,217374,1,0,0:0:0:70:bass.wav
192,192,217536,1,0,0:0:0:70:snare.wav
320,192,217536,1,0,0:0:0:70:hihat.wav
448,192,217536,1,0,0:0:0:0:
320,192,217861,1,0,0:0:0:70:bass.wav
64,192,218023,1,0,0:0:0:70:snare.wav
192,192,218023,1,0,0:0:0:0:
448,192,218023,1,0,0:0:0:0:
320,192,218185,1,0,0:0:0:70:bass.wav
64,192,218347,1,0,0:0:0:70:snare.wav
192,192,218347,1,0,0:0:0:0:
448,192,218347,1,0,0:0:0:0:
192,192,218671,1,0,0:0:0:70:bass.wav
64,192,218833,1,0,0:0:0:70:snare.wav
320,192,218833,1,0,0:0:0:70:hihat.wav
448,192,218833,1,0,0:0:0:0:
64,192,218996,1,0,0:0:0:70:snare.wav
448,192,218996,1,0,0:0:0:0:
320,192,218996,1,0,0:0:0:0:
64,192,219320,1,0,0:0:0:70:snare.wav
192,192,219320,1,0,0:0:0:0:
448,192,219320,1,0,0:0:0:0:
192,192,219644,1,0,0:0:0:70:snare.wav
320,192,219644,1,0,0:0:0:0:
64,192,219644,1,0,0:0:0:0:
64,192,219969,1,0,0:0:0:70:bass.wav
192,192,220131,1,0,0:0:0:70:hihat.wav
320,192,220131,1,0,0:0:0:70:snare.wav
448,192,220131,1,0,0:0:0:0:
64,192,220293,1,0,0:0:0:70:bass.wav
192,192,220455,1,0,0:0:0:70:hihat.wav
320,192,220455,1,0,0:0:0:70:snare.wav
448,192,220455,1,0,0:0:0:0:
64,192,220779,128,0,221104:0:0:0:70:cymbol 2.wav
192,192,220779,1,0,0:0:0:70:bass.wav
448,192,220779,1,0,0:0:0:0:
192,192,221104,1,0,0:0:0:70:snare.wav
320,192,221104,1,0,0:0:0:70:hihat.wav
448,192,221428,1,0,0:0:0:70:bass.wav
320,192,221590,1,0,0:0:0:70:bass.wav
64,192,221752,1,0,0:0:0:70:hihat.wav
192,192,221752,1,0,0:0:0:70:snare.wav
192,192,221996,1,0,0:0:0:50:snare.wav
320,192,222077,1,0,0:0:0:70:cymbol 2.wav
448,192,222077,128,0,222401:0:0:0:70:bass.wav
192,192,222401,1,0,0:0:0:70:hihat.wav
64,192,222401,1,0,0:0:0:70:snare.wav
64,192,222725,1,0,0:0:0:70:bass.wav
320,192,222888,1,0,0:0:0:70:bass.wav
64,192,223050,1,0,0:0:0:70:snare.wav
448,192,223050,1,0,0:0:0:70:hihat.wav
192,192,223293,1,0,0:0:0:50:snare.wav
448,192,223374,1,0,0:0:0:70:cymbol 2.wav
64,192,223374,128,0,223698:0:0:0:70:bass.wav
320,192,223698,1,0,0:0:0:70:snare.wav
448,192,223698,1,0,0:0:0:70:hihat.wav
192,192,223942,1,0,0:0:0:0:
64,192,224023,1,0,0:0:0:50:snare.wav
320,192,224023,1,0,0:0:0:70:bass.wav
448,192,224185,1,0,0:0:0:50:snare.wav
320,192,224266,1,0,0:0:0:50:snare.wav
192,192,224347,1,0,0:0:0:50:snare.wav
320,192,224509,1,0,0:0:0:50:snare.wav
192,192,224590,1,0,0:0:0:50:snare.wav
64,192,224671,1,0,0:0:0:50:cymbol 2.wav
448,192,224671,128,0,225969:0:0:0:50:snare.wav
192,192,225482,1,0,0:0:0:70:bass.wav
64,192,225644,1,0,0:0:0:70:hihat.wav
320,192,225644,1,0,0:0:0:70:snare.wav
64,192,225969,1,0,0:0:0:50:cymbol 2.wav
192,192,225969,1,0,0:0:0:50:hihat01.wav
