osu file format v13

[General]
AudioFilename: _Savior_of_Cross_DiGiTAL_WiNG.mp3
AudioLeadIn: 0
PreviewTime: 64955
Countdown: 0
SampleSet: Soft
StackLeniency: 0.7
Mode: 0
LetterboxInBreaks: 0
WidescreenStoryboard: 0

[Editor]
DistanceSpacing: 1.2
BeatDivisor: 4
GridSize: 4
TimelineZoom: 1

[Metadata]
Title:Savior of Cross
TitleUnicode:Savior of Cross
Artist:Hanatan
ArtistUnicode:花たん
Creator:kakifly
Version:Normal
Source:Touhou
Tags:Reichi no Taiyou Shinkou ~ Nuclear Fusion digital wing Solar Sect Mystic Wisdom 玄騎士 saviour 霊知の太陽信仰 ena デジウィ dream yurica subterranean animism 東方 Utsuho Reiuji 霊烏路 空 okuu おくう cut version
BeatmapID:534419
BeatmapSetID:227847

[Difficulty]
HPDrainRate:3
CircleSize:3
OverallDifficulty:4
ApproachRate:5
SliderMultiplier:1
SliderTickRate:1

[Events]
//Background and Video events
0,0,"hsoc1.jpg",0,0
//Break Periods
//Storyboard Layer 0 (Background)
//Storyboard Layer 1 (Fail)
//Storyboard Layer 2 (Pass)
//Storyboard Layer 3 (Foreground)
//Storyboard Sound Samples
//Background Colour Transformations
3,100,163,162,255

[TimingPoints]
11177,340.909090909091,4,2,1,70,1,0
20722,-100,4,2,6,70,0,0
20807,-100,4,2,1,70,0,0
28904,-100,4,2,6,70,0,0
29586,-100,4,2,1,70,0,0
30267,-133.333333333333,4,2,6,30,0,0
39813,-100,4,2,6,60,0,0
40495,-100,4,2,1,50,0,0
45267,-100,4,2,6,50,0,0
45523,-100,4,2,1,50,0,0
50722,-100,4,2,6,50,0,0
50977,-100,4,2,1,50,0,0
52085,-111.111111111111,4,2,6,50,0,0
57540,-100,4,2,1,50,0,0
57625,-100,4,2,6,50,0,0
60267,-100,4,2,6,45,0,0
61631,-100,4,2,6,50,0,0
62994,-100,4,2,1,50,0,0
65722,-90.9090909090909,4,2,1,80,0,1
67085,-90.9090909090909,4,2,1,80,0,1
86177,-90.9090909090909,4,2,6,80,0,0
87540,-100,4,2,1,70,0,0
97086,-100,4,2,6,70,0,0
97171,-100,4,2,1,70,0,0
105267,-100,4,2,6,70,0,0
105949,-100,4,2,1,70,0,0
106631,-100,4,2,1,50,0,0
116176,-100,4,2,6,50,0,0
116858,-100,4,2,1,50,0,0
121631,-100,4,2,6,50,0,0
121972,-100,4,2,1,50,0,0
127085,-100,4,2,6,50,0,0
127426,-100,4,2,1,50,0,0
128534,-100,4,2,6,50,0,0
133903,-100,4,2,1,50,0,0
133989,-100,4,2,6,50,0,0
139358,-100,4,2,1,50,0,0
142086,-90.9090909090909,4,2,1,80,0,1
162540,-90.9090909090909,4,2,6,80,0,0
165267,-90.9090909090909,4,2,6,40,0,0
166631,-90.9090909090909,4,2,6,20,0,0
167995,-90.9090909090909,4,2,6,10,0,0
169358,-95.2380952380952,4,2,6,5,0,0

[Colours]
Combo1 : 255,145,148
Combo2 : 148,239,146
Combo3 : 170,168,244
Combo4 : 241,200,154
Combo5 : 83,80,220

[HitObjects]
84,72,11176,6,0,P|132:60|200:68,1,100,6|8,0:0|0:0,0:0:0:0:
236,88,11688,2,0,L|264:200,1,100,0|0,0:0|0:0,0:0:0:0:
256,244,12199,1,8,0:0:0:0:
356,312,12540,2,0,P|312:352|264:364,1,100,2|8,0:0|0:0,0:0:0:0:
216,348,13052,2,0,L|104:320,1,100
76,280,13563,1,8,0:0:0:0:
144,180,13904,6,0,B|176:136|160:88|160:88|112:48,2,150,2|0|8,0:0|0:0|0:0,0:0:0:0:
264,184,15267,2,0,L|424:132,2,150,2|0|8,0:0|0:0|0:0,0:0:0:0:
180,268,16631,6,0,L|88:220,1,100,6|8,0:0|0:0,0:0:0:0:
68,164,17142,2,0,P|72:116|100:68,1,100
148,36,17654,1,8,0:0:0:0:
268,32,17995,2,0,L|372:44,1,100,2|8,0:0|0:0,0:0:0:0:
416,80,18506,2,0,P|440:124|440:180,1,100
424,232,19017,1,8,0:0:0:0:
320,292,19358,6,0,L|221:302,1,100,2|10,0:0|0:0,0:0:0:0:
168,276,19870,1,0,0:0:0:0:
64,216,20211,2,0,L|16:188,2,50,0|10|0,0:0|0:0|0:0,0:0:0:0:
120,196,20722,2,0,P|140:144|136:92,1,100,4|10,0:0|0:0,0:0:0:0:
56,12,21404,1,2,0:0:0:0:
20,128,21745,1,10,0:0:0:0:
120,196,22086,6,0,L|220:184,1,100,6|8,0:0|0:0,0:0:0:0:
272,208,22597,2,0,P|284:236|280:308,1,100
244,352,23108,1,8,0:0:0:0:
364,340,23449,2,0,L|468:312,1,100,2|8,0:0|0:0,0:0:0:0:
500,268,23961,2,0,P|504:212|480:164,1,100
452,124,24472,1,8,0:0:0:0:
332,104,24813,6,0,B|276:96|276:96|244:124|188:120,2,150,2|0|8,0:0|0:0|0:0,0:0:0:0:
360,220,26177,2,0,B|416:212|416:212|448:240|504:236,2,150,2|0|8,0:0|0:0|0:0,0:0:0:0:
240,240,27540,6,0,L|132:268,1,100,6|8,0:0|0:0,0:0:0:0:
108,216,28051,2,0,P|96:180|112:116,1,100
144,72,28563,1,8,0:0:0:0:
260,48,28904,2,0,L|320:44,1,50,6|6,0:0|0:0,0:0:0:0:
484,96,29586,1,6,0:0:0:0:
344,208,30267,6,0,P|324:260|352:356,1,150.000005722046,6|0,0:0|0:0,0:0:0:0:
172,300,31631,2,0,L|16:276,1,150.000005722046,2|0,0:0|0:0,0:0:0:0:
80,108,32995,2,0,P|125:49|212:32,2,150.000005722046,2|2|2,0:0|0:0|0:0,0:0:0:0:
436,64,35722,6,0,P|380:40|352:208,1,300.000011444092,2|2,0:0|0:0,0:0:0:0:
464,336,37767,2,0,B|364:328|364:328|321:304,1,150.000005722046,0|2,0:0|0:0,0:0:0:0:
424,156,39131,1,2,0:0:0:0:
200,68,39813,6,0,L|150:78,1,50,6|6,0:0|0:0,0:0:0:0:
48,228,40495,1,6,0:0:0:0:
288,248,41177,6,0,P|352:244|392:252,1,100,6|8,0:0|0:0,0:0:0:0:
444,232,41688,2,0,B|455:189|455:189|492:148|484:84,1,150,0|8,0:0|0:0,0:0:0:0:
364,108,42540,2,0,L|255:88,2,100,0|8|0,0:0|0:0|0:0,0:0:0:0:
456,184,43563,1,8,0:0:0:0:
408,292,43904,6,0,P|367:319|317:325,1,100,0|8,0:0|0:0,0:0:0:0:
200,312,44586,2,0,L|96:288,1,100,0|8,0:0|0:0,0:0:0:0:
36,192,45267,2,0,P|25:143|29:93,2,100,4|8|0,0:0|0:0|0:0,0:0:0:0:
144,248,46290,1,8,0:0:0:0:
264,240,46631,6,0,B|320:160|320:160|328:96|328:96,2,150,4|0|8,0:0|0:0|0:0,0:0:0:0:
244,120,47995,2,0,P|272:48|304:32,1,100,0|8,0:0|0:0,0:0:0:0:
348,28,48506,1,0,0:0:0:0:
408,40,48677,2,0,L|504:72,1,100,0|8,0:0|0:0,0:0:0:0:
452,180,49358,6,0,B|388:160|388:160|360:188|304:188,2,150,0|0|8,0:0|0:0|0:0,0:0:0:0:
372,268,50722,2,0,L|272:279,1,100,4|8,0:0|0:0,0:0:0:0:
220,252,51233,1,0,0:0:0:0:
184,204,51404,2,0,P|167:157|175:108,1,100,0|8,0:0|0:0,0:0:0:0:
244,24,52086,6,0,L|333:34,1,89.9999972534181,4|4,0:0|0:0,0:0:0:0:
308,140,52767,2,0,L|397:136,1,89.9999972534181,4|12,0:0|0:0,0:0:0:0:
484,200,53449,2,0,P|508:248|508:304,2,89.9999972534181,4|4|4,0:0|0:0|0:0,0:0:0:0:
398,137,54472,1,12,0:0:0:0:
296,96,54813,6,0,P|287:51|294:7,1,89.9999972534181,4|4,0:0|0:0,0:0:0:0:
192,40,55495,2,0,P|196:80|184:128,1,89.9999972534181,4|12,0:0|0:0,0:0:0:0:
152,232,56177,2,0,L|256:204,1,89.9999972534181,4|4,0:0|0:0,0:0:0:0:
316,284,56858,2,0,L|220:312,1,89.9999972534181,4|12,0:0|0:0,0:0:0:0:
108,316,57540,6,0,P|80:288|64:220,1,100,4|4,0:0|0:0,0:0:0:0:
152,152,58222,2,0,L|180:248,1,100,4|12,0:0|0:0,0:0:0:0:
184,368,58904,2,0,P|228:360|272:320,2,100,4|4|4,0:0|0:0|0:0,0:0:0:0:
84,300,59927,1,12,0:0:0:0:
32,192,60267,6,0,L|16:144|0:88,2,100,4|4|4,0:0|0:0|0:0,0:0:0:0:
144,236,61290,1,12,0:0:0:0:
260,208,61631,2,0,B|296:152|292:116|292:116|248:132|188:108,1,200,4|4,0:0|0:0,0:0:0:0:
88,52,62654,1,12,0:0:0:0:
256,192,62995,12,2,64188,0:0:0:0:
196,136,65722,6,0,B|232:104|296:96|296:96|360:120,2,165.000005035401,6|0|8,0:0|0:0|0:0,0:0:0:0:
136,256,67086,2,0,P|204:268|252:248,1,110.000003356934,0|8,0:0|0:0,0:0:0:0:
308,236,67597,2,0,L|412:188,1,110.000003356934
452,140,68108,1,8,0:0:0:0:
344,68,68449,6,0,P|276:56|224:72,1,110.000003356934,0|8,0:0|0:0,0:0:0:0:
184,104,68961,1,0,0:0:0:0:
128,136,69131,2,0,L|4:136,1,110.000003356934,0|8,0:0|0:0,0:0:0:0:
64,260,69813,2,0,B|104:260|104:260|120:296|164:312,1,110.000003356934,0|8,0:0|0:0,0:0:0:0:
284,308,70495,2,0,B|317:296|333:260|333:260|373:260,1,110.000003356934,0|8,0:0|0:0,0:0:0:0:
492,316,71177,6,0,P|504:248|448:160,2,165.000005035401,4|0|8,0:0|0:0|0:0,0:0:0:0:
360,324,72540,2,0,L|240:300,1,110.000003356934,0|8,0:0|0:0,0:0:0:0:
204,260,73052,2,0,P|182:215|184:152,1,110.000003356934
200,92,73563,1,8,0:0:0:0:
324,48,73904,6,0,B|432:28|432:28|464:40|496:56,2,165.000005035401,0|0|8,0:0|0:0|0:0,0:0:0:0:
228,136,75267,2,0,P|280:160|320:208,1,110.000003356934,0|8,0:0|0:0,0:0:0:0:
408,296,75949,2,0,L|420:176,1,110.000003356934,0|8,0:0|0:0,0:0:0:0:
408,120,76461,1,0,0:0:0:0:
352,88,76631,6,0,B|292:88|252:48|252:48|197:48,2,165.000005035401,4|0|8,0:0|0:0|0:0,0:0:0:0:
456,172,77995,2,0,P|464:244|456:288,1,110.000003356934,0|8,0:0|0:0,0:0:0:0:
400,312,78506,2,0,L|276:332,1,110.000003356934
228,304,79017,1,8,0:0:0:0:
128,220,79358,6,0,P|108:152|120:96,1,110.000003356934,0|8,0:0|0:0,0:0:0:0:
148,56,79870,1,0,0:0:0:0:
212,48,80040,2,0,L|328:36,1,110.000003356934,0|8,0:0|0:0,0:0:0:0:
432,108,80722,2,0,B|452:111|488:128|488:128|512:172,1,110.000003356934,0|8,0:0|0:0,0:0:0:0:
400,244,81404,2,0,B|380:241|344:224|344:224|320:180,1,110.000003356934,0|8,0:0|0:0,0:0:0:0:
196,136,82086,6,0,B|208:84|252:56|252:56|276:52|320:52,2,165.000005035401,4|0|8,0:0|0:0|0:0,0:0:0:0:
112,236,83449,2,0,P|152:272|216:276,1,110.000003356934,0|8,0:0|0:0,0:0:0:0:
268,252,83961,2,0,B|356:180|356:180|384:124,1,165.000005035401,0|8,0:0|0:0,0:0:0:0:
288,36,84813,6,0,L|160:20,2,110.000003356934,0|8|0,0:0|0:0|0:0,0:0:0:0:
404,100,85836,1,8,0:0:0:0:
464,216,86177,1,4,0:0:0:0:
464,216,87540,6,0,B|368:240|368:240|296:236,2,150,6|0|8,0:0|0:0|0:0,0:0:0:0:
464,96,88904,2,0,B|368:72|368:72|296:76,2,150,0|0|8,0:0|0:0|0:0,0:0:0:0:
448,216,90267,6,0,L|348:188,1,100,2|8,0:0|0:0,0:0:0:0:
292,188,90779,2,0,P|248:196|180:184,1,100
136,172,91290,1,8,0:0:0:0:
44,96,91631,2,0,P|92:60|144:56,1,100,2|8,0:0|0:0,0:0:0:0:
184,84,92142,2,0,L|292:84,1,100
336,116,92654,1,8,0:0:0:0:
448,156,92995,6,0,P|420:100|440:16,2,150,6|0|8,0:0|0:0|0:0,0:0:0:0:
476,272,94358,2,0,B|424:284|380:256|380:256|312:244,2,150,2|0|8,0:0|0:0|0:0,0:0:0:0:
448,156,95722,6,0,L|336:120,1,100,2|10,0:0|0:0,0:0:0:0:
292,132,96233,1,0,0:0:0:0:
176,100,96574,2,0,L|160:40,2,50,0|2|0,0:0|0:0|0:0,0:0:0:0:
184,160,97086,2,0,P|192:212|172:264,1,100,4|10,0:0|0:0,0:0:0:0:
76,316,97767,1,2,0:0:0:0:
16,212,98108,1,10,0:0:0:0:
108,136,98449,6,0,B|160:124|192:148|192:148|264:140,2,150,6|0|8,0:0|0:0|0:0,0:0:0:0:
108,256,99813,2,0,B|160:268|192:244|192:244|264:252,2,150,2|0|8,0:0|0:0|0:0,0:0:0:0:
20,176,101177,6,0,L|-4:60,1,100,0|8,0:0|0:0,0:0:0:0:
56,56,101688,2,0,B|96:32|148:44|148:44|208:16,1,150,0|8,0:0|0:0,0:0:0:0:
312,52,102540,2,0,L|336:156,1,100,0|8,0:0|0:0,0:0:0:0:
392,172,103052,2,0,L|416:276,1,100
388,324,103563,1,8,0:0:0:0:
280,272,103904,6,0,P|228:264|176:276,2,100,4|8|0,0:0|0:0|0:0,0:0:0:0:
336,252,104756,2,0,L|396:232,1,50,0|8,0:0|0:0,0:0:0:0:
496,196,105267,2,0,L|516:136,1,50,6|6,0:0|0:0,0:0:0:0:
344,80,105949,1,6,0:0:0:0:
148,228,106631,6,0,P|88:236|40:224,2,100,4|8|0,0:0|0:0|0:0,0:0:0:0:
252,172,107654,1,8,0:0:0:0:
368,200,107995,2,0,P|376:156|360:100,1,100,0|8,0:0|0:0,0:0:0:0:
312,64,108506,1,0,0:0:0:0:
252,56,108677,2,0,L|136:48,1,100,0|8,0:0|0:0,0:0:0:0:
56,120,109358,6,0,P|48:168|64:232,1,100,0|8,0:0|0:0,0:0:0:0:
96,264,109870,1,0,0:0:0:0:
152,280,110040,2,0,L|264:264,1,100,0|8,0:0|0:0,0:0:0:0:
356,208,110722,2,0,L|376:152,2,50,0|0|8,0:0|0:0|0:0,0:0:0:0:
240,176,111404,2,0,L|141:190,1,100,0|8,0:0|0:0,0:0:0:0:
76,88,112086,6,0,L|180:96,2,100,4|8|0,0:0|0:0|0:0,0:0:0:0:
0,180,113108,1,8,0:0:0:0:
112,224,113449,2,0,P|124:284|112:336,1,100,0|8,0:0|0:0,0:0:0:0:
236,300,114131,2,0,L|352:268,1,100,0|8,0:0|0:0,0:0:0:0:
432,204,114813,6,0,L|320:192,1,100,0|8,0:0|0:0,0:0:0:0:
272,180,115324,1,0,0:0:0:0:
220,148,115495,2,0,P|212:108|228:36,1,100,0|8,0:0|0:0,0:0:0:0:
336,20,116177,2,0,L|388:20,1,50,6|6,0:0|0:0,0:0:0:0:
508,152,116858,1,6,0:0:0:0:
340,324,117540,6,0,P|292:332|236:320,1,100,4|8,0:0|0:0,0:0:0:0:
192,288,118052,2,0,L|156:188,1,100
152,136,118563,1,8,0:0:0:0:
236,52,118904,2,0,B|268:48|268:48|300:64|352:48,1,100,0|8,0:0|0:0,0:0:0:0:
392,44,119415,1,0,0:0:0:0:
448,20,119586,2,0,L|480:120,1,100,0|8,0:0|0:0,0:0:0:0:
440,228,120267,6,0,P|396:268|344:276,1,100,0|8,0:0|0:0,0:0:0:0:
296,284,120779,2,0,L|197:269,1,100,0|0,0:0|0:0,0:0:0:0:
140,248,121290,1,8,0:0:0:0:
72,148,121631,2,0,L|20:104,2,50,4|4|8,0:0|0:0|0:0,0:0:0:0:
192,160,122313,2,0,L|296:176,1,100,0|8,0:0|0:0,0:0:0:0:
412,164,122995,6,0,P|454:177|504:212,1,100,4|8,0:0|0:0,0:0:0:0:
488,264,123506,2,0,L|468:372,1,100
412,376,124017,1,8,0:0:0:0:
296,348,124358,2,0,P|251:343|192:352,1,100,0|8,0:0|0:0,0:0:0:0:
140,336,124870,2,0,B|100:316|100:316|124:268|96:200,1,150,0|8,0:0|0:0,0:0:0:0:
36,112,125722,6,0,P|92:120|140:112,1,100,0|8,0:0|0:0,0:0:0:0:
184,76,126233,2,0,L|288:80,1,100,0|0,0:0|0:0,0:0:0:0:
344,92,126745,1,8,0:0:0:0:
464,80,127086,2,0,L|520:64,2,50,4|4|8,0:0|0:0|0:0,0:0:0:0:
396,180,127767,2,0,P|336:192|292:180,1,100,0|12,0:0|0:0,0:0:0:0:
244,160,128279,1,0,0:0:0:0:
188,188,128449,6,0,L|156:296,1,100,4|4,0:0|0:0,0:0:0:0:
252,360,129131,2,0,L|284:260,1,100,4|12,0:0|0:0,0:0:0:0:
388,204,129813,2,0,P|336:156|288:152,2,100,4|4|4,0:0|0:0|0:0,0:0:0:0:
372,324,130836,1,12,0:0:0:0:
252,336,131177,6,0,L|140:328,1,100,4|4,0:0|0:0,0:0:0:0:
108,216,131858,2,0,L|212:224,1,100,4|12,0:0|0:0,0:0:0:0:
320,180,132540,2,0,P|356:180|416:148,1,100,4|4,0:0|0:0,0:0:0:0:
464,260,133222,2,0,P|428:260|368:292,1,100,4|12,0:0|0:0,0:0:0:0:
252,288,133904,6,0,L|140:268,2,100,4|4|4,0:0|0:0|0:0,0:0:0:0:
372,284,134927,1,12,0:0:0:0:
408,172,135267,2,0,P|412:112|404:60,1,100,4|4,0:0|0:0,0:0:0:0:
292,36,135949,2,0,P|288:96|300:148,1,100,4|12,0:0|0:0,0:0:0:0:
340,248,136631,6,0,L|452:272,1,100,4|4,0:0|0:0,0:0:0:0:
348,352,137313,2,0,L|244:352,1,100,4|12,0:0|0:0,0:0:0:0:
140,300,137995,2,0,P|96:268|176:188,1,200,4|4,0:0|0:0,0:0:0:0:
288,212,139017,1,12,0:0:0:0:
256,192,139358,12,2,140552,0:0:0:0:
172,136,142086,6,0,P|232:124|284:132,1,110.000003356934,4|8,0:0|0:0,0:0:0:0:
340,160,142597,2,0,L|384:280,1,110.000003356934
356,324,143108,1,8,0:0:0:0:
228,360,143449,2,0,B|176:348|176:348|136:372|64:344,2,165.000005035401,0|0|8,0:0|0:0|0:0,0:0:0:0:
356,324,144813,6,0,P|392:292|408:224,1,110.000003356934,0|8,0:0|0:0,0:0:0:0:
396,168,145324,1,0,0:0:0:0:
336,140,145495,2,0,L|220:116,1,110.000003356934,0|8,0:0|0:0,0:0:0:0:
124,196,146177,2,0,L|232:220,1,110.000003356934,0|8,0:0|0:0,0:0:0:0:
296,240,146688,1,0,0:0:0:0:
356,268,146858,2,0,P|372:312|368:380,1,110.000003356934,0|8,0:0|0:0,0:0:0:0:
244,336,147540,6,0,L|72:316,2,165.000005035401,4|0|8,0:0|0:0|0:0,0:0:0:0:
340,244,148904,2,0,L|512:224,2,165.000005035401,0|0|8,0:0|0:0|0:0,0:0:0:0:
208,236,150267,6,0,P|188:180|200:112,1,110.000003356934,0|8,0:0|0:0,0:0:0:0:
236,80,150779,2,0,L|352:56,1,110.000003356934
408,64,151290,1,8,0:0:0:0:
480,172,151631,2,0,P|508:224|508:284,1,110.000003356934,0|8,0:0|0:0,0:0:0:0:
388,328,152313,2,0,L|260:308,1,110.000003356934,0|8,0:0|0:0,0:0:0:0:
224,276,152824,1,0,0:0:0:0:
188,220,152995,6,0,P|164:140|204:60,2,165.000005035401,4|0|8,0:0|0:0|0:0,0:0:0:0:
308,272,154358,2,0,L|424:284,1,110.000003356934,0|8,0:0|0:0,0:0:0:0:
484,272,154870,2,0,P|492:224|472:160,1,110.000003356934
428,120,155381,1,8,0:0:0:0:
304,72,155722,6,0,L|192:48,2,110.000003356934,0|8|0,0:0|0:0|0:0,0:0:0:0:
428,120,156745,1,8,0:0:0:0:
320,196,157086,2,0,P|308:256|324:308,1,110.000003356934,0|8,0:0|0:0,0:0:0:0:
200,244,157767,2,0,P|208:196|192:136,1,110.000003356934,0|8,0:0|0:0,0:0:0:0:
100,44,158449,6,0,B|180:36|180:36|212:60|272:48,2,165.000005035401,4|0|8,0:0|0:0|0:0,0:0:0:0:
164,160,159813,2,0,B|84:168|84:168|52:144|-8:156,2,165.000005035401,0|0|8,0:0|0:0|0:0,0:0:0:0:
292,124,161177,6,0,L|328:20,2,110.000003356934,0|8|0,0:0|0:0|0:0,0:0:0:0:
208,228,162199,1,8,0:0:0:0:
300,324,162540,1,4,0:0:0:0:
256,192,163904,12,0,169358,0:0:0:0:
