osu file format v13

[General]
AudioFilename: Sajou.mp3
AudioLeadIn: 0
PreviewTime: 65821
Countdown: 0
SampleSet: Soft
StackLeniency: 0.7
Mode: 0
LetterboxInBreaks: 0
WidescreenStoryboard: 0

[Editor]
Bookmarks: 33752,82373
DistanceSpacing: 1
BeatDivisor: 4
GridSize: 4
TimelineZoom: 1

[Metadata]
Title:Sajou
TitleUnicode:砂上
Artist:Hanatan
ArtistUnicode:花たん
Creator:Regraz
Version:Collab Normal
Source:Primrose Flower Voice feat Doriko
Tags:[ abhor ]
BeatmapID:571776
BeatmapSetID:248599

[Difficulty]
HPDrainRate:3
CircleSize:3.3
OverallDifficulty:3.5
ApproachRate:4.5
SliderMultiplier:1.2
SliderTickRate:1

[Events]
//Background and Video events
0,0,"bg.png",0,0
//Break Periods
//Storyboard Layer 0 (Background)
//Storyboard Layer 1 (Fail)
//Storyboard Layer 2 (Pass)
//Storyboard Layer 3 (Foreground)
//Storyboard Sound Samples

[TimingPoints]
8925,517.241379310345,4,2,0,30,1,0
66856,-100,4,1,0,60,0,1
82373,-100,4,1,0,60,0,0
83407,-100,4,1,0,60,0,1
99959,-100,4,1,0,60,0,0

[HitObjects]
315,103,8925,6,0,P|391:71|475:119,2,180,0|0|0,0:0|0:0|0:0,0:0:0:0:
199,135,10993,2,0,L|189:266,1,120
162,308,11769,2,0,P|96:303|44:342,1,120
156,183,13062,6,0,P|170:106|83:64,2,180,0|0|0,0:0|0:0|0:0,0:0:0:0:
143,302,15131,2,0,L|343:285,2,180,0|0|0,0:0|0:0|0:0,0:0:0:0:
140,181,17200,6,0,P|32:183|15:260,2,180,0|0|0,0:0|0:0|0:0,0:0:0:0:
251,226,19269,2,0,P|366:247|426:208,2,180,0|0|0,0:0|0:0|0:0,0:0:0:0:
139,179,21338,2,0,L|130:369,2,180,0|0|0,0:0|0:0|0:0,0:0:0:0:
36,115,23407,6,0,B|76:154|129:139|129:139|175:56|79:79|197:165|279:92|279:92|280:173|350:201,1,420
381,215,25476,6,0,L|250:229,1,120
211,261,26252,2,0,P|149:219|85:230,1,120
48,203,27028,1,0,0:0:0:0:
133,107,27545,2,0,P|190:117|261:85,1,120
297,63,28321,2,0,P|364:39|458:105,1,180
415,206,29614,6,0,L|415:336,2,120,0|0|0,0:0|0:0|0:0,0:0:0:0:
301,166,31166,1,0,0:0:0:0:
227,71,31683,2,0,P|131:49|51:92,1,180
52,142,32718,2,0,P|69:196|50:263,1,120
171,281,33752,6,0,P|250:248|340:289,1,180
388,257,34787,2,0,L|428:138,1,120
346,54,35821,2,0,B|257:38|257:38|165:56,1,180
140,108,36856,2,0,P|125:187|83:225,1,120
75,332,37890,5,0,0:0:0:0:
169,257,38407,1,0,0:0:0:0:
289,257,38925,1,0,0:0:0:0:
381,334,39442,1,0,0:0:0:0:
398,215,39959,6,0,P|402:131|427:93,1,120
306,62,40993,2,0,L|277:128,2,60,0|0|0,0:0|0:0|0:0,0:0:0:0:
187,84,42028,6,0,P|98:130|41:71,1,180
129,246,43580,1,0,0:0:0:0:
217,327,44097,2,0,P|248:232|214:160,1,180
385,101,45649,1,0,0:0:0:0:
421,216,46166,5,0,0:0:0:0:
308,177,46683,1,0,0:0:0:0:
188,178,47200,1,0,0:0:0:0:
109,87,47718,1,0,0:0:0:0:
73,201,48235,6,0,P|37:261|100:355,1,180
145,341,49269,1,0,0:0:0:0:
242,271,49787,1,0,0:0:0:0:
362,267,50304,6,0,B|442:313|442:313|457:219,1,180
433,48,51856,2,0,P|409:115|454:147,1,120
258,156,53149,1,0,0:0:0:0:
104,62,53925,2,0,L|68:190,1,120
36,292,54959,5,0,0:0:0:0:
141,234,55476,1,0,0:0:0:0:
240,301,55993,1,0,0:0:0:0:
344,241,56511,1,0,0:0:0:0:
439,314,57028,1,0,0:0:0:0:
438,194,57545,2,0,P|447:89|465:61,1,120
336,50,58580,6,0,B|275:70|281:111|281:111|254:149|254:149|231:123|196:112|166:136|166:136|144:204|80:219,1,360
52,102,60649,1,0,0:0:0:0:
227,267,61683,2,0,P|302:267|374:364,1,180
370,279,62718,6,0,P|390:204|444:171,1,120
383,65,63752,2,0,P|341:135|284:160,1,120
268,40,64787,2,0,P|209:26|140:52,1,120
97,152,65821,2,0,P|104:232|131:277,1,120
234,221,66856,6,0,P|276:305|355:353,1,180
405,180,68407,1,0,0:0:0:0:
490,95,68925,2,0,P|396:55|325:87,1,180
153,42,70476,1,0,0:0:0:0:
52,107,70993,6,0,P|72:193|163:213,1,180
212,217,72028,2,0,P|300:191|316:104,1,180
271,76,73062,2,0,B|321:60|339:41|339:41|367:52|421:48|421:48|451:82|507:94,1,240
487,209,74614,1,0,0:0:0:0:
407,293,75131,6,0,P|319:281|243:334,1,180
67,341,76683,1,0,0:0:0:0:
68,221,77200,2,0,P|68:108|32:48,1,180
215,36,78752,1,0,0:0:0:0:
164,145,79269,6,0,P|195:222|287:277,1,180
333,268,80304,2,0,P|384:202|385:95,1,180
351,62,81338,2,0,P|268:50|175:102,1,180
139,132,82373,1,0,0:0:0:0:
255,159,82890,1,0,0:0:0:0:
343,78,83407,6,0,P|373:147|367:199,1,120
327,232,84183,2,0,P|242:210|140:230,1,180
83,323,85476,2,0,P|151:356|209:350,1,120
233,309,86252,2,0,L|229:118,1,180
328,60,87545,6,0,P|419:54|469:127,1,180
444,174,88580,2,0,P|412:254|456:328,1,180
413,369,89614,6,0,L|303:361,2,90,0|0|0,0:0|0:0|0:0,0:0:0:0:
471,356,90649,1,0,0:0:0:0:
437,240,91166,1,0,0:0:0:0:
489,132,91683,6,0,P|464:59|410:40,1,120
373,64,92459,2,0,P|275:91|202:65,1,180
83,65,93752,2,0,L|88:207,1,120
120,235,94528,2,0,P|194:277|286:243,1,180
296,192,95562,1,0,0:0:0:0:
336,143,95821,6,0,P|426:111|498:157,1,180
487,210,96856,2,0,B|482:344|482:344|429:356,1,180
377,351,97890,1,0,0:0:0:0:
158,250,98925,6,0,P|85:239|58:253,2,90,0|0|0,0:0|0:0|0:0,0:0:0:0:
205,286,99959,1,0,0:0:0:0:
