osu file format v14

[General]
AudioFilename: raspberrymp3.mp3
AudioLeadIn: 500
PreviewTime: 54548
Countdown: 0
SampleSet: Soft
StackLeniency: 0.7
Mode: 0
LetterboxInBreaks: 0
WidescreenStoryboard: 0

[Editor]
DistanceSpacing: 1.2
BeatDivisor: 4
GridSize: 4
TimelineZoom: 1.2

[Metadata]
Title:Raspberry*Monster
TitleUnicode:ラズベリー*モンスター
Artist:Hanatan
ArtistUnicode:花たん
Creator:kakifly
Version:Normal
Source:
Tags:flowersbest honeyworks vocaloid yurica utaite gom shito kaizokuou akiakane hatsune miku razuberi monsuta
BeatmapID:597671
BeatmapSetID:260539

[Difficulty]
HPDrainRate:4
CircleSize:3.5
OverallDifficulty:4
ApproachRate:5
SliderMultiplier:0.999999999999999
SliderTickRate:1

[Events]
//Background and Video events
Video,18,"raspvideo.flv"
0,0,"rmBG.png",0,0
//Break Periods
2,45530,52832
2,85529,94130
2,103029,104130
2,115530,126005
2,145530,146473
2,155373,156473
//Storyboard Layer 0 (Background)
//Storyboard Layer 1 (Fail)
//Storyboard Layer 2 (Pass)
//Storyboard Layer 3 (Foreground)
//Storyboard Sound Samples

[TimingPoints]
330,312.5,4,2,1,30,1,0
1501,-100,4,2,1,40,0,0
12673,-100,4,2,1,70,0,0
25173,-100,4,2,1,60,0,0
54704,-100,4,2,1,40,0,0
55173,-100,4,2,1,80,0,1
64705,-100,4,2,1,50,0,0
65173,-100,4,2,1,80,0,1
74080,-100,4,2,1,80,0,0
85329,-100,4,2,1,55,0,0
95329,-100,4,2,1,50,0,0
105329,-100,4,2,1,60,0,0
115329,-100,4,2,1,55,0,0
127673,-100,4,2,1,80,0,1
137205,-100,4,2,1,80,0,0
137673,-100,4,2,1,80,0,1
145330,-100,4,2,1,60,0,0
147673,-100,4,2,1,80,0,1
155173,-100,4,2,1,85,0,0
157673,-100,4,2,1,60,0,0
167829,-100,4,2,1,60,0,0
168610,-100,4,2,1,40,0,0
168923,-100,4,2,1,25,0,0
169391,-100,4,2,1,15,0,0
169548,-100,4,2,1,15,0,0
169704,-100,4,2,1,10,0,0
170173,-100,4,2,1,5,0,0
170485,-100,4,2,1,5,0,0

[Colours]
Combo1 : 255,218,106
Combo2 : 100,247,64
Combo3 : 241,78,135
Combo4 : 88,248,180

[HitObjects]
188,148,1580,6,0,L|160:32,2,99.9999999999999,0|0|0,3:3|3:3|3:3,0:0:0:0:
276,228,2517,1,0,0:0:0:0:
276,228,2673,6,0,P|324:220|388:236,1,99.9999999999999,4|4,0:3|0:3,0:0:0:0:
432,252,3142,2,0,L|420:140,1,99.9999999999999,2|0,0:0|0:0,0:0:0:0:
424,92,3611,1,0,0:0:0:0:
308,60,3923,2,0,B|260:72|260:72|192:56,1,99.9999999999999,4|4,0:3|0:3,0:0:0:0:
156,36,4392,2,0,P|164:84|152:148,1,99.9999999999999,2|0,0:0|0:0,0:0:0:0:
16,244,5173,6,0,L|44:348,1,99.9999999999999,4|4,0:3|0:3,0:0:0:0:
104,360,5642,2,0,P|164:352|220:368,1,99.9999999999999,2|0,0:0|0:0,0:0:0:0:
260,344,6111,1,2,0:0:0:0:
260,344,6267,2,0,L|364:352,1,99.9999999999999,2|12,3:0|0:3,0:0:0:0:
416,328,6736,2,0,P|396:264|420:180,1,150,4|4,0:0|0:3,0:0:0:0:
460,144,7361,1,8,0:3:0:0:
356,84,7673,6,0,P|312:96|220:40,1,150,8|2,0:0|0:0,0:0:0:0:
152,144,8455,2,0,L|160:204,2,50,0|0|2,0:0|0:3|0:0,0:0:0:0:
128,92,8923,2,0,P|96:100|32:80,1,99.9999999999999,8|4,0:3|0:3,0:0:0:0:
16,140,9392,2,0,L|32:248,1,99.9999999999999,0|0,0:3|0:0,0:0:0:0:
120,320,10017,1,2,0:0:0:0:
120,320,10173,6,0,L|232:312,1,99.9999999999999,8|4,0:3|0:3,0:0:0:0:
280,312,10642,2,0,P|328:340|384:328,1,99.9999999999999,2|2,0:0|0:0,0:0:0:0:
432,328,11111,1,2,0:0:0:0:
340,252,11423,2,0,L|348:192,1,50,8|4,0:3|0:3,0:0:0:0:
380,152,11736,2,0,P|344:156|256:80,1,150,4|10,0:0|0:3,0:0:0:0:
288,36,12361,1,6,0:3:0:0:
168,40,12673,6,0,L|12:68,1,150,4|14,0:0|0:0,0:0:0:0:
36,184,13455,2,0,P|52:228|40:292,1,99.9999999999999,8|8,0:3|0:0,0:0:0:0:
164,268,14080,2,0,L|232:252,2,50,0|8|10,0:0|0:0|0:0,0:0:0:0:
224,372,14705,2,0,L|328:352,1,99.9999999999999,8|8,0:3|0:0,0:0:0:0:
320,292,15173,6,0,P|348:320|460:312,1,150,4|14,0:0|0:0,0:0:0:0:
484,204,15955,2,0,L|492:96,1,99.9999999999999,8|8,0:3|0:0,0:0:0:0:
380,64,16580,2,0,B|332:72|332:72|272:56,1,99.9999999999999,2|10,0:3|0:0,0:0:0:0:
200,144,17205,2,0,L|208:208,2,50,2|0|8,0:0|0:0|0:0,0:0:0:0:
188,84,17673,6,0,P|140:100|56:56,1,150,6|14,0:0|0:0,0:0:0:0:
12,168,18455,2,0,B|24:204|24:204|24:288,1,99.9999999999999,8|8,0:3|0:0,0:0:0:0:
140,240,19080,2,0,L|140:180,2,50,2|8|8,0:0|0:0|0:0,0:0:0:0:
216,332,19705,2,0,P|264:340|320:320,1,99.9999999999999,8|8,0:3|0:0,0:0:0:0:
324,268,20173,6,0,L|480:296,1,150,6|10,0:0|0:0,0:0:0:0:
456,176,20955,2,0,L|352:160,1,99.9999999999999,10|10,0:0|0:0,0:0:0:0:
236,168,21580,2,0,P|196:168|156:144,2,74.9999999999999,8|8|4,0:3|0:3|0:3,0:0:0:0:
304,72,22361,2,0,L|312:20,2,50,4|8|4,3:0|3:0|3:0,0:0:0:0:
256,192,22830,12,8,24080,3:0:0:0:
348,280,25173,6,0,L|364:176,1,99.9999999999999,6|12,0:0|0:3,0:0:0:0:
328,132,25642,2,0,P|288:148|228:132,1,99.9999999999999,8|2,0:0|0:0,0:0:0:0:
120,104,26267,1,8,0:0:0:0:
92,220,26580,2,0,B|100:264|100:264|92:336,1,99.9999999999999,0|8,0:0|0:0,0:0:0:0:
132,364,27048,2,0,P|164:340|272:348,1,150,0|8,0:0|0:0,0:0:0:0:
328,364,27673,6,0,L|480:344,1,150,6|8,0:0|0:0,0:0:0:0:
484,224,28455,2,0,P|488:176|472:128,1,99.9999999999999,2|8,0:0|0:0,0:0:0:0:
356,96,29080,2,0,L|244:104,1,99.9999999999999,0|8,0:0|0:0,0:0:0:0:
180,196,29705,2,0,L|168:256,2,50,8|8|4,3:0|3:0|3:0,0:0:0:0:
180,136,30173,6,0,P|140:144|64:68,1,150,4|12,0:0|0:0,0:0:0:0:
28,192,30955,2,0,B|40:216|40:216|44:304,1,99.9999999999999,12|12,0:0|0:0,0:0:0:0:
72,344,31423,2,0,P|96:316|208:300,1,150,4|4,0:0|0:3,0:0:0:0:
316,336,32205,2,0,L|432:320,1,99.9999999999999,10|8,0:0|0:0,0:0:0:0:
472,336,32673,6,0,P|452:296|488:196,1,150,4|8,0:0|0:0,0:0:0:0:
384,128,33455,2,0,B|340:140|340:140|272:128,1,99.9999999999999,10|8,0:0|0:0,0:0:0:0:
228,144,33923,1,0,0:0:0:0:
228,144,34080,2,0,L|244:248,2,99.9999999999999,4|8|8,0:0|0:0|3:0,0:0:0:0:
172,124,34861,2,0,P|152:128|116:128,1,50,8|4,3:0|3:0,0:0:0:0:
64,108,35173,6,0,P|36:156|64:256,1,150,4|8,0:0|0:0,0:0:0:0:
128,340,35955,2,0,L|240:332,1,99.9999999999999,2|8,0:0|0:0,0:0:0:0:
348,352,36580,2,0,P|404:360|448:344,1,99.9999999999999,2|8,0:0|0:0,0:0:0:0:
476,296,37048,2,0,L|468:136,1,150,0|8,0:0|0:0,0:0:0:0:
412,120,37673,6,0,P|368:132|280:72,1,150,4|8,0:0|0:0,0:0:0:0:
164,60,38455,2,0,B|120:68|120:68|56:56,1,99.9999999999999,2|8,0:0|0:0,0:0:0:0:
28,104,38923,1,0,0:0:0:0:
28,104,39080,2,0,P|40:152|48:224,1,99.9999999999999,2|8,0:0|0:0,0:0:0:0:
144,276,39705,2,0,L|176:232,2,50,8|8|4,3:0|3:0|3:0,0:0:0:0:
148,336,40173,6,0,P|184:364|288:336,1,150,4|8,0:0|0:0,0:0:0:0:
336,240,40955,2,0,L|444:248,1,99.9999999999999,8|8,0:0|0:0,0:0:0:0:
488,216,41423,2,0,P|476:180|492:104,1,99.9999999999999,4|0,0:0|0:0,0:0:0:0:
424,124,41892,2,0,P|424:76|420:12,1,99.9999999999999,8|8,0:0|0:0,0:0:0:0:
304,48,42517,1,8,0:0:0:0:
304,48,42673,6,0,P|272:28|168:64,1,150,6|8,0:0|0:0,0:0:0:0:
160,180,43455,2,0,B|116:188|116:188|40:176,1,99.9999999999999,8|0,0:0|0:0,0:0:0:0:
12,212,43923,2,0,L|36:368,1,150,4|0,0:0|0:0,0:0:0:0:
148,316,44705,2,0,P|204:308|256:320,1,99.9999999999999,0|0,1:0|1:0,0:0:0:0:
356,264,45330,5,2,0:0:0:0:
72,280,54705,6,0,L|172:276,1,99.9999999999999,2|2,3:0|3:0,0:0:0:0:
232,276,55173,6,0,P|260:228|232:136,1,150,4|8,0:0|0:0,0:0:0:0:
332,64,55955,2,0,B|376:72|376:72|440:56,1,99.9999999999999,2|8,0:0|0:0,0:0:0:0:
484,88,56423,2,0,L|480:252,1,150,4|8,0:0|0:0,0:0:0:0:
404,332,57205,2,0,L|448:376,2,50,2|0|8,0:0|0:0|0:0,0:0:0:0:
360,292,57673,6,0,P|316:312|224:264,1,150,4|8,0:0|0:0,0:0:0:0:
120,224,58455,2,0,L|104:120,1,99.9999999999999,2|8,0:0|0:0,0:0:0:0:
208,64,59080,2,0,P|244:68|292:60,2,74.9999999999999,4|4|2,0:0|0:0|0:0,0:0:0:0:
408,196,60173,6,0,B|400:236|400:236|412:268|412:268|400:300|416:348,1,150,4|8,0:0|0:0,0:0:0:0:
292,352,60955,2,0,P|252:344|188:356,1,99.9999999999999,0|0,0:0|0:0,0:0:0:0:
144,320,61423,2,0,L|120:172,1,150,4|0,0:0|0:0,0:0:0:0:
196,80,62205,2,0,L|192:24,2,50,0|2|8,0:0|0:0|0:0,0:0:0:0:
236,128,62673,6,0,P|276:140|340:116,1,99.9999999999999,4|8,0:0|0:0,0:0:0:0:
340,64,63142,2,0,L|452:72,1,99.9999999999999,8|4,0:0|3:0,0:0:0:0:
444,132,63611,2,0,P|480:140|504:140,1,50,4|4,3:0|3:0,0:0:0:0:
480,260,64080,2,0,B|472:296|472:296|484:364,1,99.9999999999999,2|8,3:0|0:0,0:0:0:0:
364,352,64705,2,0,L|264:340,1,99.9999999999999,2|2,3:0|3:0,0:0:0:0:
236,288,65173,6,0,P|204:264|96:268,1,150,4|8,0:0|0:0,0:0:0:0:
60,152,65955,2,0,L|4:168,2,50,2|0|8,2:0|0:0|0:0,0:0:0:0:
116,172,66423,2,0,P|92:96|144:40,1,150,4|8,0:0|0:0,0:0:0:0:
252,28,67205,2,0,L|356:20,1,99.9999999999999,2|8,2:0|0:0,0:0:0:0:
356,80,67673,6,0,P|392:108|492:88,1,150,4|8,0:0|0:0,0:0:0:0:
468,208,68455,2,0,L|476:272,2,50,0|0|8,1:0|1:0|0:0,0:0:0:0:
348,196,69080,2,0,L|252:180,2,74.9999999999999,4|4|4,0:0|0:0|0:0,0:0:0:0:
260,332,70173,6,0,P|228:348|160:336,1,99.9999999999999,4|0,0:0|0:0,0:0:0:0:
120,300,70642,2,0,L|20:324,2,99.9999999999999,8|2|8,0:0|2:0|0:0,0:0:0:0:
164,260,71423,2,0,P|184:212|152:116,1,150,4|8,0:0|0:0,0:0:0:0:
272,84,72205,2,0,L|284:140,2,50,2|0|8,2:0|0:0|0:0,0:0:0:0:
312,40,72673,6,0,B|356:52|356:52|416:40,1,99.9999999999999,0|2,0:0|3:0,0:0:0:0:
460,76,73142,2,0,L|472:188,1,99.9999999999999,8|8,0:0|0:0,0:0:0:0:
372,248,73767,1,8,0:0:0:0:
480,304,74080,1,14,3:0:0:0:
60,284,75173,6,0,P|52:236|60:180,1,99.9999999999999,4|0,0:0|0:0,0:0:0:0:
112,156,75642,2,0,P|108:116|100:48,2,99.9999999999999,8|8|8,0:0|0:3|0:0,0:0:0:0:
228,184,76580,2,0,B|276:176|276:176|328:192,1,99.9999999999999,0|8,0:0|0:0,0:0:0:0:
420,264,77205,2,0,L|436:316,2,50,8|8|8,0:3|0:3|0:0,0:0:0:0:
452,212,77673,6,0,P|472:180|444:76,1,150,4|8,0:0|0:0,0:0:0:0:
336,32,78455,2,0,L|232:40,1,99.9999999999999,8|8,0:3|0:0,0:0:0:0:
152,124,79080,2,0,P|112:136|52:120,2,99.9999999999999,4|8|8,0:0|0:0|0:3,0:0:0:0:
268,152,80017,1,8,0:0:0:0:
268,152,80173,6,0,L|272:252,1,99.9999999999999,4|0,0:0|0:0,0:0:0:0:
248,308,80642,2,0,P|300:300|348:312,1,99.9999999999999,12|8,0:0|0:3,0:0:0:0:
460,344,81267,1,0,0:0:0:0:
452,224,81580,2,0,L|496:188,2,50,8|8|8,3:0|3:0|0:0,0:0:0:0:
336,192,82205,2,0,P|328:152|336:92,1,99.9999999999999,8|8,0:3|0:0,0:0:0:0:
384,60,82673,6,0,P|324:68|248:20,1,150,4|8,0:0|3:3,0:0:0:0:
184,124,83455,2,0,L|188:188,2,50,8|8|8,3:0|3:0|0:0,0:0:0:0:
104,32,84080,2,0,P|64:28|24:32,2,74.9999999999999,12|10|10,0:0|0:0|0:0,0:0:0:0:
184,124,84861,1,8,3:0:0:0:
184,124,85017,2,0,L|292:112,1,99.9999999999999,8|2,3:0|0:0,0:0:0:0:
60,228,95330,6,0,P|96:252|216:176,1,200,2|8,0:0|3:0,0:0:0:0:
280,84,96267,1,8,3:0:0:0:
340,188,96580,2,0,L|328:288,1,99.9999999999999,8|0,3:0|0:0,0:0:0:0:
436,336,97205,2,0,L|448:232,1,99.9999999999999,8|0,0:0|0:0,0:0:0:0:
436,116,97830,6,0,P|448:76|436:4,2,99.9999999999999,2|2|8,0:0|0:0|3:0,0:0:0:0:
340,188,98767,2,0,L|240:196,1,99.9999999999999,8|8,3:0|3:0,0:0:0:0:
176,92,99392,1,0,0:0:0:0:
140,208,99705,2,0,B|96:224|96:224|28:216,1,99.9999999999999,8|0,0:0|0:0,0:0:0:0:
32,100,100330,6,0,L|136:76,1,99.9999999999999,0|0,0:0|0:0,0:0:0:0:
232,136,100955,2,0,P|276:124|332:132,1,99.9999999999999,8|8,3:0|3:0,0:0:0:0:
284,240,101580,2,0,P|234:247|186:234,1,99.9999999999999,8|0,3:0|0:0,0:0:0:0:
88,168,102205,1,8,0:0:0:0:
48,280,102517,2,0,B|56:320|56:320|48:384,1,99.9999999999999,0|8,0:0|0:0,0:0:0:0:
475,268,105330,6,0,L|376:256,1,99.9999999999999,4|0,0:0|0:0,0:0:0:0:
324,284,105798,2,0,P|288:292|216:264,1,99.9999999999999,4|0,0:0|0:0,0:0:0:0:
176,244,106267,2,0,L|24:260,1,150,4|0,2:0|0:0,0:0:0:0:
28,200,106892,2,0,P|16:156|28:96,1,99.9999999999999,8|8,0:0|3:0,0:0:0:0:
140,72,107517,2,0,L|200:80,1,50,2|8,3:0|3:0,0:0:0:0:
204,136,107830,6,0,P|240:96|336:92,1,150,4|4,0:0|0:0,0:0:0:0:
476,196,108767,2,0,L|488:352,1,150,4|2,2:0|3:0,0:0:0:0:
436,380,109392,1,8,0:0:0:0:
356,288,109705,2,0,P|352:252|352:192,2,66.6666666666666,8|8|8,3:0|3:0|3:0,0:0:0:0:
284,320,110330,6,0,P|236:284|140:308,1,150,6|6,0:0|0:0,0:0:0:0:
224,132,111267,2,0,B|280:148|280:148|372:136,1,150,6|0,0:0|0:0,0:0:0:0:
432,132,111892,2,0,P|428:184|444:232,1,99.9999999999999,8|8,0:0|0:0,0:0:0:0:
364,320,112517,2,0,L|344:368,1,50,8|0,0:0|0:0,0:0:0:0:
288,348,112830,6,0,L|172:360,1,99.9999999999999,4|0,0:0|0:0,0:0:0:0:
156,308,113298,2,0,P|120:284|16:312,1,150,4|4,0:0|2:0,0:0:0:0:
60,192,114080,2,0,L|52:80,1,99.9999999999999,4|8,3:0|0:0,0:0:0:0:
168,64,114705,2,0,L|164:184,1,99.9999999999999,8|8,0:3|0:0,0:0:0:0:
264,228,115330,1,4,3:0:0:0:
316,312,127205,6,0,L|324:212,1,99.9999999999999,2|2,0:3|0:3,0:0:0:0:
348,156,127673,6,0,P|316:164|212:108,1,150,4|8,0:0|0:0,0:0:0:0:
312,40,128455,1,2,0:0:0:0:
216,116,128767,2,0,L|112:124,1,99.9999999999999,8|0,0:0|0:0,0:0:0:0:
12,64,129392,1,8,0:0:0:0:
32,184,129705,2,0,L|24:240,2,50,2|0|8,0:0|0:0|0:0,0:0:0:0:
88,208,130173,6,0,L|100:320,1,99.9999999999999,4|0,0:0|0:0,0:0:0:0:
152,336,130642,2,0,P|180:324|256:332,1,99.9999999999999,8|4,0:0|0:3,0:0:0:0:
292,216,131267,1,8,0:3:0:0:
372,308,131580,2,0,P|412:316|448:312,2,74.9999999999999,4|4|4,0:0|0:0|0:0,0:0:0:0:
168,180,132673,6,0,B|164:140|164:140|172:112|172:112|160:84|168:32,1,150,4|8,0:0|0:0,0:0:0:0:
284,68,133455,1,2,0:0:0:0:
364,160,133767,1,8,0:0:0:0:
364,160,133923,2,0,P|404:140|500:180,1,150,4|8,0:0|0:0,0:0:0:0:
452,288,134705,2,0,L|488:348,2,50,2|0|8,0:0|0:0|0:0,0:0:0:0:
424,236,135173,6,0,P|416:288|408:356,1,99.9999999999999,4|4,0:0|0:3,0:0:0:0:
356,364,135642,1,8,0:0:0:0:
260,304,135955,2,0,P|228:292|160:296,1,99.9999999999999,2|8,0:0|0:0,0:0:0:0:
92,196,136580,2,0,P|141:197|189:182,1,99.9999999999999,0|8,0:0|0:0,0:0:0:0:
272,96,137205,2,0,L|264:44,2,50,4|8|8,0:3|0:3|0:3,0:0:0:0:
320,128,137673,6,0,L|332:284,1,150,4|8,0:0|0:0,0:0:0:0:
244,360,138455,2,0,P|200:369|144:353,1,99.9999999999999,2|8,0:0|0:0,0:0:0:0:
152,296,138923,2,0,B|96:280|96:280|60:312|-4:292,1,150,4|8,0:0|0:0,0:0:0:0:
40,180,139705,2,0,L|48:124,1,50,2|0,0:0|0:0,0:0:0:0:
20,76,140017,1,8,0:0:0:0:
20,76,140173,6,0,P|72:80|128:48,1,99.9999999999999,4|0,0:0|0:0,0:0:0:0:
164,92,140642,2,0,L|265:78,1,99.9999999999999,8|8,0:0|0:3,0:0:0:0:
312,116,141111,2,0,P|334:116|367:113,1,50,4|8,0:3|0:3,0:0:0:0:
452,196,141580,2,0,B|436:224|436:224|428:276,2,74.9999999999999,4|4|4,0:0|0:0|0:0,0:0:0:0:
224,268,142673,6,0,P|160:287|80:252,1,150,4|8,0:0|0:0,0:0:0:0:
116,140,143455,2,0,L|216:136,1,99.9999999999999,2|8,0:0|0:0,0:0:0:0:
264,96,143923,2,0,P|252:132|268:204,1,99.9999999999999,4|4,0:0|0:3,0:0:0:0:
308,228,144392,1,8,0:0:0:0:
412,168,144705,2,0,L|420:112,2,50,0|4|8,0:0|0:3|0:0,0:0:0:0:
444,284,145330,5,14,0:3:0:0:
444,284,147673,6,0,L|284:260,1,150,4|8,0:0|0:0,0:0:0:0:
176,268,148455,2,0,L|148:316,2,50,8|0|8,0:0|0:0|0:0,0:0:0:0:
164,208,148923,2,0,P|236:200|276:124,1,150,4|8,0:0|0:0,0:0:0:0:
356,48,149705,2,0,L|460:64,1,99.9999999999999,8|8,0:0|0:0,0:0:0:0:
476,120,150173,6,0,P|452:164|484:264,1,150,4|8,0:0|0:0,0:0:0:0:
380,328,150955,2,0,B|336:320|336:320|280:328,1,99.9999999999999,8|8,0:0|0:0,0:0:0:0:
228,360,151423,2,0,L|68:336,1,150,4|8,0:0|0:0,0:0:0:0:
76,216,152205,2,0,L|16:204,2,50,8|0|8,0:0|0:0|0:0,0:0:0:0:
136,200,152673,6,0,P|148:160|136:104,1,99.9999999999999,4|0,0:0|0:0,0:0:0:0:
176,60,153142,2,0,L|288:48,1,99.9999999999999,8|8,0:0|0:0,0:0:0:0:
356,136,153767,1,8,0:0:0:0:
356,136,153923,2,0,P|404:152|488:100,1,150,4|8,0:0|0:0,0:0:0:0:
476,224,154705,2,0,L|468:332,1,99.9999999999999,8|8,0:0|0:0,0:0:0:0:
416,352,155173,1,4,0:0:0:0:
148,296,157673,6,0,L|140:188,1,99.9999999999999,4|0,0:0|0:0,0:0:0:0:
176,148,158142,2,0,P|184:96|164:40,2,99.9999999999999,14|8|8,0:0|0:3|0:0,0:0:0:0:
288,192,159080,2,0,B|336:184|336:184|392:192,1,99.9999999999999,0|8,0:0|0:0,0:0:0:0:
432,304,159705,2,0,L|444:356,2,50,8|8|8,0:3|0:3|0:0,0:0:0:0:
468,256,160173,6,0,P|488:220|460:116,1,150,4|14,0:0|0:0,0:0:0:0:
364,52,160955,2,0,L|260:64,1,99.9999999999999,8|8,0:3|0:0,0:0:0:0:
156,112,161580,2,0,P|116:124|56:112,2,99.9999999999999,2|8|2,0:3|0:0|0:0,0:0:0:0:
248,188,162517,1,8,0:0:0:0:
248,188,162673,6,0,L|404:216,1,150,4|8,0:0|0:0,0:0:0:0:
340,324,163455,2,0,L|236:304,1,99.9999999999999,8|8,0:3|0:0,0:0:0:0:
124,316,164080,2,0,L|135:364,2,50,8|8|8,0:3|0:3|0:0,0:0:0:0:
44,228,164705,2,0,P|48:184|32:128,1,99.9999999999999,2|8,0:0|0:0,0:0:0:0:
56,76,165173,6,0,P|120:92|192:32,1,150,4|8,0:0|0:0,0:0:0:0:
272,128,165955,2,0,L|276:192,2,50,8|8|8,0:3|0:3|0:0,0:0:0:0:
376,68,166580,2,0,P|408:64|456:72,2,74.9999999999999,8|8|8,0:3|0:3|0:3,0:0:0:0:
256,192,167830,12,0,171033,0:0:0:0:
