osu file format v14

[General]
AudioFilename: raspberrymp3.mp3
AudioLeadIn: 500
PreviewTime: 54548
Countdown: 0
SampleSet: Soft
StackLeniency: 0.7
Mode: 0
LetterboxInBreaks: 0
WidescreenStoryboard: 0

[Editor]
DistanceSpacing: 0.5
BeatDivisor: 4
GridSize: 4
TimelineZoom: 1.2

[Metadata]
Title:Raspberry*Monster
TitleUnicode:ラズベリー*モンスター
Artist:Hanatan
ArtistUnicode:花たん
Creator:kakifly
Version:Insane
Source:
Tags:flowersbest honeyworks vocaloid yurica utaite gom shito kaizokuou akiakane hatsune miku razuberi monsuta
BeatmapID:595215
BeatmapSetID:260539

[Difficulty]
HPDrainRate:6
CircleSize:4
OverallDifficulty:7
ApproachRate:9
SliderMultiplier:1.7
SliderTickRate:2

[Events]
//Background and Video events
Video,18,"raspvideo.flv"
0,0,"rmBG.png",0,0
//Break Periods
2,45530,52230
2,85530,94730
2,115530,124730
2,145530,147073
2,155373,157073
//Storyboard Layer 0 (Background)
//Storyboard Layer 1 (Fail)
//Storyboard Layer 2 (Pass)
//Storyboard Layer 3 (Foreground)
//Storyboard Sound Samples

[TimingPoints]
330,312.5,4,2,1,30,1,0
1501,-133.333333333333,4,2,1,40,0,0
6110,-133.333333333333,4,2,1,45,0,0
6423,-100,4,2,1,60,0,0
12673,-100,4,2,1,70,0,0
22673,-166.666666666667,4,2,1,60,0,0
22829,-166.666666666667,4,2,1,40,0,0
24079,-133.333333333333,4,2,1,40,0,0
25173,-111.111111111111,4,2,1,60,0,0
44235,-111.111111111111,4,2,1,45,0,0
54704,-117.647058823529,4,2,1,40,0,0
55173,-100,4,2,1,80,0,1
59079,-83.3333333333333,4,2,1,80,0,1
59860,-100,4,2,1,80,0,1
62673,-105.263157894737,4,2,1,80,0,1
63454,-105.263157894737,4,2,1,60,0,1
63844,-105.263157894737,4,2,1,80,0,1
64705,-105.263157894737,4,2,1,50,0,0
65173,-100,4,2,1,80,0,1
69079,-83.3333333333333,4,2,1,80,0,1
69782,-100,4,2,1,80,0,1
74080,-100,4,2,1,80,0,0
75173,-111.111111111111,4,2,1,60,0,0
84860,-100,4,2,1,60,0,0
85329,-100,4,2,1,55,0,0
95329,-133.333333333333,4,2,1,50,0,0
103298,-133.333333333333,4,2,1,30,0,0
103766,-133.333333333333,4,2,1,40,0,0
104079,-133.333333333333,4,2,1,55,0,0
104391,-133.333333333333,4,2,1,65,0,0
104704,-133.333333333333,4,2,1,70,0,0
105329,-133.333333333333,4,2,1,60,0,0
115329,-117.647058823529,4,2,1,55,0,0
127673,-100,4,2,1,80,0,1
131579,-83.3333333333333,4,2,1,80,0,1
132282,-100,4,2,1,80,0,1
137205,-100,4,2,1,80,0,0
137673,-100,4,2,1,80,0,1
141579,-83.3333333333333,4,2,1,80,0,1
142282,-100,4,2,1,80,0,1
145330,-100,4,2,1,60,0,0
147673,-100,4,2,1,80,0,1
155173,-100,4,2,1,85,0,0
157673,-111.111111111111,4,2,1,60,0,0
168610,-111.111111111111,4,2,1,40,0,0
168923,-111.111111111111,4,2,1,25,0,0
169391,-111.111111111111,4,2,1,15,0,0
169704,-111.111111111111,4,2,1,10,0,0
170173,-111.111111111111,4,2,1,5,0,0

[Colours]
Combo1 : 255,218,106
Combo2 : 100,247,64
Combo3 : 241,78,135
Combo4 : 88,248,180

[HitObjects]
144,84,1580,5,0,3:3:0:0:
156,96,1892,1,0,3:3:0:0:
168,108,2205,1,0,3:3:0:0:
320,112,2517,1,0,0:0:0:0:
256,192,2673,6,0,L|264:272,2,63.7500024318696,4|4|4,0:3|0:3|0:3,0:0:0:0:
320,112,3142,1,2,0:0:0:0:
372,200,3298,2,0,P|408:204|456:196,1,63.7500024318696
256,192,3611,2,0,P|216:184|172:192,1,63.7500024318696,0|2,0:0|0:0,0:0:0:0:
216,280,3923,5,4,0:3:0:0:
320,112,4080,2,0,L|312:24,1,63.7500024318696,4|4,0:3|0:3,0:0:0:0:
216,72,4392,1,2,0:0:0:0:
408,88,4548,1,0,0:0:0:0:
228,80,4705,2,0,B|212:116|228:148|228:148|224:172|224:172|236:228,1,127.500004863739,0|2,0:0|0:0,0:0:0:0:
284,292,5173,5,4,0:3:0:0:
144,188,5330,2,0,L|64:184,1,63.7500024318696,4|4,0:3|0:3,0:3:0:0:
116,92,5642,1,2,0:0:0:0:
144,188,5798,1,0,0:0:0:0:
248,208,5955,2,2,L|311:204,1,63.7500024318696,0|2,0:0|0:0,0:0:0:0:
144,188,6267,1,2,3:0:0:0:
72,268,6423,1,0,0:0:0:0:
48,172,6580,5,12,0:3:0:0:
260,348,6736,2,0,L|272:168,1,170,4|0,0:0|0:0,0:0:0:0:
224,88,7205,1,4,0:3:0:0:
360,236,7361,1,8,0:3:0:0:
366,245,7673,6,0,L|374:157,1,85,8|0,0:0|0:0,0:0:0:0:
311,78,7986,1,4,3:0:0:0:
465,138,8142,2,0,P|460:92|472:48,1,85,2|0,0:0|0:0,0:0:0:0:
272,156,8455,1,0,0:0:0:0:
366,245,8611,2,0,L|378:337,1,85,0|2,0:3|0:0,0:0:0:0:
272,288,8923,5,8,0:3:0:0:
456,264,9080,1,2,0:0:0:0:
280,308,9236,1,4,0:3:0:0:
468,284,9392,1,0,0:3:0:0:
296,184,9548,2,0,B|284:136|272:56|272:56|304:96,1,170
396,144,10017,1,2,0:0:0:0:
216,224,10173,1,8,0:3:0:0:
368,344,10330,6,0,L|376:244,1,85,4|4,0:3|0:3,0:3:0:0:
298,106,10642,1,2,0:0:0:0:
412,176,10798,1,0,0:0:0:0:
216,224,10955,1,2,0:0:0:0:
348,40,11111,2,0,L|440:28,1,85,2|2,0:0|0:0,0:0:0:0:
496,128,11423,1,8,0:3:0:0:
432,48,11580,5,4,0:3:0:0:
305,271,11736,2,0,B|297:223|297:223|305:191|305:191|282:160|298:106,1,170,4|4,0:0|0:3,0:0:0:0:
388,144,12205,1,10,0:3:0:0:
216,164,12361,1,6,0:3:0:0:
208,184,12673,6,0,P|200:228|212:272,1,85,4|0,0:0|0:0,0:0:0:0:
304,224,12986,1,8,0:0:0:0:
168,84,13142,2,0,B|139:93|139:93|79:88,2,85,14|0|8,0:0|0:0|0:3,0:0:0:0:
208,184,13611,1,8,0:3:0:0:
304,92,13767,1,8,0:0:0:0:
108,168,13923,1,0,0:0:0:0:
223,263,14080,6,0,L|216:348,1,85,0|8,0:0|0:0,0:0:0:0:
48,364,14392,2,0,L|68:268,1,85,10|0,0:0|0:0,0:0:0:0:
108,168,14705,2,0,P|120:132|104:64,1,85,8|8,0:3|0:3,0:0:0:0:
16,112,15017,1,8,0:0:0:0:
208,184,15173,6,0,B|204:228|204:228|220:264|220:264|200:308|232:376,1,170,4|8,0:0|0:0,0:0:0:0:
312,300,15642,1,14,0:0:0:0:
136,272,15798,2,0,B|104:264|104:264|52:268,1,85,0|8,0:0|0:3,0:0:0:0:
92,364,16111,1,8,0:3:0:0:
108,168,16267,1,8,0:0:0:0:
12,280,16423,1,0,0:0:0:0:
208,184,16580,6,0,L|212:88,1,85,2|8,0:3|0:0,0:0:0:0:
324,56,16892,2,0,L|336:148,1,85,10|0,0:0|0:0,0:0:0:0:
108,168,17205,2,0,P|64:160|32:132,1,85,2|0,0:0|0:0,0:0:0:0:
108,72,17517,1,8,0:0:0:0:
306,144,17673,6,0,L|312:328,1,170,6|8,0:0|0:0,0:0:0:0:
208,184,18142,1,14,0:0:0:0:
384,176,18298,2,0,L|388:260,1,85,0|8,0:0|0:3,0:0:0:0:
304,324,18611,1,8,0:3:0:0:
224,204,18767,1,8,0:0:0:0:
400,180,18923,6,0,P|440:188|492:172,1,85,0|2,0:0|0:0,0:0:0:0:
440,76,19236,1,8,0:0:0:0:
300,152,19392,1,8,0:0:0:0:
444,280,19548,2,0,L|455:364,2,85,0|8|8,0:0|0:3|0:3,0:0:0:0:
300,152,20017,1,8,0:0:0:0:
96,304,20173,6,0,B|88:236|88:172|88:172|116:212,1,170,6|0,0:0|0:0,0:0:0:0:
208,300,20642,2,0,L|204:384,1,85,10|0,0:0|0:0,0:0:0:0:
110,203,20955,1,10,0:0:0:0:
300,152,21111,1,4,0:3:0:0:
380,288,21267,1,10,0:0:0:0:
392,304,21580,5,8,0:3:0:0:
240,216,21814,1,8,0:3:0:0:
448,116,22048,1,4,0:3:0:0:
436,128,22361,1,4,3:0:0:0:
340,92,22517,1,8,3:0:0:0:
244,56,22673,5,4,3:0:0:0:
236,68,22751,1,0,0:0:0:0:
232,80,22830,2,0,L|240:148,1,50.9999984436036,10|0,3:2|0:0,0:0:0:0:
356,228,23142,2,0,L|350:177,1,50.9999984436036,4|0,3:0|0:0,0:0:0:0:
128,200,23455,2,0,L|136:268,1,50.9999984436036,8|0,3:0|0:0,0:0:0:0:
260,328,23767,2,0,L|254:277,1,50.9999984436036,4|0,3:0|0:0,0:0:0:0:
128,200,24080,6,0,B|104:200|104:200|64:188,1,63.7500024318696,8|0,3:0|0:0,0:0:0:0:
183,68,24392,2,0,B|221:56|221:56|245:56,1,63.7500024318696,4|0,3:0|0:0,0:0:0:0:
416,140,24705,2,0,B|377:151|377:151|353:151,1,63.7500024318696,8|0,3:0|0:0,0:0:0:0:
364,56,25017,1,4,3:0:0:0:
440,264,25173,6,0,L|436:348,1,76.4999976654053,6|0,0:0|0:0,0:0:0:0:
336,288,25486,1,12,0:3:0:0:
504,132,25642,2,0,P|507:170|500:208,1,76.4999976654053,8|0,0:0|0:0,0:0:0:0:
352,160,25955,2,0,P|324:152|264:140,2,76.4999976654053,2|0|8,0:0|0:0|0:0,0:0:0:0:
488,120,26423,1,0,0:0:0:0:
336,288,26580,6,0,L|325:363,1,76.4999976654053
436,344,26892,1,8,0:0:0:0:
416,228,27048,2,0,P|380:196|276:208,1,152.999995330811
220,288,27517,1,8,0:0:0:0:
492,288,27673,6,0,L|504:196,1,76.4999976654053,6|0,0:0|0:0,0:0:0:0:
396,108,27986,1,0,0:0:0:0:
336,288,28142,1,8,0:0:0:0:
500,196,28298,1,0,0:0:0:0:
280,156,28455,2,0,P|272:193|275:231,1,76.4999976654053,2|0,0:0|0:0,0:0:0:0:
360,200,28767,1,8,0:0:0:0:
184,212,28923,1,0,0:0:0:0:
360,200,29080,6,0,B|368:176|368:176|368:116,1,76.4999976654053
196,52,29392,2,0,B|188:72|188:72|188:136,1,76.4999976654053,8|0,0:0|0:0,0:0:0:0:
332,328,29705,1,8,3:0:0:0:
356,232,29861,1,8,3:0:0:0:
384,136,30017,1,4,3:0:0:0:
248,96,30173,6,0,P|208:104|168:92,1,76.4999976654053,4|0,0:0|0:0,0:0:0:0:
216,16,30486,1,4,0:3:0:0:
216,16,30564,1,4,0:3:0:0:
216,16,30642,1,12,0:0:0:0:
288,184,30798,1,0,0:0:0:0:
96,256,30955,2,0,L|101:179,1,76.4999976654053,12|0,0:0|0:0,0:0:0:0:
175,95,31267,1,12,0:0:0:0:
16,276,31423,6,0,L|32:104,1,152.999995330811,4|4,0:0|0:3,0:0:0:0:
80,68,31814,1,4,0:3:0:0:
80,68,31892,1,4,0:3:0:0:
204,120,32048,1,0,0:0:0:0:
160,216,32205,2,0,P|163:254|172:291,1,76.4999976654053,10|8,0:0|0:0,0:0:0:0:
256,244,32517,1,8,0:0:0:0:
204,120,32673,6,0,L|212:36,1,76.4999976654053,4|0,0:0|0:0,0:0:0:0:
328,160,32986,2,0,L|336:208,1,38.2499988327027,4|4,0:3|0:3,0:0:0:0:
400,172,33142,2,0,L|388:80,1,76.4999976654053,8|0,0:0|0:0,0:0:0:0:
145,63,33455,2,0,L|160:216,1,152.999995330811,10|8,0:0|0:0,0:0:0:0:
244,160,33923,1,0,0:0:0:0:
72,208,34080,6,0,L|80:292,1,76.4999976654053,4|0,0:0|0:0,0:0:0:0:
240,320,34392,2,8,L|232:243,1,76.4999976654053
156,80,34705,1,8,3:0:0:0:
248,120,34861,1,8,3:0:0:0:
340,80,35017,1,4,3:0:0:0:
156,80,35173,6,0,B|88:72|88:72|48:88|12:128,1,152.999995330811,4|0,0:0|0:0,0:0:0:0:
144,168,35642,2,0,P|180:204|208:216,2,76.4999976654053,8|0|2,0:0|0:0|0:0,0:0:0:0:
248,120,36111,1,0,0:0:0:0:
312,232,36267,2,0,L|304:328,1,76.4999976654053,8|0,0:0|0:0,0:0:0:0:
392,356,36580,6,0,L|398:279,1,76.4999976654053,2|0,0:0|0:0,0:0:0:0:
312,232,36892,1,8,0:0:0:0:
488,260,37048,2,0,P|460:212|496:104,1,152.999995330811,0|2,0:0|0:0,0:0:0:0:
312,232,37517,1,8,0:0:0:0:
496,96,37673,6,0,L|328:64,1,152.999995330811,4|0,0:0|0:0,0:0:0:0:
248,56,38142,1,8,0:0:0:0:
168,124,38298,1,0,0:0:0:0:
256,156,38455,2,0,P|262:119|252:80,1,76.4999976654053,2|0,0:0|0:0,0:0:0:0:
121,240,38767,2,0,L|132:316,1,76.4999976654053,8|0,0:0|0:0,0:0:0:0:
252,272,39080,5,2,0:0:0:0:
112,224,39236,1,0,0:0:0:0:
184,368,39392,1,8,0:0:0:0:
296,192,39548,1,0,0:0:0:0:
176,100,39705,2,0,B|112:112|112:112|104:124,1,76.4999976654053,8|8,3:0|3:0,3:0:0:0:
272,40,40017,1,4,3:0:0:0:
296,192,40173,6,0,B|296:264|288:312|288:312|264:268,1,152.999995330811,4|0,0:0|0:0,0:0:0:0:
112,224,40642,2,0,B|104:192|104:192|108:136,1,76.4999976654053,8|0,0:0|0:0,0:0:0:0:
176,100,40955,1,8,0:0:0:0:
296,192,41111,1,0,0:0:0:0:
196,268,41267,1,8,0:0:0:0:
316,172,41423,6,0,B|348:172|348:172|380:156|380:156|416:180|476:160,1,152.999995330811,4|0,0:0|0:0,0:0:0:0:
428,80,41892,1,8,0:0:0:0:
388,256,42048,2,0,L|395:333,2,76.4999976654053,0|8|0,0:0|0:0|0:0,0:0:0:0:
472,164,42517,1,8,0:0:0:0:
299,344,42673,6,0,P|296:268|296:192,1,152.999995330811,6|0,0:0|0:0,0:0:0:0:
120,264,43142,2,0,B|180:248|180:248|204:256,1,76.4999976654053,8|0,0:0|0:0,0:0:0:0:
164,352,43454,1,8,0:0:0:0:
296,192,43611,1,8,0:0:0:0:
416,336,43767,1,0,0:0:0:0:
296,192,43923,6,0,L|276:68,1,114.749996498108,4|0,0:0|0:0,0:0:0:0:
352,64,44236,2,0,L|396:68,3,38.2499988327027,0|0|0|0,0:0|1:0|0:0|1:0,0:0:0:0:
208,136,44548,2,0,L|160:140,4,38.2499988327027,0|0|0|0|0,1:0|1:0|1:0|1:0|1:0,0:0:0:0:
296,192,44939,1,0,1:0:0:0:
332,176,45017,1,0,1:0:0:0:
372,180,45095,1,0,1:0:0:0:
404,200,45173,1,0,1:0:0:0:
428,228,45251,1,0,1:0:0:0:
436,268,45330,5,2,0:0:0:0:
388,280,52830,5,4,0:3:0:0:
240,128,53064,1,4,0:3:0:0:
412,148,53298,1,12,0:3:0:0:
88,284,53611,1,12,0:3:0:0:
88,284,53689,1,12,0:3:0:0:
88,284,53767,6,4,P|52:272|172:192,1,344.249989494324,4|0,0:0|0:0,0:0:0:0:
188,276,54705,6,0,L|160:352,2,72.2500013780594,2|0|2,3:0|3:0|3:0,3:0:0:0:
256,192,55173,6,0,B|260:152|260:152|276:124|276:124|252:72|280:16,1,170,4|0,0:0|0:0,0:0:0:0:
368,72,55642,1,8,0:0:0:0:
180,112,55798,2,0,L|80:120,1,85,0|2,0:0|0:0,0:0:0:0:
144,20,56111,1,0,0:0:0:0:
368,72,56267,1,8,0:0:0:0:
256,192,56423,6,0,L|88:212,1,170,4|0,0:0|0:0,0:0:0:0:
356,276,56892,1,8,0:0:0:0:
244,336,57048,1,0,0:0:0:0:
256,192,57205,2,0,L|248:96,2,85,2|0|8,0:0|0:0|0:0,0:0:0:0:
400,172,57673,6,0,B|392:88|388:40|388:40|360:84,1,170,4|0,0:0|0:0,0:0:0:0:
172,173,58142,2,0,P|214:182|256:192,1,85,8|0,0:0|0:0,0:0:0:0:
400,172,58455,1,2,0:0:0:0:
403,221,58533,1,0,1:1:0:0:
377,262,58611,1,0,1:1:0:0:
334,283,58689,1,0,1:1:0:0:
288,291,58767,6,0,L|326:323,1,42.5,8|0,0:0|1:0,0:0:0:0:
500,300,58923,2,0,L|448:287,1,42.5,0|0,1:0|1:0,0:0:0:0:
400,172,59080,6,0,L|380:71,1,101.999996887207,4|0,0:0|0:0,0:0:0:0:
288,36,59314,2,0,L|274:137,1,101.999996887207,4|0,0:0|0:0,0:0:0:0:
334,283,59548,1,2,0:0:0:0:
400,172,59705,5,0,0:1:0:0:
436,156,59783,1,0,0:1:0:0:
452,128,59861,1,0,0:1:0:0:
452,96,59939,1,0,0:1:0:0:
440,64,60017,1,0,0:1:0:0:
416,40,60095,1,0,0:1:0:0:
384,28,60173,6,0,L|400:224,1,170,4|4,0:0|0:3,0:0:0:0:
248,308,60642,2,0,L|256:208,1,85,8|0,0:0|0:0,0:0:0:0:
400,172,60955,1,0,0:0:0:0:
240,200,61111,1,2,0:0:0:0:
124,96,61267,1,0,0:0:0:0:
256,11,61423,6,0,L|264:96,1,85,4|0,0:0|0:0,0:0:0:0:
391,135,61736,1,0,0:0:0:0:
391,135,61814,1,0,0:0:0:0:
391,135,61892,2,0,L|376:48,1,85
212,204,62205,2,0,P|156:200|124:188,1,85,0|2,0:0|0:0,0:0:0:0:
184,100,62517,1,8,0:0:0:0:
312,264,62673,6,0,L|424:252,1,80.7499978437424,4|0,0:0|0:0,0:0:0:0:
296,64,62986,2,0,L|252:72,1,40.3749989218712,8|8,0:0|0:0,0:0:0:0:
184,100,63142,2,0,P|136:88|92:96,1,80.7499978437424,8|0,0:0|0:0,0:0:0:0:
140,232,63455,1,4,3:0:0:0:
252,208,63611,1,4,3:0:0:0:
420,328,63767,1,4,3:0:0:0:
308,292,63923,1,0,0:0:0:0:
364,184,64080,5,2,3:0:0:0:
472,156,64236,1,0,0:0:0:0:
472,156,64314,1,0,0:0:0:0:
472,156,64392,2,0,L|484:248,1,80.7499978437424,8|0,0:0|0:0,0:0:0:0:
376,348,64705,2,0,P|368:308|368:256,2,80.7499978437424,2|0|2,3:0|3:0|3:0,0:0:0:0:
264,168,65173,6,0,B|220:176|220:176|180:164|180:164|140:192|60:160,1,170,4|0,0:0|0:0,0:0:0:0:
236,64,65642,2,0,B|268:60|268:60|324:72,1,85,8|0,0:0|0:0,0:0:0:0:
256,180,65955,1,2,2:0:0:0:
136,72,66111,1,0,0:0:0:0:
332,80,66267,1,8,0:0:0:0:
192,328,66423,6,0,L|216:120,1,170,4|0,0:0|0:0,0:0:0:0:
332,200,66892,2,0,L|320:308,1,85,8|0,0:0|0:0,0:0:0:0:
200,144,67205,1,2,2:0:0:0:
272,72,67361,1,0,0:0:0:0:
168,128,67517,1,8,0:0:0:0:
296,92,67673,6,0,P|348:104|420:16,1,170,4|0,0:0|0:0,0:0:0:0:
440,160,68142,2,0,B|436:188|436:188|448:248,1,85,8|0,0:0|0:0,0:0:0:0:
352,348,68455,1,0,1:0:0:0:
336,308,68533,1,0,1:0:0:0:
324,268,68611,1,0,1:0:0:0:
312,228,68689,1,2,0:0:0:0:
300,192,68767,6,0,L|244:184,1,42.5,8|0,0:0|1:0,0:0:0:0:
176,268,68923,2,0,L|228:264,1,42.5,0|0,1:0|1:0,0:0:0:0:
120,196,69080,6,0,P|80:212|12:184,1,101.999996887207,4|0,0:0|0:0,0:0:0:0:
72,128,69314,2,0,B|108:92|108:92|164:76,1,101.999996887207,4|0,0:0|0:0,0:0:0:0:
212,136,69548,1,4,0:0:0:0:
292,36,69705,5,0,1:0:0:0:
312,64,69783,1,0,3:0:0:0:
344,80,69861,1,0,3:0:0:0:
376,88,69939,1,0,3:0:0:0:
408,88,70017,1,0,3:0:0:0:
440,72,70095,1,0,3:0:0:0:
468,52,70173,6,0,L|488:224,1,170,4|0,0:0|0:0,0:0:0:0:
367,350,70642,2,0,P|376:309|368:268,1,85,8|0,0:0|0:0,0:0:0:0:
280,304,70955,1,2,2:0:0:0:
456,260,71111,1,0,0:0:0:0:
296,124,71267,1,8,0:0:0:0:
296,124,71423,6,0,L|285:39,1,85,4|0,0:0|0:0,0:0:0:0:
388,88,71736,1,0,0:0:0:0:
200,148,71892,2,0,P|152:156|116:144,2,85,8|0|2,0:0|0:0|2:0,0:0:0:0:
164,56,72361,1,0,0:0:0:0:
184,248,72517,1,8,0:0:0:0:
296,124,72673,6,0,P|336:112|377:121,1,85,0|0,0:0|0:0,0:0:0:0:
496,224,72986,1,2,3:0:0:0:
496,224,73064,1,0,0:0:0:0:
496,224,73142,2,0,L|408:220,1,85,8|2,0:0|3:0,0:0:0:0:
476,128,73455,1,8,0:0:0:0:
412,304,73611,1,2,3:0:0:0:
440,104,73767,1,8,0:0:0:0:
296,124,73923,5,4,3:0:0:0:
412,220,74080,1,14,3:0:0:0:
392,228,75173,6,0,B|348:220|348:220|320:232|320:232|284:216|220:244,1,152.999995330811,4|0,0:0|0:0,0:0:0:0:
288,324,75642,1,8,0:0:0:0:
280,152,75798,1,0,0:0:0:0:
288,324,75955,2,0,P|324:336|372:328,1,76.4999976654053,8|8,0:3|0:3,0:0:0:0:
474,216,76267,2,0,P|436:212|400:224,1,76.4999976654053,8|0,0:0|0:0,0:0:0:0:
444,304,76580,5,0,0:0:0:0:
448,136,76736,1,0,0:0:0:0:
308,208,76892,1,8,0:0:0:0:
440,128,77048,2,0,L|432:40,1,76.4999976654053,0|8,0:0|0:3,0:0:0:0:
352,8,77361,1,8,0:3:0:0:
508,72,77517,1,8,0:0:0:0:
352,8,77673,6,0,L|368:172,1,152.999995330811,4|0,0:0|0:0,0:0:0:0:
160,156,78142,2,0,P|160:116|164:76,1,76.4999976654053,8|0,0:0|0:0,0:0:0:0:
308,208,78455,2,0,P|264:228|232:244,1,76.4999976654053,8|8,0:3|0:3,0:0:0:0:
56,136,78767,1,8,0:0:0:0:
160,156,78923,1,4,0:3:0:0:
84,320,79080,6,0,B|78:280|78:280|86:244,1,76.4999976654053,4|0,0:0|0:0,0:0:0:0:
208,280,79392,1,8,0:0:0:0:
88,344,79548,1,0,0:0:0:0:
160,156,79705,2,0,L|172:72,2,76.4999976654053,8|8|8,0:3|0:3|0:0,0:0:0:0:
308,208,80173,6,0,P|300:72|296:20,1,152.999995330811,4|0,0:0|0:0,0:0:0:0:
408,136,80642,1,12,0:0:0:0:
208,280,80798,2,0,L|196:176,1,76.4999976654053,0|8,0:0|0:3,0:0:0:0:
308,208,81111,1,8,0:3:0:0:
104,256,81267,1,8,0:0:0:0:
188,100,81423,1,0,0:0:0:0:
296,244,81580,5,8,3:0:0:0:
116,288,81736,1,8,3:0:0:0:
60,152,81892,2,0,L|70:76,1,76.4999976654053,8|0,0:0|0:0,0:0:0:0:
280,84,82205,2,0,P|328:76|368:92,1,76.4999976654053,8|8,0:3|0:3,0:0:0:0:
316,168,82517,1,8,0:0:0:0:
196,232,82673,6,0,B|188:188|188:188|192:160|192:160|176:120|184:56,1,152.999995330811,4|0,0:0|0:0,0:0:0:0:
108,28,83142,2,0,L|24:36,1,76.4999976654053,8|8,3:3|3:0,3:0:0:0:
280,84,83455,2,0,L|364:92,1,76.4999976654053,8|8,3:0|3:0,3:0:0:0:
304,184,83767,1,8,0:0:0:0:
328,4,83923,1,0,0:0:0:0:
436,148,84080,6,0,P|436:184|432:232,1,76.4999976654053,12|0,0:0|0:0,0:0:0:0:
368,256,84314,2,0,L|368:340,1,76.4999976654053,10|0,0:0|0:0,0:0:0:0:
292,312,84548,2,0,B|292:272|292:272|240:264|224:220,1,114.749996498108,10|0,0:0|0:0,0:0:0:0:
304,184,84861,1,8,3:0:0:0:
304,184,84939,1,8,3:0:0:0:
304,184,85017,1,8,3:0:0:0:
432,312,85173,1,4,3:0:0:0:
196,320,85330,5,2,0:0:0:0:
176,88,95330,6,0,L|188:216,1,127.500004863739,2|0,0:0|0:0,0:0:0:0:
264,168,95798,1,0,0:0:0:0:
108,136,95955,2,0,L|116:212,1,63.7500024318696,8|0,3:0|0:0,0:0:0:0:
240,276,96267,2,0,P|280:280|312:272,1,63.7500024318696,8|0,3:0|0:0,0:0:0:0:
372,220,96580,6,0,B|408:204|408:204|444:232|500:212,1,127.500004863739,8|0,3:0|0:0,0:0:0:0:
460,132,97048,1,0,0:0:0:0:
416,288,97205,2,0,L|424:356,2,63.7500024318696,8|0|0,0:0|0:0|0:0,0:0:0:0:
332,312,97673,1,0,0:0:0:0:
480,240,97830,6,0,P|500:188|468:112,1,127.500004863739,2|2,0:0|0:0,0:0:0:0:
400,84,98298,1,0,0:0:0:0:
356,176,98455,2,0,L|440:180,1,63.7500024318696,8|0,3:0|0:0,0:0:0:0:
280,236,98767,2,0,L|216:232,1,63.7500024318696,8|0,3:0|0:0,0:0:0:0:
148,176,99080,6,0,B|140:140|140:140|148:108|148:108|136:80|144:24,1,127.500004863739,8|0,3:0|0:0,0:0:0:0:
224,72,99548,1,0,0:0:0:0:
72,100,99705,2,0,P|40:104|4:96,1,63.7500024318696,8|0,0:0|0:0,0:0:0:0:
148,176,100017,1,0,0:0:0:0:
256,208,100173,1,0,0:0:0:0:
140,184,100330,6,0,L|148:320,2,127.500004863739,0|0|8,0:0|0:0|3:0,0:0:0:0:
72,100,101111,1,0,0:0:0:0:
224,128,101267,2,0,P|264:132|304:120,1,63.7500024318696,8|0,3:0|0:0,0:0:0:0:
420,52,101580,6,0,P|388:46|357:51,1,63.7500024318696,8|0,3:0|0:0,0:0:0:0:
392,140,101892,1,0,0:0:0:0:
500,96,102048,1,0,0:0:0:0:
384,148,102205,2,0,L|396:304,1,127.500004863739,8|0,0:0|0:0,0:0:0:0:
296,232,102673,1,0,0:0:0:0:
464,180,102830,6,0,L|472:264,1,63.7500024318696,8|0,0:0|0:0,0:0:0:0:
384,296,103142,1,4,0:3:0:0:
384,296,103298,2,0,L|372:364,2,63.7500024318696,4|8|4,3:0|0:0|3:0,0:0:0:0:
356,168,103767,1,8,0:0:0:0:
476,192,103923,5,4,3:0:0:0:
404,296,104080,1,8,0:0:0:0:
272,220,104236,1,4,3:0:0:0:
392,196,104392,1,8,0:0:0:0:
300,320,104548,1,4,3:0:0:0:
320,148,104705,5,8,0:0:0:0:
200,280,104861,1,10,3:0:0:0:
192,288,105330,6,0,L|176:160,1,127.500004863739,4|0,0:0|0:0,0:0:0:0:
244,100,105798,2,0,P|248:64|240:28,1,63.7500024318696,4|0,0:0|0:0,0:0:0:0:
160,68,106111,1,0,0:0:0:0:
328,60,106267,2,0,B|380:52|380:52|404:84|464:76,1,127.500004863739,4|0,2:0|0:0,0:0:0:0:
508,148,106736,5,0,0:0:0:0:
508,148,106814,1,0,0:0:0:0:
508,148,106892,2,0,L|492:296,1,127.500004863739,8|8,0:0|3:0,0:0:0:0:
488,292,107517,1,2,3:0:0:0:
324,232,107673,5,8,3:0:0:0:
428,152,107830,2,0,L|408:300,1,127.500004863739,4|0,0:0|0:0,0:0:0:0:
332,316,108298,2,0,P|288:324|256:316,1,63.7500024318696,4|0,0:0|0:0,0:0:0:0:
324,232,108611,1,0,0:0:0:0:
204,256,108767,2,0,B|156:240|156:240|112:252|76:280,1,127.500004863739,4|0,2:0|0:0,0:0:0:0:
220,172,109236,6,0,B|228:144|228:144|228:92,1,63.7500024318696,2|8,3:0|0:0,0:0:0:0:
184,32,109548,1,0,0:0:0:0:
128,144,109705,2,0,L|43:151,2,85.0000032424928,8|8|8,3:0|3:0|3:0,3:0:0:0:
204,256,110330,6,0,P|252:268|340:216,1,127.500004863739,6|0,0:0|0:0,0:0:0:0:
420,304,110798,2,0,L|440:156,1,127.500004863739,6|0,0:0|0:0,0:0:0:0:
372,36,111267,2,0,P|340:72|356:164,1,127.500004863739,6|0,0:0|0:0,0:0:0:0:
256,224,111736,5,0,0:0:0:0:
256,224,111814,1,0,0:0:0:0:
256,224,111892,2,0,L|116:212,1,127.500004863739,8|8,0:0|0:0,0:0:0:0:
200,120,112361,1,0,0:0:0:0:
224,304,112517,2,0,B|228:324|228:324|224:368,1,63.7500024318696,8|0,0:0|0:0,0:0:0:0:
129,213,112830,6,0,B|121:177|121:177|129:153|129:153|113:109|133:61,1,127.500004863739,4|0,0:0|0:0,0:0:0:0:
224,36,113298,2,0,L|312:48,1,63.7500024318696,4|0,0:0|0:0,0:0:0:0:
240,140,113611,1,0,0:0:0:0:
120,80,113767,2,0,P|72:84|12:24,1,127.500004863739,4|4,2:0|3:0,0:0:0:0:
224,36,114236,5,4,0:3:0:0:
240,140,114392,2,0,L|228:224,1,63.7500024318696,8|8,0:0|3:0,0:0:0:0:
356,300,114705,2,0,L|344:216,1,63.7500024318696,8|8,0:3|3:0,0:0:0:0:
264,308,115017,1,8,0:0:0:0:
432,236,115173,1,8,3:0:0:0:
320,132,115330,1,4,3:0:0:0:
256,192,125330,12,0,126892,0:0:0:0:
300,232,127205,6,0,L|228:224,1,72.2500013780594,2|0,0:3|0:3,0:0:0:0:
164,296,127517,1,2,0:3:0:0:
384,344,127673,6,0,B|388:308|388:308|380:272|380:272|400:228|372:168,1,170,4|0,0:0|0:0,0:0:0:0:
216,88,128142,2,0,P|247:117|286:129,1,85,8|0,0:0|0:0,0:0:0:0:
296,40,128455,1,2,0:0:0:0:
128,148,128611,2,0,L|140:244,1,85,0|8,0:0|0:0,0:0:0:0:
48,376,128923,6,0,L|24:180,1,170,4|0,0:0|0:0,0:0:0:0:
208,256,129392,2,0,P|184:212|232:112,1,170,8|2,0:0|0:0,0:0:0:0:
272,192,129861,1,0,0:0:0:0:
148,76,130017,1,8,0:0:0:0:
328,124,130173,6,0,L|500:164,1,170,4|0,0:0|0:0,0:0:0:0:
416,252,130642,2,0,B|408:280|408:280|412:344,1,85,8|0,0:0|0:0,0:0:0:0:
504,300,130955,1,4,0:3:0:0:
328,228,131111,1,4,0:3:0:0:
328,228,131189,1,4,0:3:0:0:
328,228,131267,1,8,0:3:0:0:
416,352,131423,1,8,0:3:0:0:
476,152,131580,6,0,L|372:128,1,101.999996887207,4|0,0:0|0:0,0:0:0:0:
352,40,131814,2,0,P|312:70|263:65,1,101.999996887207,4|0,0:0|0:0,0:0:0:0:
192,28,132048,1,4,0:0:0:0:
108,120,132205,1,0,1:0:0:0:
108,120,132283,1,0,1:0:0:0:
108,120,132361,1,0,1:0:0:0:
108,120,132439,1,0,1:0:0:0:
108,120,132517,1,0,1:0:0:0:
108,120,132595,1,0,1:0:0:0:
108,120,132673,6,0,L|112:240,1,85,4|0,0:0|0:0,0:0:0:0:
208,168,132986,1,0,0:0:0:0:
288,288,133142,1,8,0:0:0:0:
120,312,133298,1,0,0:0:0:0:
120,312,133455,2,0,P|78:319|37:311,2,85,2|0|8,0:0|0:0|0:0,0:0:0:0:
224,344,133923,6,0,L|324:352,1,85,4|0,0:0|0:0,0:0:0:0:
352,248,134236,1,4,0:3:0:0:
352,248,134314,1,4,0:3:0:0:
352,248,134392,2,0,P|408:260|448:248,2,85,8|0|2,0:0|0:0|0:0,0:0:0:0:
400,156,134861,1,0,0:0:0:0:
408,336,135017,1,8,0:0:0:0:
248,228,135173,5,4,0:0:0:0:
392,148,135330,1,0,0:0:0:0:
340,264,135486,1,4,0:3:0:0:
340,264,135564,1,4,0:3:0:0:
340,264,135642,1,8,0:0:0:0:
244,132,135798,1,0,0:0:0:0:
392,148,135955,2,0,P|440:156|488:144,1,85,2|0,0:0|0:0,0:0:0:0:
432,56,136267,1,8,0:0:0:0:
316,184,136423,5,0,0:0:0:0:
432,56,136580,2,0,P|390:49|348:57,1,85
244,132,136892,2,0,L|148:120,1,85,8|0,0:0|0:0,0:0:0:0:
64,56,137205,1,4,0:3:0:0:
152,128,137361,1,8,0:3:0:0:
48,236,137517,1,8,0:3:0:0:
152,128,137673,6,0,P|152:72|248:16,1,170,4|0,0:0|0:0,0:0:0:0:
296,164,138142,2,0,L|232:100,1,85,8|0,0:0|0:0,0:0:0:0:
352,68,138455,1,2,0:0:0:0:
424,140,138611,2,0,P|464:152|512:140,1,85,0|8,0:0|0:0,0:0:0:0:
296,164,138923,6,0,B|288:204|288:204|296:240|296:240|280:280|296:340,1,170,4|0,0:0|0:0,0:0:0:0:
400,288,139392,1,8,0:0:0:0:
200,256,139548,1,0,0:0:0:0:
400,288,139705,2,0,P|404:240|396:200,2,85,2|0|8,0:0|0:0|0:0,0:0:0:0:
224,344,140173,6,0,P|176:344|112:248,1,170,4|0,0:0|0:0,0:0:0:0:
184,144,140642,2,0,L|272:136,1,85,8|0,0:0|0:0,0:0:0:0:
124,60,140955,2,0,L|39:52,1,85,8|4,0:3|0:3,0:0:0:0:
232,28,141267,1,8,0:3:0:0:
280,144,141423,1,4,0:3:0:0:
152,320,141580,6,0,L|156:204,1,101.999996887207,4|0,0:0|0:0,0:0:0:0:
264,244,141814,2,0,L|224:128,1,101.999996887207,4|0,0:0|0:0,0:0:0:0:
348,212,142048,1,4,0:0:0:0:
488,92,142205,5,0,1:0:0:0:
452,72,142283,1,0,1:0:0:0:
408,76,142361,1,0,1:0:0:0:
380,108,142439,1,0,1:0:0:0:
388,148,142517,1,0,1:0:0:0:
420,176,142595,1,0,1:0:0:0:
452,200,142673,6,0,L|348:192,1,85,4|0,0:0|0:0,0:0:0:0:
264,244,142986,1,0,0:0:0:0:
328,104,143142,2,0,P|336:60|324:16,1,85,8|0,0:0|0:0,0:0:0:0:
236,68,143455,1,2,0:0:0:0:
424,56,143611,1,0,0:0:0:0:
236,84,143767,1,8,0:0:0:0:
424,76,143923,6,0,L|408:268,1,170,4|4,0:0|0:3,0:0:0:0:
336,308,144392,1,8,0:0:0:0:
304,180,144548,1,8,0:3:0:0:
500,176,144705,1,0,0:0:0:0:
408,252,144861,1,4,0:3:0:0:
296,168,145017,2,0,L|288:80,1,85,8|8,0:0|0:3,0:0:0:0:
492,296,145330,5,14,0:3:0:0:
468,320,147673,6,0,L|448:140,1,170,4|0,0:0|0:0,0:0:0:0:
352,120,148142,2,0,P|340:72|352:24,1,85,8|0,0:0|0:0,0:0:0:0:
428,72,148455,1,8,0:0:0:0:
288,172,148611,1,0,0:0:0:0:
136,124,148767,1,8,0:0:0:0:
244,64,148923,6,0,P|252:168|260:268,1,170,4|0,0:0|0:0,0:0:0:0:
272,308,149314,1,0,0:0:0:0:
272,308,149392,2,0,P|320:304|372:304,1,85,8|0,0:0|0:0,0:0:0:0:
160,216,149705,2,0,P|108:208|60:200,1,85,8|0,0:0|0:0,0:0:0:0:
108,292,150017,1,8,0:0:0:0:
272,308,150173,6,0,B|276:260|276:260|264:224|264:224|280:184|260:108,1,170,4|0,0:0|0:0,0:0:0:0:
352,80,150642,2,0,L|456:88,1,85,8|0,0:0|0:0,0:0:0:0:
264,32,150955,2,0,L|179:25,1,85,8|0,0:0|0:0,0:0:0:0:
96,104,151267,1,8,0:0:0:0:
200,287,151423,6,0,P|235:213|207:135,1,170,4|0,0:0|0:0,0:0:0:0:
48,200,151892,2,0,L|132:207,1,85,8|0,0:0|0:0,0:0:0:0:
316,176,152205,1,8,0:0:0:0:
200,124,152361,1,0,0:0:0:0:
216,276,152517,1,8,0:0:0:0:
324,192,152673,6,0,L|308:16,1,170,4|0,0:0|0:0,0:0:0:0:
424,72,153142,2,0,L|432:176,1,85,8|0,0:0|0:0,0:0:0:0:
240,84,153455,1,8,0:0:0:0:
192,172,153611,1,0,0:0:0:0:
132,96,153767,1,8,0:0:0:0:
412,176,153923,6,0,B|400:212|400:212|412:248|412:248|392:296|424:356,1,170,4|0,0:0|0:0,0:0:0:0:
500,288,154392,1,8,0:0:0:0:
316,224,154548,2,0,L|208:216,1,85,0|8,0:0|0:0,0:0:0:0:
248,316,154861,1,0,0:0:0:0:
296,128,155017,1,8,0:0:0:0:
96,192,155173,5,4,0:0:0:0:
96,192,157673,6,0,L|112:24,1,152.999995330811,4|0,0:0|0:0,0:0:0:0:
16,88,158142,1,14,0:0:0:0:
204,116,158298,2,0,P|252:124|300:112,1,76.4999976654053,0|8,0:0|0:3,0:0:0:0:
248,24,158611,1,8,0:3:0:0:
96,192,158767,2,0,L|4:184,1,76.4999976654053,8|0,0:0|0:0,0:0:0:0:
176,292,159080,6,0,L|264:288,2,76.4999976654053,0|0|8,0:0|0:0|0:0,0:0:0:0:
212,192,159548,1,0,0:0:0:0:
252,372,159705,1,8,0:3:0:0:
84,288,159861,1,8,0:3:0:0:
304,216,160017,1,8,0:0:0:0:
164,276,160173,6,0,B|168:236|168:236|152:204|152:204|164:164|152:104,1,152.999995330811,4|4,0:0|0:3,0:0:0:0:
96,80,160564,1,4,0:3:0:0:
96,80,160642,1,14,0:0:0:0:
252,180,160798,2,0,L|340:172,1,76.4999976654053,0|8,0:0|0:3,0:0:0:0:
288,80,161111,1,8,0:3:0:0:
114,7,161267,2,0,B|102:31|102:31|94:95,1,76.4999976654053,8|0,0:0|0:0,0:0:0:0:
252,180,161580,5,2,0:3:0:0:
48,196,161736,1,0,0:0:0:0:
136,304,161892,2,0,L|148:204,1,76.4999976654053,8|0,0:0|0:0,0:0:0:0:
252,180,162205,2,0,P|258:142|250:105,1,76.4999976654053,2|0,0:0|0:0,0:0:0:0:
168,148,162517,1,8,0:0:0:0:
400,116,162673,6,0,L|388:280,1,152.999995330811,4|0,0:0|0:0,0:0:0:0:
272,356,163142,2,0,L|280:256,1,76.4999976654053,8|0,0:0|0:0,0:0:0:0:
208,192,163455,2,0,P|196:148|204:100,1,76.4999976654053,8|8,0:3|0:3,0:0:0:0:
292,148,163767,1,8,0:0:0:0:
108,208,163923,1,0,0:0:0:0:
296,128,164080,6,0,L|392:116,2,76.4999976654053,8|8|8,0:3|0:3|0:0,0:0:0:0:
320,20,164548,1,0,0:0:0:0:
420,196,164705,2,0,P|424:240|416:280,1,76.4999976654053,2|0,0:0|0:0,0:0:0:0:
324,228,165017,1,8,0:0:0:0:
149,133,165173,6,0,B|181:121|181:121|221:133|221:133|261:117|301:129,1,152.999995330811,4|0,0:0|0:0,0:0:0:0:
196,256,165642,2,0,B|156:264|156:264|112:256,1,76.4999976654053,8|8,0:0|0:3,0:0:0:0:
280,324,165955,2,0,B|320:316|320:316|364:324,1,76.4999976654053,8|8,0:3|0:3,0:0:0:0:
188,360,166267,1,8,0:0:0:0:
248,192,166423,5,4,0:3:0:0:
248,192,166501,1,4,0:3:0:0:
248,192,166580,1,8,0:3:0:0:
416,360,166814,1,8,0:3:0:0:
176,348,167048,1,8,0:3:0:0:
160,332,167361,2,0,L|136:300,2,38.2499988327027,4|4|4,3:3|3:3|3:3,0:0:0:0:
308,252,167673,1,8,0:3:0:0:
104,172,167830,1,4,0:0:0:0:
256,192,167986,12,0,171033,0:0:0:0:
