osu file format v14

[General]
AudioFilename: raspberrymp3.mp3
AudioLeadIn: 500
PreviewTime: 54548
Countdown: 0
SampleSet: Soft
StackLeniency: 0.7
Mode: 0
LetterboxInBreaks: 0
WidescreenStoryboard: 0

[Editor]
DistanceSpacing: 1.4
BeatDivisor: 4
GridSize: 4
TimelineZoom: 1.2

[Metadata]
Title:Raspberry*Monster
TitleUnicode:ラズベリー*モンスター
Artist:Hanatan
ArtistUnicode:花たん
Creator:kakifly
Version:Hard
Source:
Tags:flowersbest honeyworks vocaloid yurica utaite gom shito kaizokuou akiakane hatsune miku razuberi monsuta
BeatmapID:602709
BeatmapSetID:260539

[Difficulty]
HPDrainRate:5
CircleSize:4
OverallDifficulty:6
ApproachRate:8
SliderMultiplier:1.3
SliderTickRate:1

[Events]
//Background and Video events
Video,18,"raspvideo.flv"
0,0,"rmBG.png",0,0
//Break Periods
2,45530,52080
2,85530,94580
2,115530,124580
2,145530,146923
2,155373,156923
//Storyboard Layer 0 (Background)
//Storyboard Layer 1 (Fail)
//Storyboard Layer 2 (Pass)
//Storyboard Layer 3 (Foreground)
//Storyboard Sound Samples

[TimingPoints]
330,312.5,4,2,1,30,1,0
1501,-133.333333333333,4,2,1,40,0,0
6110,-133.333333333333,4,2,1,45,0,0
6267,-100,4,2,1,45,0,0
6423,-100,4,2,1,60,0,0
6580,-100,4,2,1,60,0,0
12673,-100,4,2,1,70,0,0
22673,-100,4,2,1,60,0,0
22830,-133.333333333333,4,2,1,40,0,0
25173,-105.263157894737,4,2,1,60,0,0
44235,-105.263157894737,4,2,1,45,0,0
54704,-105.263157894737,4,2,1,40,0,0
54861,-105.263157894737,4,2,1,40,0,0
55173,-100,4,2,1,80,0,1
62673,-105.263157894737,4,2,1,80,0,1
63454,-105.263157894737,4,2,1,60,0,1
63844,-105.263157894737,4,2,1,80,0,1
64705,-105.263157894737,4,2,1,50,0,0
65173,-100,4,2,1,80,0,1
74080,-105.263157894737,4,2,1,80,0,0
75173,-105.263157894737,4,2,1,60,0,0
84548,-105.263157894737,4,2,1,60,0,0
84860,-105.263157894737,4,2,1,60,0,0
85329,-105.263157894737,4,2,1,55,0,0
95330,-133.333333333333,4,2,1,50,0,0
103298,-133.333333333333,4,2,1,30,0,0
103766,-133.333333333333,4,2,1,40,0,0
104079,-133.333333333333,4,2,1,55,0,0
104391,-133.333333333333,4,2,1,65,0,0
104704,-133.333333333333,4,2,1,70,0,0
105330,-100,4,2,1,60,0,0
115329,-100,4,2,1,55,0,0
127673,-100,4,2,1,80,0,1
137205,-100,4,2,1,80,0,0
137673,-100,4,2,1,80,0,1
145330,-100,4,2,1,60,0,0
147673,-100,4,2,1,80,0,1
155173,-105.263157894737,4,2,1,85,0,0
157673,-105.263157894737,4,2,1,60,0,0
161580,-100,4,2,1,60,0,0
168610,-100,4,2,1,40,0,0
168923,-100,4,2,1,25,0,0
169080,-105.263157894737,4,2,1,25,0,0
169391,-105.263157894737,4,2,1,15,0,0
169704,-105.263157894737,4,2,1,10,0,0
170173,-105.263157894737,4,2,1,5,0,0

[Colours]
Combo1 : 255,218,106
Combo2 : 100,247,64
Combo3 : 241,78,135
Combo4 : 88,248,180

[HitObjects]
420,116,1580,5,0,3:3:0:0:
408,132,1892,1,0,3:3:0:0:
396,148,2205,1,0,3:3:0:0:
260,148,2517,1,0,0:0:0:0:
304,216,2673,6,0,L|312:272,2,48.750001859665,4|4|4,0:3|0:3|0:3,0:0:0:0:
260,148,3142,1,2,0:0:0:0:
192,192,3298,2,0,P|164:196|140:196,1,48.750001859665,0|0,0:0|0:0,0:0:0:0:
80,124,3611,2,0,P|108:120|136:124,1,48.750001859665,0|2,0:0|0:0,0:0:0:0:
68,204,3923,6,0,L|12:196,2,48.750001859665,4|4|4,0:3|0:3|0:3,0:0:0:0:
116,272,4392,2,0,L|124:336,1,48.750001859665,2|0,0:0|0:0,0:0:0:0:
200,364,4705,2,0,L|188:252,1,97.50000371933,0|2,0:0|0:0,0:0:0:0:
192,192,5173,6,0,L|240:184,1,48.750001859665,4|4,0:3|0:3,0:0:0:0:
308,216,5486,2,0,P|336:220|372:216,2,48.750001859665,4|2|0,0:3|0:0|0:0,0:0:0:0:
296,140,5955,2,0,L|352:116,2,48.750001859665,0|2|2,0:0|0:0|3:0,0:0:0:0:
308,216,6423,1,0,0:0:0:0:
192,192,6580,5,12,0:3:0:0:
308,216,6736,2,0,B|312:252|312:252|308:272|308:272|320:300|312:344,1,130,4|0,0:0|0:0,0:0:0:0:
240,312,7205,1,4,0:3:0:0:
384,272,7361,1,8,0:3:0:0:
384,272,7673,6,0,L|460:280,1,65,8|0,0:0|0:0,0:0:0:0:
420,192,7986,1,4,3:0:0:0:
308,216,8142,2,0,L|243:222,1,65,2|0,0:0|0:0,0:0:0:0:
168,260,8455,2,0,P|136:268|100:264,2,65,0|0|2,0:0|0:3|0:0,0:0:0:0:
124,188,8923,6,0,L|116:120,1,65,8|2,0:3|0:0,0:0:0:0:
180,72,9236,2,0,P|184:40|172:0,1,65,4|0,0:3|0:3,0:0:0:0:
224,140,9548,2,0,P|260:100|344:108,1,130,0|0,0:0|0:0,0:0:0:0:
400,148,10017,1,2,0:0:0:0:
336,212,10173,6,0,P|336:248|344:284,1,65,8|4,0:3|0:3,0:0:0:0:
416,240,10486,1,4,0:3:0:0:
264,264,10642,2,0,L|200:272,1,65,2|0,0:0|0:0,0:0:0:0:
120,304,10955,2,0,P|80:312|48:308,2,65,2|2|2,0:0|0:0|0:0,0:0:0:0:
84,228,11423,1,8,0:3:0:0:
200,272,11580,5,4,0:3:0:0:
84,228,11736,2,0,L|92:96,1,130,4|4,0:0|0:3,0:0:0:0:
8,120,12205,1,10,0:3:0:0:
168,164,12361,1,6,0:3:0:0:
168,164,12673,6,0,B|204:152|204:152|232:160|232:160|264:148|316:168,1,130,4|8,0:0|0:0,0:0:0:0:
360,216,13142,2,0,L|428:224,1,65,14|0,0:0|0:0,0:0:0:0:
400,148,13455,1,8,0:3:0:0:
288,248,13611,2,0,L|216:236,2,65,8|8|0,0:3|0:0|0:0,0:0:0:0:
348,308,14080,6,0,P|396:332|472:304,1,130,0|10,0:0|0:0,0:0:0:0:
412,248,14548,1,0,0:0:0:0:
412,248,14705,2,0,L|420:164,1,65,8|8,0:3|0:3,0:0:0:0:
452,104,15017,1,8,0:0:0:0:
348,16,15173,6,0,L|336:152,1,130,4|8,0:0|0:0,0:0:0:0:
252,136,15642,2,0,L|260:52,1,65,14|0,0:0|0:0,0:0:0:0:
188,24,15955,1,8,0:3:0:0:
112,64,16111,2,0,P|72:64|44:60,2,65,8|8|0,0:3|0:0|0:0,0:0:0:0:
148,152,16580,6,0,B|84:148|84:148|48:168|28:200,1,130,2|10,0:3|0:0,0:0:0:0:
108,232,17048,1,0,0:0:0:0:
204,208,17205,2,0,L|272:212,1,65,2|0,0:0|0:0,0:0:0:0:
168,296,17517,1,8,0:0:0:0:
148,152,17673,6,0,B|180:128|180:128|272:132,1,130,6|8,0:0|0:0,0:0:0:0:
412,176,18142,2,0,P|372:180|336:172,1,65,14|0,0:0|0:0,0:0:0:0:
376,96,18455,1,8,0:3:0:0:
468,116,18611,2,0,L|508:176,2,65,8|8|0,0:3|0:0|0:0,0:0:0:0:
376,96,19080,6,0,P|372:60|380:28,1,65,2|8,0:0|0:0,0:0:0:0:
296,108,19392,2,0,L|224:112,1,65,8|0,0:0|0:0,0:0:0:0:
188,40,19705,1,8,0:3:0:0:
148,144,19861,2,0,B|116:152|116:152|76:144,1,65,8|8,0:3|0:0,0:0:0:0:
12,236,20173,6,0,B|64:228|64:228|100:232|148:264,1,130,6|0,0:0|0:0,0:0:0:0:
88,380,20642,2,0,L|68:308,1,65,10|0,0:0|0:0,0:0:0:0:
204,292,20955,2,0,P|180:320|152:332,1,65,10|4,0:0|0:3,0:0:0:0:
12,236,21267,2,0,L|24:160,1,65,10|0,0:0|0:0,0:0:0:0:
96,128,21580,6,0,P|112:92|96:20,2,97.5,8|8|4,0:3|0:3|0:3,0:0:0:0:
158,246,22361,2,0,L|214:302,2,65,4|8|4,3:0|3:0|3:0,0:0:0:0:
228,200,22830,6,0,P|272:212|336:192,1,97.50000371933,10|4,3:2|3:0,0:0:0:0:
456,112,23455,2,0,P|412:100|348:120,1,97.50000371933,8|4,3:0|3:0,0:0:0:0:
412,216,24080,6,0,L|420:276,1,48.750001859665,8|0,3:0|0:0,0:0:0:0:
324,332,24392,2,0,L|332:272,1,48.750001859665,4|0,3:0|0:0,0:0:0:0:
256,228,24705,2,0,B|232:232|232:232|232:232|208:224|208:224|188:232|152:228,1,97.50000371933,8|4,3:0|3:0,0:0:0:0:
120,312,25173,6,0,P|64:324|4:284,1,123.499996702194,6|12,0:0|0:3,0:0:0:0:
76,236,25642,2,0,L|85:171,1,61.7499983510972,8|0,0:0|0:0,0:0:0:0:
148,116,25955,2,0,B|188:128|188:128|212:120|212:120|236:128|284:112,1,123.499996702194,2|8,0:0|0:0,0:0:0:0:
236,36,26423,1,0,0:0:0:0:
288,128,26580,6,0,L|356:136,1,61.7499983510972,0|0,0:0|0:0,0:0:0:0:
376,216,26892,1,8,0:0:0:0:
292,236,27048,2,0,P|268:272|296:356,1,123.499996702194,0|0,0:0|0:0,0:0:0:0:
364,380,27517,1,8,0:0:0:0:
408,304,27673,6,0,B|464:292|464:292|488:268|496:208,1,123.499996702194,6|0,0:0|0:0,0:0:0:0:
444,160,28142,2,0,P|436:128|448:88,1,61.7499983510972,8|0,0:0|0:0,0:0:0:0:
512,124,28455,1,2,0:0:0:0:
292,236,28767,1,8,0:0:0:0:
292,236,29080,6,0,L|280:172,1,61.7499983510972,0|0,0:0|0:0,0:0:0:0:
240,100,29392,2,0,P|241:69|233:39,2,61.7499983510972,8|0|8,0:0|0:0|3:0,0:0:0:0:
168,148,29861,1,8,3:0:0:0:
96,192,30017,1,4,3:0:0:0:
132,272,30173,6,0,P|88:280|20:236,1,123.499996702194,4|4,0:0|0:3,0:0:0:0:
96,192,30642,2,0,L|92:120,1,61.7499983510972,12|0,0:0|0:0,0:0:0:0:
48,56,30955,1,12,0:0:0:0:
136,56,31111,2,0,P|176:52|220:64,1,61.7499983510972,0|12,0:0|0:0,0:0:0:0:
280,40,31423,6,0,P|332:56|392:24,1,123.499996702194,4|4,0:0|0:3,0:0:0:0:
412,120,31892,2,0,B|408:164|408:164|416:188|416:188|408:220|420:260,1,123.499996702194,4|10,0:3|0:0,0:0:0:0:
488,216,32361,1,8,0:0:0:0:
344,200,32517,1,8,0:0:0:0:
488,216,32673,6,0,L|480:356,1,123.499996702194,4|4,0:0|0:3,0:0:0:0:
408,328,33142,2,0,L|416:252,1,61.7499983510972,8|0,0:0|0:0,0:0:0:0:
344,200,33455,2,0,P|348:168|364:132,1,61.7499983510972,10|0,0:0|0:0,0:0:0:0:
304,264,33767,1,8,0:0:0:0:
304,264,33923,6,0,P|244:272|188:224,1,123.499996702194,0|0,0:0|0:0,0:0:0:0:
264,192,34392,2,0,B|292:176|292:176|328:168,1,61.7499983510972,8|8,0:0|0:0,0:0:0:0:
195,237,34705,2,0,L|119:245,2,61.7499983510972,8|8|4,3:0|3:0|3:0,0:0:0:0:
304,264,35173,6,0,B|336:248|336:248|360:256|360:256|388:236|440:244,1,123.499996702194,4|0,0:0|0:0,0:0:0:0:
408,328,35642,2,0,B|376:336|376:336|332:336,1,61.7499983510972,8|0,0:0|0:0,0:0:0:0:
272,364,35955,2,0,P|240:332|152:328,1,123.499996702194,2|8,0:0|0:0,0:0:0:0:
144,164,36580,6,0,B|96:148|96:148|64:172|8:156,1,123.499996702194,2|8,0:0|0:0,0:0:0:0:
49,79,37048,1,0,0:0:0:0:
144,164,37205,2,0,L|152:232,1,61.7499983510972,0|2,0:0|0:0,0:0:0:0:
256,208,37517,1,8,0:0:0:0:
209,271,37673,6,0,P|177:295|97:275,1,123.499996702194,4|0,0:0|0:0,0:0:0:0:
60,208,38142,2,0,L|-8:220,1,61.7499983510972,8|0,0:0|0:0,0:0:0:0:
144,164,38455,2,0,L|204:153,2,61.7499983510972,2|0|8,0:0|0:0|0:0,0:0:0:0:
60,208,38923,1,0,0:0:0:0:
176,286,39080,6,0,L|244:270,1,61.7499983510972,2|0,0:0|0:0,0:0:0:0:
308,224,39392,2,0,P|348:228|384:220,1,61.7499983510972,8|0,0:0|0:0,0:0:0:0:
448,188,39705,1,8,3:0:0:0:
340,148,39861,2,0,L|332:76,1,61.7499983510972,8|4,3:0|3:0,0:0:0:0:
208,28,40173,6,0,L|224:176,1,123.499996702194,4|0,0:0|0:0,0:0:0:0:
168,224,40642,2,0,P|168:256|180:292,1,61.7499983510972,8|0,0:0|0:0,0:0:0:0:
96,164,40955,2,0,L|88:92,2,61.7499983510972,8|0|8,0:0|0:0|0:0,0:0:0:0:
24,224,41423,6,0,P|44:272|16:344,1,123.499996702194,4|0,0:0|0:0,0:0:0:0:
92,380,41892,1,8,0:0:0:0:
140,316,42048,2,0,L|128:236,2,61.7499983510972,0|8|0,0:0|0:0|0:0,0:0:0:0:
212,348,42517,1,8,0:0:0:0:
288,324,42673,6,0,P|344:348|400:324,1,123.499996702194,6|0,0:0|0:0,0:0:0:0:
344,272,43142,2,0,L|352:208,1,61.7499983510972,8|0,0:0|0:0,0:0:0:0:
312,140,43455,1,8,0:0:0:0:
264,208,43611,2,0,P|228:212|188:204,1,61.7499983510972,8|0,0:0|0:0,0:0:0:0:
144,152,43923,1,4,0:0:0:0:
256,192,44080,12,2,45330,0:0:0:0:
304,272,52830,6,0,L|316:368,2,92.6249975266457,4|4|12,0:3|0:3|0:3,0:0:0:0:
172,188,53611,1,12,0:3:0:0:
172,188,53689,1,12,0:3:0:0:
172,188,53767,6,0,P|168:120|312:128,1,246.999993404389,4|0,0:0|0:0,0:0:0:0:
352,196,54705,6,0,L|424:184,2,61.7499983510972,2|0|2,3:0|3:0|3:0,0:0:0:0:
268,264,55173,6,0,B|236:276|236:276|208:264|208:264|176:280|136:264,1,130,4|0,0:0|0:0,0:0:0:0:
64,296,55642,2,0,L|60:372,1,65,8|0,0:0|0:0,0:0:0:0:
145,267,55955,2,0,L|141:191,1,65,2|0,0:0|0:0,0:0:0:0:
100,128,56267,1,8,0:0:0:0:
216,144,56423,6,0,P|232:108|196:20,1,130,4|0,0:0|0:0,0:0:0:0:
300,40,56892,2,0,L|368:44,1,65,8|0,0:0|0:0,0:0:0:0:
436,80,57205,2,0,P|472:72|508:76,1,65,2|0,0:0|0:0,0:0:0:0:
480,152,57517,1,8,0:0:0:0:
380,152,57673,6,0,L|240:140,1,130,4|0,0:0|0:0,0:0:0:0:
172,108,58142,2,0,P|164:68|168:32,1,65,8|0,0:0|0:0,0:0:0:0:
251,141,58455,2,8,B|268:170|268:170|257:201|275:227|275:227|261:263|261:263|270:291|250:325,1,195,2|0,0:0|1:0,0:0:0:0:
180,280,59080,6,0,L|108:284,1,65,4|0,0:0|0:0,0:0:0:0:
80,308,59314,2,0,P|44:288|-4:292,1,65,4|0,0:0|0:0,0:0:0:0:
8,244,59548,2,0,L|20:96,1,130,2|0,0:0|0:1,0:0:0:0:
112,20,60173,6,0,P|128:64|228:88,1,130,4|4,0:0|0:3,0:0:0:0:
192,16,60642,1,8,0:0:0:0:
200,96,60798,2,0,L|212:172,2,65,0|0|2,0:0|0:0|0:0,0:0:0:0:
292,120,61267,1,0,0:0:0:0:
240,232,61423,6,0,P|188:240|132:180,1,130,4|0,0:0|0:0,0:0:0:0:
96,284,61892,2,0,L|112:352,1,65,0|0,0:0|0:0,0:0:0:0:
200,380,62205,2,0,L|185:316,2,65,0|2|8,0:0|0:0|0:0,0:0:0:0:
276,340,62673,6,0,B|312:332|312:332|340:340|340:340|368:328|416:340,1,123.499996702194,4|8,0:0|0:0,0:0:0:0:
432,256,63142,2,0,P|464:264|512:256,1,61.7499983510972,8|0,0:0|0:0,0:0:0:0:
468,180,63455,1,4,3:0:0:0:
384,192,63611,2,0,P|352:200|304:192,1,61.7499983510972,4|4,3:0|3:0,0:0:0:0:
340,112,63923,1,0,0:0:0:0:
468,180,64080,6,0,L|496:112,2,61.7499983510972,2|0|8,3:0|0:0|0:0,0:0:0:0:
384,192,64548,1,0,0:0:0:0:
432,256,64705,2,0,L|428:328,2,61.7499983510972,2|0|2,3:0|3:0|3:0,0:0:0:0:
384,192,65173,6,0,P|316:200|260:152,1,130,4|0,0:0|0:0,0:0:0:0:
340,112,65642,2,0,L|356:44,1,65,8|0,0:0|0:0,0:0:0:0:
424,112,65955,1,2,2:0:0:0:
384,192,66111,2,0,L|396:264,1,65,0|8,0:0|0:0,0:0:0:0:
316,336,66423,6,0,B|308:284|308:284|288:256|224:252,1,130,4|0,0:0|0:0,0:0:0:0:
132,324,66892,2,0,P|172:332|200:324,1,65,8|0,0:0|0:0,0:0:0:0:
156,248,67205,1,2,2:0:0:0:
68,264,67361,1,0,0:0:0:0:
132,324,67517,1,8,0:0:0:0:
156,248,67673,6,0,B|160:212|160:212|152:184|152:184|164:156|152:108,1,130,4|0,0:0|0:0,0:0:0:0:
240,136,68142,2,0,P|236:80|292:24,2,130,8|0|8,0:0|1:0|0:0,0:0:0:0:
316,104,68923,1,0,1:0:0:0:
304,192,69080,6,0,L|308:264,1,65,4|0,0:0|0:0,0:0:0:0:
348,268,69314,2,0,P|340:308|348:340,1,65,4|0,0:0|0:0,0:0:0:0:
308,356,69548,2,0,B|256:344|256:344|224:364|176:348,1,130,4|0,0:0|3:0,0:0:0:0:
52,256,70173,6,0,B|104:268|104:268|136:248|184:264,1,130,4|0,0:0|0:0,0:0:0:0:
232,196,70642,2,0,P|261:181|292:174,1,65,8|0,0:0|0:0,0:0:0:0:
168,144,70955,2,0,B|144:168|144:168|104:184,2,65,2|0|8,2:0|0:0|0:0,0:0:0:0:
128,72,71423,6,0,P|72:88|4:48,1,130,4|0,0:0|0:0,0:0:0:0:
24,152,71892,2,0,L|36:224,2,65,8|0|2,0:0|0:0|2:0,0:0:0:0:
108,172,72361,1,0,0:0:0:0:
100,268,72517,1,8,0:0:0:0:
192,232,72673,6,0,B|229:228|229:228|263:240|263:240|293:235|335:252,1,130,0|2,0:0|3:0,0:0:0:0:
388,196,73142,2,0,P|428:208|464:204,1,65,8|2,0:0|3:0,0:0:0:0:
440,124,73455,1,8,0:0:0:0:
356,120,73611,2,0,L|288:128,2,65,2|8|4,3:0|0:0|3:0,0:0:0:0:
452,208,74080,5,14,3:0:0:0:
452,208,75173,6,0,L|432:352,1,123.499996702194,4|0,0:0|0:0,0:0:0:0:
356,312,75642,2,0,P|328:328|280:336,1,61.7499983510972,8|0,0:0|0:0,0:0:0:0:
300,248,75955,2,0,L|284:188,2,61.7499983510972,8|8|8,0:3|0:3|0:0,0:0:0:0:
372,192,76423,1,0,0:0:0:0:
264,112,76580,6,0,P|224:132|148:104,1,123.499996702194,0|8,0:0|0:0,0:0:0:0:
208,48,77048,1,0,0:0:0:0:
153,109,77205,2,0,L|141:181,2,61.7499983510972,8|8|8,0:3|0:3|0:0,0:0:0:0:
64,136,77673,6,0,B|56:176|56:176|60:200|60:200|44:232|48:280,1,123.499996702194,4|0,0:0|0:0,0:0:0:0:
132,252,78142,2,0,P|144:288|168:316,2,61.7499983510972,8|0|8,0:0|0:0|0:3,0:0:0:0:
220,240,78611,1,8,0:3:0:0:
126,143,78767,2,0,L|54:135,1,61.7499983510972,8|4,0:0|0:3,0:0:0:0:
176,72,79080,6,0,L|300:68,1,123.499996702194,4|8,0:0|0:0,0:0:0:0:
384,48,79548,1,0,0:0:0:0:
380,136,79705,2,0,P|420:132|448:112,1,61.7499983510972,8|8,0:3|0:3,0:0:0:0:
384,48,80017,1,8,0:0:0:0:
304,144,80173,6,0,P|308:200|304:280,1,123.499996702194,4|0,0:0|0:0,0:0:0:0:
220,284,80642,2,0,P|224:248|224:212,1,61.7499983510972,12|0,0:0|0:0,0:0:0:0:
140,248,80955,1,8,0:3:0:0:
220,284,81111,2,0,L|256:352,2,61.7499983510972,8|0|0,0:3|0:0|0:0,0:0:0:0:
140,248,81580,6,0,P|108:244|76:248,1,61.7499983510972,8|8,3:0|3:0,0:0:0:0:
192,180,81892,2,0,P|224:184|256:180,1,61.7499983510972,8|0,0:0|0:0,0:0:0:0:
220,96,82205,1,8,0:3:0:0:
136,112,82361,2,0,L|68:100,1,61.7499983510972,8|8,0:3|0:0,0:0:0:0:
220,96,82673,6,0,P|264:72|348:88,1,123.499996702194,4|0,0:0|0:0,0:0:0:0:
416,108,83142,2,0,L|480:96,2,61.7499983510972,8|8|8,3:3|3:0|3:0,0:0:0:0:
380,188,83611,2,0,L|319:199,2,61.7499983510972,8|8|0,3:0|0:0|0:0,0:0:0:0:
448,244,84080,6,0,B|440:284|440:284|448:344,2,92.6249975266457,12|10|10,0:0|0:0|0:0,0:0:0:0:
416,108,84861,2,0,L|400:76,2,30.8749991755486,8|8|8,3:0|3:0|3:0,0:0:0:0:
492,152,85173,1,4,3:0:0:0:
448,244,85330,1,2,0:0:0:0:
448,244,95330,6,0,L|328:232,1,97.50000371933,2|0,0:0|0:0,0:0:0:0:
240,152,95955,2,0,L|337:142,1,97.50000371933,8|8,3:0|3:0,0:0:0:0:
268,260,96580,6,0,P|272:296|268:320,2,48.750001859665,8|0|0,3:0|0:0|0:0,0:0:0:0:
136,228,97205,2,0,P|116:188|120:120,1,97.50000371933,8|0,0:0|0:0,0:0:0:0:
220,48,97830,6,0,L|280:40,1,48.750001859665,2|0,0:0|0:0,0:0:0:0:
360,112,98142,2,0,L|304:108,1,48.750001859665,2|0,0:0|0:0,0:0:0:0:
232,128,98455,1,8,3:0:0:0:
232,128,98767,6,0,L|240:248,1,97.50000371933,8|8,3:0|3:0,0:0:0:0:
284,296,99236,1,0,0:0:0:0:
340,236,99392,2,0,L|336:176,1,48.750001859665,0|0,0:0|0:0,0:0:0:0:
416,164,99705,2,0,P|408:124|436:68,1,97.50000371933,8|0,0:0|0:0,0:0:0:0:
488,132,100173,1,0,0:0:0:0:
480,216,100330,6,0,B|476:256|476:256|480:276|480:276|476:328,2,97.50000371933,0|0|8,0:0|0:0|3:0,0:0:0:0:
340,236,101267,1,8,3:0:0:0:
256,128,101580,6,0,L|264:72,1,48.750001859665,8|0,3:0|0:0,0:0:0:0:
180,68,101892,2,0,L|192:16,1,48.750001859665,0|0,0:0|0:0,0:0:0:0:
100,76,102205,2,0,B|112:120|112:120|132:140|176:152,1,97.50000371933,8|0,0:0|0:0,0:0:0:0:
324,88,102830,5,8,0:0:0:0:
324,88,103298,2,0,L|384:96,2,48.750001859665,4|8|4,3:0|0:0|3:0,0:0:0:0:
276,156,103767,6,0,L|224:164,1,48.750001859665,8|4,0:0|3:0,0:0:0:0:
352,192,104080,2,0,P|356:228|352:256,1,48.750001859665,8|4,0:0|3:0,0:0:0:0:
284,292,104392,2,0,P|280:256|284:228,1,48.750001859665,8|4,0:0|3:0,0:0:0:0:
276,156,104705,1,8,0:0:0:0:
432,216,104861,1,10,3:0:0:0:
432,216,105330,6,0,L|444:80,1,130,4|0,0:0|0:0,0:0:0:0:
356,116,105798,2,0,P|332:84|244:68,1,130,4|0,0:0|0:0,0:0:0:0:
276,156,106267,2,0,B|280:200|280:200|288:220|288:220|280:256|300:296,1,130,4|0,2:0|0:0,0:0:0:0:
376,248,106736,5,0,0:0:0:0:
376,248,106814,1,0,0:0:0:0:
376,248,106892,2,0,P|427:233|504:288,2,130,8|8|2,0:0|3:0|3:0,0:0:0:0:
424,324,107673,1,8,3:0:0:0:
292,284,107830,6,0,B|260:284|260:284|232:272|232:272|204:284|156:268,1,130,4|0,0:0|0:0,0:0:0:0:
200,188,108298,2,0,P|156:167|131:88,1,130,4|0,0:0|0:0,0:0:0:0:
220,100,108767,2,0,B|268:84|268:84|308:92|352:116,1,130,4|0,2:0|0:0,0:0:0:0:
308,248,109236,6,0,P|300:212|304:176,1,65,2|8,3:0|0:0,0:0:0:0:
388,208,109548,1,0,0:0:0:0:
308,248,109705,2,0,L|180:264,2,86.6666666666667,8|8|8,3:0|3:0|3:0,0:0:0:0:
464,236,110330,6,0,P|468:192|408:132,1,130,6|0,0:0|0:0,0:0:0:0:
344,72,110798,2,0,B|300:108|300:108|260:116|212:100,1,130,6|0,0:0|0:0,0:0:0:0:
140,128,111267,2,0,B|132:84|152:52|152:52|200:20,1,130,6|0,0:0|0:0,0:0:0:0:
228,104,111736,5,0,0:0:0:0:
228,104,111814,1,0,0:0:0:0:
228,104,111892,2,0,L|244:236,2,130,8|8|8,0:0|0:0|0:0,0:0:0:0:
312,136,112673,1,0,0:0:0:0:
160,184,112830,6,0,P|128:168|36:192,1,130,4|0,0:0|0:0,0:0:0:0:
104,256,113298,2,0,B|148:292|208:264|208:264|252:276|292:328,1,195,4|4,0:0|2:0,0:0:0:0:
432,220,114080,6,0,L|360:200,1,65,4|4,3:0|0:3,0:0:0:0:
312,136,114392,2,0,P|271:130|228:142,1,65,8|8,0:0|3:0,0:0:0:0:
396,120,114705,2,0,L|430:64,2,65,8|8|8,0:3|3:0|0:0,0:0:0:0:
344,48,115173,1,8,3:0:0:0:
476,152,115330,1,4,3:0:0:0:
256,192,125330,12,0,126580,0:0:0:0:
272,130,127205,6,0,L|264:202,1,65,2|0,0:3|0:3,0:0:0:0:
220,272,127517,1,2,0:3:0:0:
180,152,127673,6,0,P|180:108|256:36,1,130,4|0,0:0|0:0,0:0:0:0:
336,136,128142,2,0,P|296:136|256:124,1,65,8|0,0:0|0:0,0:0:0:0:
312,52,128455,1,2,0:0:0:0:
336,136,128611,2,0,L|340:220,1,65,0|8,0:0|0:0,0:0:0:0:
248,216,128923,6,0,B|240:256|240:256|248:284|248:284|240:316|252:352,1,130,4|0,0:0|0:0,0:0:0:0:
336,312,129392,2,0,P|372:328|404:324,1,65,8|0,0:0|0:0,0:0:0:0:
384,240,129705,2,0,L|404:176,2,65,2|0|8,0:0|0:0|0:0,0:0:0:0:
248,216,130173,6,0,P|196:232|128:196,1,130,4|0,0:0|0:0,0:0:0:0:
200,140,130642,2,0,L|208:68,1,65,8|0,0:0|0:0,0:0:0:0:
288,116,130955,1,4,0:3:0:0:
128,100,131111,2,0,L|84:84,2,32.5,4|4|8,0:3|0:3|0:3,0:0:0:0:
248,216,131580,6,0,L|316:232,1,65,4|0,0:0|0:0,0:0:0:0:
336,192,131814,2,0,P|372:200|412:192,1,65,4|0,0:0|0:0,0:0:0:0:
404,244,132048,2,0,B|456:232|456:232|492:256|504:296,1,130,4|0,0:0|1:0,0:0:0:0:
428,124,132673,6,0,P|408:72|444:8,1,130,4|0,0:0|0:0,0:0:0:0:
488,72,133142,1,8,0:0:0:0:
428,124,133298,2,0,L|356:132,2,65,0|2|0,0:0|0:0|0:0,0:0:0:0:
400,212,133767,1,8,0:0:0:0:
292,156,133923,6,0,B|276:108|316:68|316:68|356:56,1,130,4|4,0:0|0:3,0:0:0:0:
428,124,134392,2,0,L|496:180,1,65,8|0,0:0|0:0,0:0:0:0:
400,212,134705,2,0,P|396:252|412:296,1,65,2|0,0:0|0:0,0:0:0:0:
488,244,135017,1,8,0:0:0:0:
402,275,135173,6,0,L|308:280,1,65,4|0,0:0|0:0,0:0:0:0:
440,348,135486,2,0,L|504:351,1,65,4|8,0:3|0:0,0:0:0:0:
488,244,135798,1,0,0:0:0:0:
428,176,135955,2,0,P|404:128|436:48,1,130,2|8,0:0|0:0,0:0:0:0:
488,116,136423,5,0,0:0:0:0:
428,176,136580,2,0,L|352:184,1,65,0|0,0:0|0:0,0:0:0:0:
248,256,136892,2,0,P|288:260|320:252,1,65,8|0,0:0|0:0,0:0:0:0:
280,168,137205,2,0,L|272:100,2,65,4|8|8,0:3|0:3|0:3,0:0:0:0:
384,244,137673,6,0,P|424:228|504:256,1,130,4|0,0:0|0:0,0:0:0:0:
436,316,138142,2,0,L|428:380,1,65,8|0,0:0|0:0,0:0:0:0:
328,304,138455,2,0,P|304:264|324:184,1,130,2|8,0:0|0:0,0:0:0:0:
280,108,138923,6,0,B|244:108|244:108|212:124|212:124|168:108|132:128,1,130,4|0,0:0|0:0,0:0:0:0:
156,212,139392,2,0,B|196:220|196:220|228:216,1,65,8|0,0:0|0:0,0:0:0:0:
280,108,139705,2,0,L|288:40,2,65,2|0|8,0:0|0:0|0:0,0:0:0:0:
304,204,140173,6,0,B|336:200|360:172|360:172|372:108,1,130,4|0,0:0|0:0,0:0:0:0:
464,100,140642,2,0,L|452:180,1,65,8|0,0:0|0:0,0:0:0:0:
504,256,140955,2,8,B|472:240|472:240|436:248|412:232|412:232|396:264|396:264|360:256|320:292,1,195,8|4,0:3|0:3,0:0:0:0:
304,204,141580,6,0,L|236:200,1,65,4|0,0:0|0:0,0:0:0:0:
204,172,141814,2,0,P|168:164|136:168,1,65,4|0,0:0|0:0,0:0:0:0:
100,140,142048,2,0,B|80:188|80:188|48:204|0:200,1,130,4|0,0:0|1:0,0:0:0:0:
128,280,142673,6,0,L|280:292,1,130,4|0,0:0|0:0,0:0:0:0:
336,244,143142,2,0,P|368:256|416:256,2,65,8|0|2,0:0|0:0|0:0,0:0:0:0:
388,168,143611,1,0,0:0:0:0:
296,160,143767,1,8,0:0:0:0:
348,88,143923,6,0,P|400:80|472:136,1,130,4|4,0:0|0:3,0:0:0:0:
464,212,144392,2,0,L|492:276,2,65,8|8|0,0:0|0:3|0:0,0:0:0:0:
388,168,144861,1,4,0:3:0:0:
464,120,145017,2,0,P|468:80|460:48,1,65,8|8,0:0|0:3,0:0:0:0:
348,88,145330,5,14,0:3:0:0:
348,88,147673,6,0,L|212:80,1,130,4|0,0:0|0:0,0:0:0:0:
164,156,148142,2,0,P|128:116|40:116,1,130,8|8,0:0|0:0,0:0:0:0:
80,200,148611,1,0,0:0:0:0:
164,156,148767,1,8,0:0:0:0:
80,200,148923,6,0,B|84:244|84:244|80:268|80:268|92:296|84:336,1,130,4|0,0:0|0:0,0:0:0:0:
176,328,149392,2,0,P|216:336|256:324,1,65,8|0,0:0|0:0,0:0:0:0:
292,256,149705,2,0,P|332:248|372:260,1,65,8|0,0:0|0:0,0:0:0:0:
264,168,150017,1,8,0:0:0:0:
264,168,150173,6,0,P|224:152|136:184,1,130,4|0,0:0|0:0,0:0:0:0:
208,244,150642,2,0,L|228:320,1,65,8|0,0:0|0:0,0:0:0:0:
304,348,150955,2,0,P|340:336|376:336,2,65,8|0|8,0:0|0:0|0:0,0:0:0:0:
224,306,151423,6,0,L|80:294,1,130,4|0,0:0|0:0,0:0:0:0:
120,208,151892,2,0,B|80:204|52:184|52:184|20:128,1,130,8|8,0:0|0:0,0:0:0:0:
88,24,152361,2,0,P|96:64|88:96,1,65,0|8,0:0|0:0,0:0:0:0:
184,88,152673,6,0,P|220:112|312:88,1,130,4|0,0:0|0:0,0:0:0:0:
360,168,153142,2,0,B|412:136|412:136|444:132|492:144,1,130,8|8,0:0|0:0,0:0:0:0:
444,232,153611,1,0,0:0:0:0:
360,168,153767,1,8,0:0:0:0:
444,232,153923,6,0,L|436:364,1,130,4|0,0:0|0:0,0:0:0:0:
348,340,154392,2,0,L|352:272,1,65,8|0,0:0|0:0,0:0:0:0:
256,236,154705,1,8,0:0:0:0:
344,256,154861,1,0,0:0:0:0:
360,168,155017,1,8,0:0:0:0:
272,148,155173,5,4,0:0:0:0:
44,172,157673,6,0,L|64:28,1,123.499996702194,4|0,0:0|0:0,0:0:0:0:
140,68,158142,2,0,P|168:52|216:44,1,61.7499983510972,14|0,0:0|0:0,0:0:0:0:
196,132,158455,2,0,L|212:192,2,61.7499983510972,8|8|8,0:3|0:3|0:0,0:0:0:0:
120,176,158923,5,0,0:0:0:0:
164,256,159080,2,0,P|222:271|274:241,1,123.499996702194,0|8,0:0|0:0,0:0:0:0:
328,328,159548,1,0,0:0:0:0:
372,248,159705,2,0,L|384:176,2,61.7499983510972,8|8|8,0:3|0:3|0:0,0:0:0:0:
274,240,160173,6,0,B|282:200|282:200|278:176|278:176|294:144|290:96,1,123.499996702194,4|4,0:0|0:3,0:0:0:0:
200,128,160642,2,0,P|188:92|164:64,2,61.7499983510972,14|0|8,0:0|0:0|0:3,0:0:0:0:
112,132,161111,1,8,0:3:0:0:
213,234,161267,2,0,L|285:242,1,61.7499983510972,8|0,0:0|0:0,0:0:0:0:
160,316,161580,6,0,P|124:328|44:288,1,130,2|8,0:3|0:0,0:0:0:0:
120,248,162048,1,0,0:0:0:0:
236,316,162205,2,0,L|248:380,2,65,2|0|8,0:0|0:0|0:0,0:0:0:0:
328,316,162673,6,0,P|389:318|460:316,1,130,4|0,0:0|0:0,0:0:0:0:
408,232,163142,2,0,P|402:200|408:164,1,65,8|0,0:0|0:0,0:0:0:0:
488,196,163455,1,8,0:3:0:0:
407,168,163611,2,0,L|336:140,2,65,8|8|0,0:3|0:0|0:0,0:0:0:0:
488,196,164080,6,0,P|492:164|488:128,1,65,8|8,0:3|0:3,0:0:0:0:
408,80,164392,2,0,P|404:49|408:16,1,65,8|0,0:0|0:0,0:0:0:0:
496,48,164705,1,2,0:0:0:0:
328,76,164861,2,0,L|264:64,1,65,0|8,0:0|0:0,0:0:0:0:
232,148,165173,6,0,P|188:124|100:144,1,130,4|0,0:0|0:0,0:0:0:0:
80,216,165642,2,0,L|12:228,1,65,8|8,0:0|0:3,0:0:0:0:
40,140,165955,1,8,0:3:0:0:
168,212,166111,2,0,L|176:296,1,65,8|8,0:3|0:0,0:0:0:0:
260,260,166423,5,4,0:3:0:0:
260,260,166501,1,4,0:3:0:0:
260,260,166580,2,0,P|296:288|348:292,2,97.5,8|8|8,0:3|0:3|0:3,0:0:0:0:
80,216,167361,2,0,L|24:212,2,32.5,4|4|4,3:3|3:3|3:3,0:0:0:0:
168,212,167673,1,8,0:3:0:0:
120,308,167830,1,4,0:0:0:0:
256,192,167986,12,0,171033,0:0:0:0:
