osu file format v12

[General]
AudioFilename: Orange.mp3
AudioLeadIn: 500
PreviewTime: 80617
Countdown: 0
SampleSet: Normal
StackLeniency: 0.7
Mode: 0
LetterboxInBreaks: 0

[Editor]
Bookmarks: 1617,230617
DistanceSpacing: 0.8
BeatDivisor: 4
GridSize: 4

[Metadata]
Title:Orange
TitleUnicode:オレンジ
Artist:Hanatan
ArtistUnicode:花たん
Creator:DingGGu
Version:Hard
Source:
Tags:utaite yurica nicovideo hatsune miku vocaloid cordelia w_h_i_t_e tohma flower
BeatmapID:257690
BeatmapSetID:96054

[Difficulty]
HPDrainRate:5
CircleSize:4
OverallDifficulty:6
ApproachRate:7
SliderMultiplier:1.6
SliderTickRate:2

[Events]
//Background and Video events
0,0,"bg.jpg",0,0
//Break Periods
2,18165,37731
2,100831,110398
2,194164,212617
2,230498,241398
//Storyboard Layer 0 (Background)
//Storyboard Layer 1 (Fail)
//Storyboard Layer 2 (Pass)
//Storyboard Layer 3 (Foreground)
//Storyboard Sound Samples
//Background Colour Transformations
3,100,0,0,0

[TimingPoints]
1965,666.666666666667,4,2,0,40,1,0
11965,-100,4,1,1,60,0,0
80631,-100,4,2,0,30,0,0
81965,-100,4,1,1,60,0,1
100631,-100,4,2,1,40,0,0
113298,-100,4,1,1,60,0,0
153965,-100,4,1,1,60,0,1
172465,-100,4,1,1,60,0,0
172631,-100,4,1,1,60,0,1
183131,-100,4,1,1,60,0,0
183298,-100,4,1,1,60,0,1
193965,-100,4,1,1,5,0,0
215298,-100,4,1,1,60,0,1
230631,-100,4,1,1,60,0,0
242298,-100,4,2,0,30,0,0

[Colours]
Combo1 : 255,128,128
Combo2 : 255,255,128
Combo3 : 255,128,64

[HitObjects]
108,164,1631,1,0,0:0:0:0:
172,116,1965,1,2,0:0:0:0:
180,196,2298,1,0,0:0:0:0:
244,148,2631,2,0,P|300:92|376:96,1,160,0|2,0:0|0:0,0:0:0:0:
452,111,3631,2,0,L|508:112,2,40,0|0|2,0:0|0:0|0:0,0:0:0:0:
412,180,4298,5,0,0:0:0:0:
352,232,4631,1,2,0:0:0:0:
396,300,4965,1,0,0:0:0:0:
340,356,5298,2,0,P|264:368|184:336,1,160,0|2,0:0|0:0,0:0:0:0:
120,296,6298,2,0,L|100:336,2,40,0|0|2,0:0|0:0|0:0,0:0:0:0:
192,240,6965,5,0,0:0:0:0:
116,220,7298,1,2,0:0:0:0:
172,164,7631,1,0,0:0:0:0:
96,144,7965,2,0,P|144:92|192:88,1,120
216,88,8631,2,0,P|264:140|312:144,1,120,2|0,0:0|0:0,0:0:0:0:
332,160,9298,2,0,P|368:176|392:212,1,80
312,244,9965,5,2,0:0:0:0:
224,312,10298,1,0,0:0:0:0:
112,296,10631,1,0,0:0:0:0:
60,196,10965,2,0,P|84:124|156:88,1,160,2|2,0:0|0:0,0:0:0:0:
268,80,11965,2,0,L|308:100,2,40,8|8|0,0:0|0:0|0:0,0:0:0:0:
160,192,12631,6,0,P|172:229|199:259,1,80,4|0,0:0|0:0,0:0:0:0:
312,260,13298,2,0,P|337:232|350:192,1,80,8|0,0:0|0:0,0:0:0:0:
296,96,13965,2,0,P|256:88|216:96,1,80,0|2,0:0|0:2,0:0:0:0:
120,152,14631,2,0,P|92:124|76:88,1,80,8|0,0:0|0:0,0:0:0:0:
184,68,15298,1,0,0:0:0:0:
220,176,15631,1,0,0:0:0:0:
128,240,15965,6,0,P|148:280|176:304,1,80,8|0,0:0|0:0,0:0:0:0:
232,216,16631,1,8,0:0:0:0:
206,106,16965,2,0,P|286:112|337:169,1,160
344,196,17798,1,8,0:0:0:0:
344,224,17965,1,4,0:0:0:0:
184,156,38631,6,0,L|160:124,2,40
292,132,39298,2,0,P|308:176|304:212,1,80,4|0,0:0|0:0,0:0:0:0:
232,344,39965,2,0,P|216:300|220:264,1,80,8|0,0:0|0:0,0:0:0:0:
324,292,40631,1,0,0:0:0:0:
424,340,40965,1,2,0:0:0:0:
416,228,41298,2,0,P|404:188|376:160,1,80,8|0,0:0|0:0,0:0:0:0:
296,100,41966,5,0,0:0:0:0:
384,40,42299,1,0,0:0:0:0:
368,152,42632,2,0,P|308:184|224:152,1,160,8|0,0:0|0:0,0:0:0:0:
152,72,43632,1,2,0:0:0:0:
156,184,43965,2,0,P|223:181|280:112,1,160,8|0,0:0|0:0,0:0:0:0:
384,68,44965,5,0,0:0:0:0:
492,44,45298,2,0,P|496:88|484:124,1,80,8|0,0:0|0:0,0:0:0:0:
476,144,45798,1,0,0:0:0:0:
468,168,45965,2,0,P|457:201|461:245,1,80,0|2,0:0|0:0,0:0:0:0:
348,252,46631,2,0,P|340:204|324:176,1,80,8|0,0:0|0:0,0:0:0:0:
212,188,47298,5,0,0:3:0:0:
107,228,47631,1,0,0:3:0:0:
147,333,47965,1,8,0:0:0:0:
252,292,48298,1,0,0:3:0:0:
356,252,48631,2,0,P|384:224|408:192,1,80,0|2,0:0|0:0,0:0:0:0:
364,76,49298,1,8,0:0:0:0:
340,96,49465,1,0,0:0:0:0:
316,116,49631,1,2,0:0:0:0:
228,60,49965,6,0,L|144:60,1,80,4|0,0:0|0:0,0:0:0:0:
40,96,50632,2,0,P|24:136|28:176,1,80,8|0,0:0|0:0,0:0:0:0:
124,232,51298,2,0,P|140:192|136:152,1,80,0|2,0:0|0:0,0:0:0:0:
268,192,51965,1,8,0:0:0:0:
228,88,52299,1,0,0:0:0:0:
340,104,52632,6,0,P|366:130|378:170,1,80
444,260,53298,1,8,0:0:0:0:
332,280,53631,1,0,0:0:0:0:
232,328,53966,2,0,P|181:282|182:192,1,160,0|8,0:0|0:0,0:0:0:0:
292,176,54966,1,0,0:0:0:0:
208,100,55299,2,0,P|268:68|360:88,1,160,0|8,0:0|0:0,0:0:0:0:
432,168,56299,5,0,0:0:0:0:
320,172,56631,2,0,P|324:206|344:246,1,80,0|2,0:0|0:0,0:0:0:0:
480,342,57298,2,0,P|476:308|456:268,1,80,8|0,0:0|0:0,0:0:0:0:
368,340,57965,2,0,P|324:344|292:328,1,80
272,220,58632,5,8,0:0:0:0:
218,318,58965,1,0,0:0:0:0:
119,263,59299,1,0,0:0:0:0:
173,166,59632,1,2,0:0:0:0:
248,84,59965,1,8,0:0:0:0:
272,64,60131,1,0,0:0:0:0:
304,60,60298,1,0,0:0:0:0:
400,132,60631,5,8,0:0:0:0:
352,232,60965,1,8,0:0:0:0:
116,280,61965,5,8,0:0:0:0:
68,180,62298,1,8,0:0:0:0:
404,196,63298,5,8,0:0:0:0:
356,296,63632,1,8,0:0:0:0:
372,68,64631,6,0,P|340:88|320:128,1,80,4|8,0:0|0:0,0:0:0:0:
312,236,65298,1,8,0:0:0:0:
296,264,65465,1,0,0:0:0:0:
272,284,65631,1,0,0:0:0:0:
160,288,65965,5,8,0:0:0:0:
116,184,66298,1,8,0:0:0:0:
312,236,66964,5,0,0:0:0:0:
372,140,67298,1,8,0:0:0:0:
416,244,67631,1,0,0:0:0:0:
332,320,67965,2,0,L|292:312,1,40,8|0,0:0|0:0,0:0:0:0:
260,304,68298,2,0,L|220:296,1,40,8|8,0:0|0:0,0:0:0:0:
188,288,68631,5,4,0:0:0:0:
100,216,68965,1,0,0:0:0:0:
204,164,69298,2,0,P|216:124|208:88,1,80,8|0,0:0|0:0,0:0:0:0:
104,140,69965,2,0,P|92:180|100:216,1,80,0|2,0:0|0:0,0:0:0:0:
208,276,70631,2,0,L|196:320,2,40,8|8|0,0:0|0:0|0:0,0:0:0:0:
288,132,71298,5,8,0:0:0:0:
372,56,71631,1,8,0:0:0:0:
76,136,72631,5,8,0:0:0:0:
160,212,72964,1,8,0:0:0:0:
324,304,73965,5,8,0:0:0:0:
408,228,74298,1,8,0:0:0:0:
144,224,75298,6,0,P|176:200|200:168,1,80,4|8,0:0|0:0,0:0:0:0:
200,140,75798,1,0,0:0:0:0:
204,112,75965,2,0,P|240:96|284:96,1,80,8|0,0:0|0:0,0:0:0:0:
392,80,76631,6,0,P|448:140|456:216,1,160,4|8,0:0|0:0,0:0:0:0:
344,196,77631,1,0,0:0:0:0:
300,300,77965,2,0,P|240:312|184:280,1,120
172,260,78631,2,0,L|120:188,1,80,8|0,0:0|0:0,0:0:0:0:
20,160,79298,6,0,P|40:124|72:96,1,80,0|8,0:0|0:0,0:0:0:0:
220,80,79965,2,0,P|208:119|211:162,1,80,8|2,0:0|0:0,0:0:0:0:
220,188,80465,1,0,0:0:0:0:
232,216,80631,6,0,P|280:228|304:248,1,80,0|0,0:0|0:0,0:0:0:0:
332,264,81131,1,0,0:0:0:0:
364,272,81298,2,0,P|404:268|448:256,1,80,0|0,0:0|0:0,0:0:0:0:
452,228,81798,1,0,0:0:0:0:
448,196,81965,6,0,P|436:156|416:120,1,80,4|2,0:0|0:0,0:0:0:0:
392,104,82465,1,0,0:0:0:0:
360,104,82631,2,0,P|312:116|276:108,1,80,8|2,0:0|0:0,0:0:0:0:
252,96,83131,1,0,0:0:0:0:
228,76,83298,2,0,P|198:70|150:82,1,80,0|2,0:0|0:0,0:0:0:0:
124,100,83798,1,0,0:0:0:0:
104,124,83965,6,0,P|84:164|84:200,1,80,8|2,0:0|0:0,0:0:0:0:
168,268,84631,2,0,P|184:240|188:192,1,80,0|2,0:0|0:0,0:0:0:0:
296,160,85298,2,0,P|296:252|272:320,1,160,8|0,0:0|0:0,0:0:0:0:
244,324,86131,1,8,0:0:0:0:
212,324,86298,6,0,P|176:320|136:292,1,80,2|8,0:0|0:0,0:0:0:0:
120,272,86798,1,0,0:0:0:0:
108,240,86965,2,0,L|64:224,2,40,2|0|4,0:0|0:0|0:0,0:0:0:0:
168,144,87631,5,2,0:0:0:0:
256,76,87965,1,8,0:0:0:0:
268,188,88298,2,0,P|308:172|356:172,1,80,2|0,0:0|0:0,0:0:0:0:
376,176,88798,1,0,0:0:0:0:
396,200,88965,2,0,L|368:280,1,80,2|8,0:0|0:0,0:0:0:0:
268,328,89631,2,0,L|232:300,1,40,2|0,0:0|0:0,0:0:0:0:
208,236,89965,2,0,P|172:264|164:300,2,80,4|0|10,0:0|0:0|0:0,0:0:0:0:
252,116,90965,6,0,P|312:164|336:244,1,160,4|2,0:0|0:0,0:0:0:0:
192,220,91965,1,8,0:0:0:0:
160,224,92131,1,0,0:0:0:0:
128,220,92298,1,0,0:0:0:0:
80,120,92631,1,4,0:0:0:0:
164,48,92965,1,2,0:0:0:0:
280,64,93298,6,0,P|360:76|408:136,1,160,8|0,0:0|0:0,0:0:0:0:
300,172,94298,2,0,P|320:212|348:232,2,80,2|0|2,0:0|0:0|0:0,0:0:0:0:
244,268,95298,2,0,P|220:230|217:196,1,80,4|2,0:0|0:0,0:0:0:0:
384,256,95965,2,0,P|384:212|416:164,1,80,8|2,0:0|0:0,0:0:0:0:
456,84,96631,6,0,L|500:108,2,40,0|8|2,0:0|0:0|0:0,0:0:0:0:
352,40,97298,2,0,P|340:80|348:120,1,80,8|2,0:0|0:0,0:0:0:0:
236,124,97965,1,4,0:0:0:0:
164,212,98298,1,0,0:0:0:0:
128,108,98631,2,0,L|96:80,2,40,8|0|0,0:0|0:0|0:0,0:0:0:0:
286,78,99298,5,8,0:0:0:0:
363,217,99631,1,4,0:0:0:0:
254,334,99965,1,0,0:0:0:0:
109,267,100298,1,0,0:0:0:0:
129,108,100631,5,0,0:0:0:0:
116,212,111298,5,4,0:0:0:0:
116,212,113298,2,0,L|148:240,3,40,0|0|0|0,0:0|0:0|0:0|0:0,0:0:0:0:
164,256,113965,6,0,P|200:280|236:288,1,80,4|2,0:0|0:0,0:0:0:0:
316,212,114631,2,0,P|280:188|244:180,1,80,8|0,0:0|0:0,0:0:0:0:
412,212,115298,2,0,P|404:256|380:284,1,80,0|2,0:0|0:0,0:0:0:0:
364,144,115965,2,0,P|372:100|396:72,1,80,8|0,0:0|0:0,0:0:0:0:
380,44,116465,1,0,0:0:0:0:
352,32,116631,6,0,P|316:36|276:52,1,80
168,160,117298,2,0,P|204:156|244:140,1,80,8|0,0:0|0:0,0:0:0:0:
276,148,117798,1,0,0:0:0:0:
304,164,117965,2,0,P|344:148|380:144,1,80,0|2,0:0|0:0,0:0:0:0:
456,228,118631,2,0,P|416:244|380:248,1,80,8|0,0:0|0:0,0:0:0:0:
284,304,119298,5,0,0:0:0:0:
172,292,119631,1,0,0:0:0:0:
244,204,119965,1,8,0:0:0:0:
136,180,120298,1,0,0:0:0:0:
48,112,120631,2,0,P|80:80|112:72,1,80,0|2,0:0|0:0,0:0:0:0:
200,140,121298,2,0,P|168:172|136:180,1,80,8|0,0:0|0:0,0:0:0:0:
264,64,121965,6,0,P|312:124|392:132,1,160,4|8,0:0|0:0,0:0:0:0:
396,244,122965,1,0,0:0:0:0:
492,300,123298,2,0,P|440:348|352:348,1,160,0|8,0:0|0:0,0:0:0:0:
280,264,124298,1,0,0:0:0:0:
180,312,124631,6,0,P|140:328|100:324,1,80
44,232,125298,2,0,P|84:216|124:220,1,80,8|0,0:0|0:0,0:0:0:0:
232,212,125965,2,0,P|220:164|200:140,1,80,0|2,0:0|0:0,0:0:0:0:
168,132,126465,1,0,0:0:0:0:
136,124,126631,2,0,P|156:84|188:60,1,80,8|0,0:0|0:0,0:0:0:0:
292,80,127298,6,0,P|332:68|372:76,1,80
412,176,127965,2,0,P|372:188|332:180,1,80,8|0,0:0|0:0,0:0:0:0:
304,168,128465,1,0,0:0:0:0:
276,152,128631,2,0,P|239:145|199:157,1,80,0|2,0:0|0:0,0:0:0:0:
168,264,129298,2,0,P|128:248|104:216,1,80,8|0,0:0|0:0,0:0:0:0:
48,124,129965,5,0,0:0:0:0:
152,84,130298,1,0,0:0:0:0:
220,172,130631,1,8,0:0:0:0:
324,128,130965,1,0,0:0:0:0:
432,92,131298,6,0,P|444:132|432:176,1,80,0|8,0:0|0:0,0:0:0:0:
420,196,131798,1,8,0:0:0:0:
400,220,131965,2,0,P|393:257|405:297,1,80,0|0,0:0|0:0,0:0:0:0:
300,264,132631,6,0,P|240:268|208:256,1,80,4|0,0:0|0:0,0:0:0:0:
192,248,133131,1,0,0:0:0:0:
172,224,133298,1,8,0:0:0:0:
44,176,133631,1,0,0:0:0:0:
60,148,133798,2,0,P|100:104|160:92,1,120,8|2,0:0|0:0,0:0:0:0:
264,56,134631,6,0,P|272:96|264:136,1,80,8|0,0:0|0:0,0:0:0:0:
236,152,135131,1,0,0:0:0:0:
212,172,135298,2,0,P|204:210|212:250,1,80
304,220,135965,2,0,P|344:204|360:172,1,80,8|0,0:0|0:0,0:0:0:0:
368,140,136465,2,0,P|392:84|444:56,1,120,8|2,0:0|0:0,0:0:0:0:
496,152,137298,2,0,P|480:184|440:200,1,80,8|0,0:0|0:0,0:0:0:0:
348,264,137965,5,0,0:0:0:0:
276,180,138298,1,0,0:0:0:0:
240,284,138631,2,0,P|192:252|168:192,1,120,8|8,0:0|0:0,0:0:0:0:
172,164,139298,1,0,0:0:0:0:
244,76,139631,1,2,0:0:0:0:
352,108,139965,6,0,P|404:144|420:200,1,120,8|0,0:0|0:0,0:0:0:0:
404,224,140631,2,0,P|368:240|328:244,1,80,4|0,0:0|0:0,0:0:0:0:
228,192,141298,2,0,P|264:176|304:172,1,80,8|0,0:0|0:0,0:0:0:0:
160,124,141965,2,0,P|136:152|128:196,1,80,2|8,0:0|0:0,0:0:0:0:
124,228,142465,1,0,0:0:0:0:
108,256,142631,2,0,L|68:264,2,40
220,244,143298,6,0,P|256:264|296:264,1,80,4|0,0:0|0:0,0:0:0:0:
360,172,143965,2,0,P|324:152|284:152,1,80,8|0,0:0|0:0,0:0:0:0:
256,144,144465,1,8,0:0:0:0:
232,124,144631,2,0,P|193:123|157:103,1,80,0|2,0:0|0:0,0:0:0:0:
56,60,145298,2,0,P|44:100|52:140,1,80,8|0,0:0|0:0,0:0:0:0:
124,280,145965,2,0,P|136:240|128:200,1,80
192,104,146631,6,0,P|224:128|240:168,1,80,8|0,0:0|0:0,0:0:0:0:
244,196,147131,1,8,0:0:0:0:
252,228,147298,2,0,P|267:263|299:287,1,80,0|2,0:0|0:0,0:0:0:0:
412,272,147965,2,0,P|404:240|376:204,1,80,8|0,0:0|0:0,0:0:0:0:
260,326,148631,6,0,P|288:348|332:352,1,80,4|0,0:0|0:0,0:0:0:0:
388,190,149298,2,0,P|357:203|332:240,1,80,8|0,0:0|0:0,0:0:0:0:
464,108,149965,2,0,P|436:86|392:82,1,80,0|2,0:0|0:0,0:0:0:0:
364,92,150465,1,0,0:0:0:0:
336,104,150631,2,0,P|292:100|264:78,1,80,8|0,0:0|0:0,0:0:0:0:
168,116,151298,6,0,L|120:144,1,40,4|0,0:0|0:0,0:0:0:0:
104,152,151631,2,0,L|52:176,1,40,8|0,0:0|0:0,0:0:0:0:
44,188,151965,2,0,P|36:236|76:292,1,120,8|8,0:0|0:0,0:0:0:0:
104,304,152631,1,0,0:0:0:0:
136,304,152798,2,0,L|148:348,2,40,8|8|8,0:0|0:0|0:0,0:0:0:0:
156,280,153298,2,0,P|188:256|232:252,1,80
256,256,153798,1,0,0:0:0:0:
284,272,153965,6,0,P|300:308|336:336,2,80,4|2|8,0:0|0:0|0:0,0:0:0:0:
388,240,154965,2,0,P|420:216|464:212,1,80,2|0,0:0|0:0,0:0:0:0:
484,192,155465,1,0,0:0:0:0:
496,164,155631,2,0,P|500:128|480:88,1,80,2|8,0:0|0:0,0:0:0:0:
452,80,156131,1,0,0:0:0:0:
424,64,156298,6,0,L|440:24,2,40,2|0|0,0:0|0:0|0:0,0:0:0:0:
312,72,156965,2,0,P|320:110|348:142,1,80,2|8,0:0|0:0,0:0:0:0:
256,208,157631,2,0,P|212:136|208:60,1,160,2|2,0:0|0:0,0:0:0:0:
108,72,158631,2,0,P|96:120|100:160,1,80,8|2,0:0|0:0,0:0:0:0:
160,284,159298,6,0,P|172:236|168:196,1,80,4|2,0:0|0:0,0:0:0:0:
252,128,159965,2,0,P|276:160|288:200,1,80,8|2,0:0|0:0,0:0:0:0:
296,228,160465,2,0,P|307:265|331:297,1,80,0|0,0:0|0:0,0:0:0:0:
432,280,161131,2,0,P|416:264|408:244,1,40,0|10,0:0|0:0,0:0:0:0:
416,216,161465,1,0,0:0:0:0:
424,184,161631,2,0,P|408:148|376:124,1,80,0|6,0:0|0:0,0:0:0:0:
264,108,162298,5,8,0:0:0:0:
156,80,162631,1,8,0:0:0:0:
184,188,162965,2,0,P|132:236|84:240,1,120,4|0,0:0|0:0,0:0:0:0:
56,228,163631,1,0,0:0:0:0:
76,76,163965,1,8,0:0:0:0:
224,40,164298,1,0,0:0:0:0:
332,72,164631,6,0,P|376:84|400:108,1,80,4|2,0:0|0:0,0:0:0:0:
388,220,165298,2,0,P|344:208|320:184,1,80,8|2,0:0|0:0,0:0:0:0:
231,118,165965,2,0,P|212:146|208:192,1,80,0|2,0:0|0:0,0:0:0:0:
232,300,166631,2,0,P|186:303|155:289,1,80,8|2,0:0|0:0,0:0:0:0:
88,200,167298,6,0,P|68:152|72:120,1,80,4|2,0:0|0:0,0:0:0:0:
92,104,167798,1,0,0:0:0:0:
124,100,167965,2,0,P|148:88|180:47,1,80,8|2,0:0|0:0,0:0:0:0:
288,148,168631,2,0,P|324:128|364:132,1,80,0|2,0:0|0:0,0:0:0:0:
388,148,169131,1,0,0:0:0:0:
416,164,169298,2,0,P|453:167|489:147,1,80,8|2,0:0|0:0,0:0:0:0:
448,44,169965,6,0,P|404:32|368:40,1,80,4|2,0:0|0:0,0:0:0:0:
216,80,170631,2,0,P|260:92|296:84,1,80,8|2,0:0|0:0,0:0:0:0:
212,164,171298,2,0,L|184:200,2,40,8|8|8,0:0|0:0|0:0,0:0:0:0:
232,188,171798,2,0,L|224:228,2,40
252,212,172298,2,0,L|276:256,1,40
320,348,172631,6,0,P|360:352|392:332,1,80,8|0,0:0|0:0,0:0:0:0:
444,196,173298,2,0,P|415:167|378:161,1,80,10|2,0:0|0:0,0:0:0:0:
260,76,173965,2,0,P|231:104|225:141,1,80,10|2,0:0|0:0,0:0:0:0:
212,284,174631,2,0,P|240:255|246:218,1,80,10|2,0:0|0:0,0:0:0:0:
108,184,175298,6,0,P|76:160|64:120,1,80,10|2,0:0|0:0,0:0:0:0:
200,76,175965,2,0,L|292:84,1,80,10|2,0:0|0:0,0:0:0:0:
420,56,176631,2,0,P|428:100|416:136,1,80,10|2,0:0|0:0,0:0:0:0:
288,196,177298,1,10,0:0:0:0:
416,256,177631,1,2,0:0:0:0:
280,304,177965,6,0,P|244:324|200:328,1,80,14|2,0:0|0:0,0:0:0:0:
112,220,178631,2,0,P|148:200|192:196,1,80,10|2,0:0|0:0,0:0:0:0:
310,104,179298,2,0,P|282:78|244:64,1,80,10|2,0:0|0:0,0:0:0:0:
104,88,179965,2,0,P|73:110|52:146,1,80,2|2,0:0|0:0,0:0:0:0:
48,292,180631,6,0,P|86:287|122:267,1,80,14|2,0:0|0:0,0:0:0:0:
228,168,181298,2,0,P|256:200|264:240,1,80,10|2,0:0|0:0,0:0:0:0:
360,128,181965,2,0,P|400:136|428:168,1,80,10|2,0:0|0:0,0:0:0:0:
440,192,182465,1,0,0:0:0:0:
444,224,182631,2,0,L|440:268,1,40,10|0,0:0|0:0,0:0:0:0:
408,268,182965,2,0,L|396:308,1,40,2|0,0:0|0:0,0:0:0:0:
364,312,183298,6,0,P|328:328|288:324,1,80,14|2,0:0|0:0,0:0:0:0:
200,212,183965,2,0,P|232:189|272:188,1,80,10|2,0:0|0:0,0:0:0:0:
172,292,184631,2,0,P|136:275|115:241,1,80,10|2,0:0|0:0,0:0:0:0:
256,276,185298,2,0,P|259:315|240:350,1,80,10|2,0:0|0:0,0:0:0:0:
200,212,185965,6,0,P|196:172|215:137,1,80,10|2,0:0|0:0,0:0:0:0:
356,104,186631,2,0,P|391:120|412:154,1,80,10|2,0:0|0:0,0:0:0:0:
372,292,187298,2,0,P|340:314|299:315,1,80,10|2,0:0|0:0,0:0:0:0:
200,212,187965,2,0,L|132:256,1,80,2|2,0:0|0:0,0:0:0:0:
8,328,188631,6,0,P|-4:292|4:248,1,80,14|2,0:0|0:0,0:0:0:0:
52,116,189298,2,0,P|64:152|56:196,1,80,10|2,0:0|0:0,0:0:0:0:
200,212,189965,2,0,L|236:232,2,40,8|8|2,0:0|0:0|0:0,0:0:0:0:
224,72,190631,5,0,0:0:0:0:
255,56,190798,1,0,0:0:0:0:
288,72,190965,1,0,0:0:0:0:
366,154,191298,6,0,B|407:108|469:128|512:186|471:251|471:251|443:291|426:342|426:342|374:331|325:335|325:335|249:338|219:272|234:208|296:196,1,640,4|0,0:0|2:0,0:0:0:0:
444,252,214631,6,0,L|408:280,2,40,10|10|0,0:0|0:0|0:0,0:0:0:0:
460,224,215131,1,0,0:0:0:0:
464,192,215298,6,0,P|472:152|460:112,1,80,4|2,0:0|0:0,0:0:0:0:
356,80,215965,2,0,P|348:120|360:160,1,80,8|2,0:0|0:0,0:0:0:0:
392,272,216631,2,0,L|344:256,1,40,2|0,0:0|0:0,0:0:0:0:
328,248,216965,2,0,L|280:232,1,40,2|0,0:0|0:0,0:0:0:0:
264,224,217298,2,0,P|216:188|196:128,1,120,8|0,0:0|0:0,0:0:0:0:
176,108,217965,6,0,P|144:80|104:72,1,80,4|2,0:0|0:0,0:0:0:0:
52,168,218631,2,0,P|84:196|124:204,1,80,8|2,0:0|0:0,0:0:0:0:
148,220,219131,1,0,0:0:0:0:
252,252,219465,2,0,P|287:260|319:288,1,80
348,300,219965,2,0,L|320:344,2,40,8|0|2,0:0|0:0|0:0,0:0:0:0:
376,284,220465,1,0,0:0:0:0:
404,272,220631,6,0,P|424:236|456:208,2,80,4|0|8,0:0|0:0|0:0,0:0:0:0:
356,172,221631,2,0,P|328:124|264:108,1,120,4|0,0:0|0:0,0:0:0:0:
240,120,222298,1,0,0:0:0:0:
136,160,222631,1,8,0:0:0:0:
228,244,222965,2,0,P|184:240|144:252,1,80,0|4,0:0|0:0,0:0:0:0:
156,360,223631,1,2,0:0:0:0:
264,332,223965,6,0,P|304:336|340:320,1,80,8|2,0:0|0:0,0:0:0:0:
408,232,224631,2,0,P|368:224|328:236,1,80,0|2,0:0|0:0,0:0:0:0:
380,144,225298,2,0,P|356:88|304:56,1,120,8|0,0:0|0:0,0:0:0:0:
276,48,225965,1,0,0:0:0:0:
168,76,226298,1,0,0:0:0:0:
76,140,226631,6,0,P|116:200|160:212,1,120,8|0,0:0|0:0,0:0:0:0:
192,220,227298,2,0,P|236:232|276:292,1,120,8|0,0:0|0:0,0:0:0:0:
292,320,227965,2,0,L|276:360,2,40,8|8|2,0:0|0:0|0:0,0:0:0:0:
400,300,228631,6,0,P|424:268|436:228,1,80,4|8,0:0|0:0,0:0:0:0:
364,144,229298,2,0,L|340:108,1,40,8|0,0:0|0:0,0:0:0:0:
316,128,229631,2,0,L|280:104,1,40,0|0,0:0|0:0,0:0:0:0:
268,136,229965,2,0,P|228:128|188:136,1,80,0|4,0:0|0:0,0:0:0:0:
216,300,242298,6,0,P|256:312|296:300,1,80
256,236,242798,1,0,0:0:0:0:
256,236,242965,1,0,0:0:0:0:
