osu file format v14

[General]
AudioFilename: kuroneko.mp3
AudioLeadIn: 0
PreviewTime: 87777
Countdown: 0
SampleSet: Soft
StackLeniency: 0.9
Mode: 0
LetterboxInBreaks: 0
WidescreenStoryboard: 0

[Editor]
DistanceSpacing: 1.2
BeatDivisor: 4
GridSize: 4
TimelineZoom: 1

[Metadata]
Title:Kuroneko
TitleUnicode:黒猫
Artist:Hanatan
ArtistUnicode:花たん
Creator:Lavender
Version:ZJ's Normal
Source:
Tags:Chers petits chats~親愛なる愛猫たちへ~ Akagami 赤髪 Raptor Nexus Utility Vocaloid GUMI zj0924 Rakuen Narcissu
BeatmapID:715096
BeatmapSetID:242220

[Difficulty]
HPDrainRate:4
CircleSize:3
OverallDifficulty:4
ApproachRate:4
SliderMultiplier:1.8
SliderTickRate:2

[Events]
//Background and Video events
0,0,"kuroneko.png",0,0
Video,0,"kuroneko.flv"
//Break Periods
2,195120,217600
//Storyboard Layer 0 (Background)
//Storyboard Layer 1 (Fail)
//Storyboard Layer 2 (Pass)
//Storyboard Layer 3 (Foreground)
//Storyboard Sound Samples

[TimingPoints]
2920,857.142857142858,4,2,1,25,1,0
44062,-100,4,2,2,50,0,0
44491,-100,4,2,1,25,0,0
47491,-100,4,2,2,50,0,0
47919,-100,4,2,1,25,0,0
85634,-100,4,2,1,35,0,0
86062,-100,4,2,1,45,0,0
86491,-100,4,2,1,55,0,0
86919,-100,4,2,1,65,0,0
87348,-100,4,2,1,75,0,0
87777,-100,4,1,1,100,0,0
88634,-100,4,1,1,65,0,1
143491,-100,4,1,1,65,0,0
150348,-100,4,1,1,65,0,1
188062,-100,4,1,1,65,0,0
188919,-100,4,1,1,55,0,0
189777,-100,4,1,1,45,0,0
190634,-100,4,1,1,35,0,0
191491,-100,4,1,1,25,0,0
192348,-100,4,1,1,15,0,0
193205,-100,4,2,1,5,0,0
218919,-100,4,1,1,65,0,0
222348,-100,4,1,1,65,0,1
249777,-100,4,1,1,70,0,0
277205,-100,4,1,1,25,0,0
278062,-100,4,1,1,25,0,0
278919,-100,4,1,1,20,0,0
279777,-100,4,1,1,15,0,0
280634,-100,4,1,1,10,0,0
281491,-100,4,1,1,5,0,0

[Colours]
Combo1 : 98,98,98
Combo2 : 255,128,128
Combo3 : 149,149,255
Combo4 : 255,255,0
Combo5 : 0,255,255
Combo6 : 0,255,128
Combo7 : 255,117,255
Combo8 : 192,192,192

[HitObjects]
44,43,30348,6,0,P|30:133|41:241,1,180,0|0,0:0|0:0,0:0:0:0:
78,320,31634,1,0,0:0:0:0:
185,320,32062,2,0,P|274:313|363:327,1,180,0|0,0:0|0:0,0:0:0:0:
469,304,33348,1,0,0:0:0:0:
502,201,33777,6,0,P|505:158|492:107,2,90,0|0|0,0:0|0:0|0:0,0:0:0:0:
469,304,35062,1,0,0:0:0:0:
404,217,35491,2,0,P|393:173|396:128,2,90,0|0|0,0:0|0:0|0:0,0:0:0:0:
469,304,36777,1,0,0:0:0:0:
365,335,37205,6,0,B|320:347|270:330|270:330|218:351|175:339,1,180
83,316,38491,1,0,0:0:0:0:
30,221,38920,1,0,0:0:0:0:
115,155,39348,2,0,P|165:145|222:145,2,90
30,221,40634,6,0,P|7:127|76:51,1,180
157,40,41920,1,0,0:0:0:0:
263,57,42348,2,0,L|312:81,1,45
353,97,42777,2,0,L|406:106,1,45
443,132,43205,2,0,B|432:178|446:220|446:220|415:258,1,135
379,294,44062,6,0,P|334:280|270:277,1,90,4|0,0:0|0:0,0:0:0:0:
238,288,44705,1,0,0:0:0:0:
238,288,44920,2,0,P|193:283|150:269,1,90,0|0,0:0|0:0,0:0:0:0:
61,330,45777,1,0,0:0:0:0:
9,236,46205,2,0,P|8:189|20:138,2,90,0|0|0,0:0|0:0|0:0,0:0:0:0:
105,188,47491,6,0,P|150:182|207:189,1,90,4|0,0:0|0:0,0:0:0:0:
299,212,48348,1,0,0:0:0:0:
333,314,48777,1,0,0:0:0:0:
440,304,49205,2,0,B|433:258|393:233|393:233|428:194|427:137,1,180,0|0,0:0|0:0,0:0:0:0:
318,147,50491,1,0,0:0:0:0:
275,246,50920,6,0,B|199:268|134:235|134:235|85:259,2,180,0|0|0,0:0|0:0|0:0,0:0:0:0:
379,220,53062,1,0,0:0:0:0:
353,114,53491,2,0,B|279:65|279:65|216:66,1,135,0|0,0:0|0:0,0:0:0:0:
178,71,54348,1,0,0:0:0:0:
178,71,56920,6,0,L|142:113,1,45
95,113,57348,2,0,L|28:139,1,45,0|0,0:0|0:0,0:0:0:0:
27,176,57777,2,0,P|29:221|33:282,1,90
79,291,58420,2,0,P|145:281|230:297,1,135,0|0,0:0|0:0,0:0:0:0:
239,337,59277,2,0,P|305:346|372:336,1,135,0|0,0:0|0:0,0:0:0:0:
473,299,60348,6,0,L|448:249,1,45
403,237,60776,2,0,L|344:195,1,45,0|0,0:0|0:0,0:0:0:0:
415,188,61205,2,0,P|409:143|399:82,1,90
348,94,61848,2,0,P|281:102|197:85,1,135,0|0,0:0|0:0,0:0:0:0:
189,46,62705,2,0,P|122:35|55:43,1,135,0|0,0:0|0:0,0:0:0:0:
17,82,63562,1,0,0:0:0:0:
17,82,63777,2,0,P|25:127|35:196,1,90,0|0,0:0|0:0,0:0:0:0:
118,235,64634,6,0,P|166:221|222:213,1,90,0|0,0:0|0:0,0:0:0:0:
257,199,65277,2,0,P|276:131|317:80,1,135,0|0,0:0|0:0,0:0:0:0:
369,83,66134,2,0,B|408:78|442:97|442:97|480:83|512:91,1,135,0|0,0:0|0:0,0:0:0:0:
499,196,67205,1,0,0:0:0:0:
390,195,67634,1,0,0:0:0:0:
390,195,68062,6,0,P|318:229|294:324,1,180,0|0,0:0|0:0,0:0:0:0:
399,300,69348,2,0,L|462:311,2,45,0|0|0,0:0|0:0|0:0,0:0:0:0:
293,320,70205,1,0,0:0:0:0:
184,322,70634,2,0,P|136:321|89:297,1,90,0|0,0:0|0:0,0:0:0:0:
174,227,71491,6,0,P|191:182|188:129,1,90
298,161,72348,2,0,P|348:160|404:156,1,90,0|0,0:0|0:0,0:0:0:0:
380,48,73205,2,0,P|330:49|274:53,1,90,0|0,0:0|0:0,0:0:0:0:
208,120,74062,1,0,0:0:0:0:
109,76,74491,1,0,0:0:0:0:
109,184,74920,6,0,P|116:231|120:286,1,90,0|0,0:0|0:0,0:0:0:0:
164,301,75562,1,0,0:0:0:0:
164,301,75777,2,0,P|212:300|268:307,2,90
91,380,77062,1,0,0:0:0:0:
69,274,77491,2,0,P|71:225|79:169,1,90,0|0,0:0|0:0,0:0:0:0:
172,232,78348,6,0,P|221:230|277:222,1,90,0|0,0:0|0:0,0:0:0:0:
366,197,79205,1,0,0:0:0:0:
383,90,79634,1,0,0:0:0:0:
383,90,79848,2,0,P|334:92|278:100,1,90,0|0,0:0|0:0,0:0:0:0:
239,103,80491,2,0,P|209:102|181:97,2,45,0|0|0,0:0|0:0|0:0,0:0:0:0:
258,209,81348,1,0,0:0:0:0:
366,197,81777,6,0,P|418:200|469:208,2,90,0|0|0,0:0|0:0|0:0,0:0:0:0:
374,304,83062,1,0,0:0:0:0:
374,304,83277,2,0,L|272:317,1,90,0|0,0:0|0:0,0:0:0:0:
231,323,83920,2,0,L|171:299,1,45,0|0,0:0|0:0,0:0:0:0:
137,291,84348,2,0,L|121:220,1,45,0|0,0:0|0:0,0:0:0:0:
82,221,84777,2,0,L|96:154,1,45,0|0,0:0|0:0,0:0:0:0:
256,192,85205,12,2,87777,0:0:0:0:
204,126,88634,6,0,P|149:193|183:274,1,180,6|8,0:0|0:0,0:0:0:0:
275,323,89920,1,2,0:0:0:0:
275,323,90134,1,2,0:0:0:0:
382,320,90562,1,2,0:0:0:0:
382,320,90777,2,0,L|506:337,2,90,2|8|2,0:0|0:0|0:0,0:0:0:0:
382,212,92062,6,0,B|331:186|256:246|205:214,1,180,6|8,0:0|0:0,0:0:0:0:
176,318,93348,2,0,L|139:370,1,45,2|2,0:0|0:0,0:0:0:0:
97,367,93777,2,0,B|50:360|50:360|-11:367,1,90,0|2,0:0|0:0,0:0:0:0:
0,258,94634,1,8,0:0:0:0:
104,232,95062,1,2,0:0:0:0:
27,156,95491,6,0,P|1:104|8:27,1,135,6|2,0:0|0:0,0:0:0:0:
60,18,96348,2,0,P|126:27|177:25,1,90,8|0,0:0|0:0,0:0:0:0:
178,129,97205,2,0,P|186:172|205:212,2,90,2|2|8,0:0|0:0|0:0,0:0:0:0:
257,55,98491,2,0,L|320:53,1,45,2|2,0:0|0:0,0:0:0:0:
351,77,98920,6,0,P|397:81|457:80,1,90,6|2,0:0|0:0,0:0:0:0:
469,185,99777,1,8,0:0:0:0:
469,185,99991,2,0,P|422:180|363:182,1,90,4|6,0:3|0:0,0:0:0:0:
357,230,100634,2,0,P|352:276|354:336,1,90,0|8,0:0|0:0,0:0:0:0:
309,351,101277,2,0,P|262:355|203:354,1,90,8|8,0:0|0:0,0:0:0:0:
165,349,101920,2,0,L|134:315,1,45,4|2,0:3|0:3,0:0:0:0:
98,275,102348,6,0,B|79:230|79:230|42:191,2,90,6|2|8,0:0|0:0|0:0,0:0:0:0:
187,214,103634,1,2,0:0:0:0:
187,214,103848,1,2,0:0:0:0:
277,273,104277,1,2,0:0:0:0:
277,273,104491,2,0,P|334:259|379:253,1,90,2|8,0:0|0:0,0:0:0:0:
473,255,105348,2,0,L|495:209,1,45,2|0,0:0|0:0,0:0:0:0:
500,160,105777,6,0,P|481:115|469:64,1,90,6|2,0:0|0:0,0:0:0:0:
417,64,106420,2,0,P|371:72|313:75,1,90,2|2,0:0|0:0,0:0:0:0:
283,105,107062,2,0,P|284:149|292:194,2,90,6|0|0,0:0|0:0|0:0,0:0:0:0:
211,24,108348,1,8,0:0:0:0:
163,120,108777,1,2,0:0:0:0:
60,152,109205,6,0,P|42:193|31:244,1,90,6|0,0:0|0:0,0:0:0:0:
32,291,109848,1,0,0:0:0:0:
32,291,110062,2,0,P|75:303|126:308,1,90,8|2,0:0|0:0,0:0:0:0:
173,302,110705,2,0,P|217:307|260:319,1,90,2|0,0:0|0:0,0:0:0:0:
305,349,111348,2,0,B|344:325|344:325|375:283,2,90,2|8|2,0:0|0:0|0:0,0:0:0:0:
276,244,112634,6,0,B|335:181|335:181|392:180,1,135,6|2,0:0|0:0,0:0:0:0:
436,194,113491,2,0,B|445:144|445:144|434:91,1,90,8|0,0:0|0:0,0:0:0:0:
389,100,114134,2,0,B|341:100|341:100|301:86,1,90,6|8,0:0|0:0,0:0:0:0:
251,65,114777,1,2,0:0:0:0:
213,166,115205,2,0,B|191:212|218:245|194:307,1,135,2|0,0:0|0:0,0:0:0:0:
145,316,116062,6,0,B|196:298|196:298|273:333|332:315,1,180,6|8,0:0|0:0,0:0:0:0:
426,318,117348,1,2,0:0:0:0:
426,318,117562,1,2,0:0:0:0:
457,214,117991,1,2,0:0:0:0:
457,214,118205,2,0,P|464:168|458:96,2,90,2|8|2,0:0|0:0|0:0,0:0:0:0:
356,176,119491,6,0,P|314:159|269:154,1,90,6|2,0:0|0:0,0:0:0:0:
296,259,120348,2,0,P|251:265|210:283,1,90,8|0,0:0|0:0,0:0:0:0:
160,300,120991,1,2,0:0:0:0:
160,300,121205,2,0,L|131:197,2,90,2|2|8,0:0|0:0|0:0,0:0:0:0:
252,356,122491,1,4,0:3:0:0:
292,255,122920,6,0,P|337:250|412:319,1,135,6|0,0:0|0:0,0:0:0:0:
438,344,123777,2,0,P|449:296|469:254,1,90,8|2,0:0|0:0,0:0:0:0:
479,153,124634,2,0,P|459:94|426:63,2,90,2|2|8,0:0|0:0|0:0,0:0:0:0:
465,260,125920,2,0,L|419:251,1,45,2|2,0:0|0:0,0:0:0:0:
377,283,126348,6,0,L|275:287,1,90,6|2,0:0|0:0,0:0:0:0:
210,362,127205,1,8,0:0:0:0:
178,258,127634,1,2,0:0:0:0:
178,258,128062,2,0,B|219:231|219:231|264:195,2,90,0|8|8,0:0|0:0|0:0,0:0:0:0:
91,323,129348,1,4,0:3:0:0:
93,214,129777,6,0,B|99:168|127:133|127:133|184:116|236:122,1,180,4|8,0:0|0:0,0:0:0:0:
324,124,131062,1,2,0:0:0:0:
372,220,131491,2,0,P|385:266|392:314,2,90,0|2|8,0:0|0:0|0:0,0:0:0:0:
448,143,132777,1,2,0:0:0:0:
463,36,133205,6,0,P|407:41|356:33,1,90,6|2,0:0|0:0,0:0:0:0:
320,34,133848,2,0,P|319:78|319:124,1,90,2|2,0:0|0:0,0:0:0:0:
299,174,134491,2,0,B|263:193|263:193|214:189|214:189|173:204|173:204|127:198,1,180,6|0,0:0|0:0,0:0:0:0:
33,252,135777,1,8,0:0:0:0:
66,354,136205,1,2,0:0:0:0:
151,287,136634,6,0,B|201:293|201:293|252:324,1,90,6|0,0:0|0:0,0:0:0:0:
339,342,137491,2,0,B|389:336|389:336|440:305,1,90,8|2,0:0|0:0,0:0:0:0:
461,276,138134,1,12,0:0:0:0:
461,276,138348,2,0,P|470:222|483:166,1,90,0|2,0:0|0:0,0:0:0:0:
377,147,139205,2,0,P|367:200|355:257,1,90,8|2,0:0|0:0,0:0:0:0:
349,288,139848,1,2,0:0:0:0:
349,288,140062,6,0,P|264:308|202:220,1,180,6|8,0:0|0:0,0:0:0:0:
99,269,141348,2,0,L|97:224,1,45,2|12,0:0|0:0,0:0:0:0:
138,188,141777,2,0,P|186:170|244:142,1,90,0|8,0:0|0:0,0:0:0:0:
275,154,142420,2,0,P|319:157|364:158,1,90,8|8,0:0|0:0,0:0:0:0:
417,146,143062,2,0,L|415:101,1,45,2|0,0:0|0:0,0:0:0:0:
384,56,143491,6,0,P|339:52|294:51,2,90,6|2|8,0:0|0:0|0:0,0:0:0:0:
480,105,144777,1,2,0:0:0:0:
480,105,144991,1,2,0:0:0:0:
473,212,145420,1,2,0:0:0:0:
473,212,145634,2,0,P|457:254|442:303,1,90,2|8,0:0|0:0,0:0:0:0:
353,237,146491,2,0,L|306:272,1,45,2|4,0:0|0:3,0:0:0:0:
299,315,146920,6,0,P|251:323|187:327,1,90,6|2,0:0|0:0,0:0:0:0:
110,282,147777,1,8,0:0:0:0:
110,282,147991,2,0,P|112:230|110:170,1,90,2|4,0:0|0:3,0:0:0:0:
215,223,148848,1,2,0:0:0:0:
215,223,149062,1,2,0:0:0:0:
316,186,149491,6,0,L|361:204,1,45,2|2,0:0|0:0,0:0:0:0:
411,195,149920,2,0,L|458:191,1,45,2|2,0:0|0:0,0:0:0:0:
500,160,150348,2,0,B|476:89|476:89|423:45,1,135,6|0,0:0|0:0,0:0:0:0:
378,68,151205,2,0,B|333:77|333:77|276:76,1,90,8|2,0:0|0:0,0:0:0:0:
238,95,151848,2,0,B|193:94|193:94|148:103,1,90,2|10,0:0|0:0,0:0:0:0:
103,132,152491,1,2,0:0:0:0:
178,209,152920,6,0,L|129:215,1,45,8|2,0:0|0:0,0:0:0:0:
90,247,153349,2,0,L|50:273,1,45,2|0,0:0|0:0,0:0:0:0:
29,320,153777,2,0,B|84:370|84:370|152:371,1,135,6|0,0:0|0:0,0:0:0:0:
190,342,154634,2,0,B|235:336|235:336|292:341,1,90,8|2,0:0|0:0,0:0:0:0:
331,325,155277,2,0,B|375:329|375:329|421:323,1,90,2|8,0:0|0:0,0:0:0:0:
472,306,155920,2,0,B|471:266|471:266|476:206,2,90,2|8|2,0:0|0:0|0:0,0:0:0:0:
378,251,157205,6,0,P|327:254|271:266,1,90,6|0,0:0|0:0,0:0:0:0:
273,314,157848,1,2,0:0:0:0:
273,314,158062,2,0,P|222:317|159:317,1,90,8|0,0:0|0:0,0:0:0:0:
129,325,158705,2,0,P|137:277|136:214,1,90,2|8,0:0|0:0,0:0:0:0:
176,197,159348,2,0,P|220:196|265:188,2,90,0|8|2,0:0|0:0|0:0,0:0:0:0:
227,101,160634,6,0,P|319:113|360:198,1,180,6|8,0:0|0:0,0:0:0:0:
464,207,161920,1,2,0:0:0:0:
464,207,162134,2,0,P|450:140|434:102,1,90,6|8,0:0|0:0,0:0:0:0:
427,68,162777,2,0,P|416:49|406:29,2,45,2|2|8,0:0|0:0|0:0,0:0:0:0:
350,144,163634,2,0,P|348:121|345:99,1,45,2|0,0:0|0:0,0:0:0:0:
311,57,164062,6,0,B|243:67|243:67|169:69,1,135,6|2,0:0|0:0,0:0:0:0:
126,89,164920,2,0,P|112:129|99:181,1,90,8|2,0:0|0:0,0:0:0:0:
104,228,165562,1,0,0:0:0:0:
104,228,165777,2,0,B|172:218|172:218|246:216,1,135,0|2,0:0|0:0,0:0:0:0:
281,248,166634,1,8,0:0:0:0:
336,155,167062,1,2,0:0:0:0:
419,223,167491,6,0,P|436:179|437:133,1,90,6|2,0:0|0:0,0:0:0:0:
416,87,168134,1,2,0:0:0:0:
336,155,168562,1,2,0:0:0:0:
281,248,168991,2,0,P|235:242|170:237,1,90,6|8,0:0|0:0,0:0:0:0:
143,263,169634,2,0,P|111:295|81:329,1,90,8|8,0:0|0:0,0:0:0:0:
3,254,170491,1,2,0:0:0:0:
77,176,170920,6,0,P|53:135|11:109,1,90,6|0,0:0|0:0,0:0:0:0:
104,45,171777,2,0,P|150:48|205:42,1,90,8|2,0:0|0:0,0:0:0:0:
247,46,172420,2,0,P|224:109|219:176,1,135,12|2,0:0|0:0,0:0:0:0:
317,130,173491,1,8,0:0:0:0:
391,208,173920,1,2,0:0:0:0:
406,101,174348,6,0,P|364:50|300:35,1,135,6|2,0:0|0:0,0:0:0:0:
247,46,175205,2,0,P|206:75|182:116,1,90,8|2,0:0|0:0,0:0:0:0:
193,161,175848,2,0,P|190:203|175:254,1,90,6|8,0:0|0:0,0:0:0:0:
142,290,176491,2,0,P|184:294|233:312,1,90,4|8,0:0|0:0,0:0:0:0:
322,364,177348,1,2,0:0:0:0:
374,269,177777,6,0,P|403:305|425:346,1,90,6|0,0:0|0:0,0:0:0:0:
469,373,178420,2,0,P|476:328|475:283,1,90,2|2,0:0|0:0,0:0:0:0:
472,229,179062,1,2,0:0:0:0:
451,179,179277,2,0,P|378:156|314:200,1,135,6|2,0:0|0:0,0:0:0:0:
294,282,180348,1,2,0:0:0:0:
226,197,180777,2,0,P|203:204|186:216,1,45,8|2,0:0|0:0,0:0:0:0:
154,260,181205,6,0,B|117:217|117:217|73:226|10:198|6:158,1,180,6|8,0:0|0:0,0:0:0:0:
97,107,182491,1,2,0:0:0:0:
97,107,182705,2,0,P|143:111|192:141,1,90,2|2,0:0|0:0,0:0:0:0:
232,149,183348,2,0,L|283:145,1,45,8|2,0:0|0:0,0:0:0:0:
330,148,183777,2,0,L|381:163,2,45,8|8|4,0:0|0:0|0:3,0:0:0:0:
298,251,184634,6,0,B|309:292|309:292|340:332,2,90,4|2|8,0:0|0:0|0:0,0:0:0:0:
213,318,185920,1,2,0:0:0:0:
213,318,186134,1,2,0:0:0:0:
118,266,186562,1,8,0:0:0:0:
118,266,186776,1,2,0:0:0:0:
96,160,187205,2,0,P|67:173|43:197,2,45,8|4|2,0:0|0:3|0:3,0:0:0:0:
256,192,188062,12,0,194920,0:0:0:0:
256,192,218920,12,8,220420,0:0:0:0:
111,175,221491,6,0,B|153:161|153:161|236:176|233:221,1,135,2|0,0:0|0:0,0:0:0:0:
247,254,222348,6,0,P|328:291|407:258,1,180,6|8,0:0|0:0,0:0:0:0:
480,178,223634,1,2,0:0:0:0:
480,178,223848,1,2,0:0:0:0:
421,87,224277,1,8,0:0:0:0:
421,87,224491,2,0,P|377:77|317:71,2,90,2|8|2,0:0|0:0|0:0,0:0:0:0:
480,178,225777,6,0,P|366:188|297:169,1,180,6|8,0:0|0:0,0:0:0:0:
197,152,227062,2,0,L|170:200,1,45,2|2,0:0|0:0,0:0:0:0:
152,240,227491,2,0,P|208:255|251:273,1,90,2|2,0:0|0:0,0:0:0:0:
314,343,228348,1,8,0:0:0:0:
422,343,228777,1,2,0:0:0:0:
360,254,229205,6,0,B|332:149|332:149|343:117,1,135,6|2,0:0|0:0,0:0:0:0:
375,82,230062,2,0,P|320:74|275:82,1,90,8|2,0:0|0:0,0:0:0:0:
213,159,230920,2,0,P|168:163|124:155,2,90,2|2|8,0:0|0:0|0:0,0:0:0:0:
320,158,232205,2,0,L|379:194,1,45,2|2,0:0|0:0,0:0:0:0:
397,219,232634,6,0,L|388:326,1,90,6|2,0:0|0:0,0:0:0:0:
293,357,233491,1,8,0:0:0:0:
189,326,233920,2,0,L|135:298,1,45,2|6,0:3|0:0,0:0:0:0:
96,291,234348,2,0,P|97:238|96:179,1,90,0|8,0:0|0:0,0:0:0:0:
145,178,234991,2,0,P|197:179|257:178,1,90,8|2,0:0|0:0,0:0:0:0:
284,201,235634,2,0,L|336:205,1,45,4|2,0:3|0:3,0:0:0:0:
382,207,236062,6,0,P|452:178|474:70,1,180,4|8,0:0|0:0,0:0:0:0:
372,98,237348,2,0,B|330:118|330:118|273:131,2,90,2|0|2,0:0|0:0|0:0,0:0:0:0:
478,83,238634,2,0,P|483:126|482:190,1,90,8|2,0:0|0:0,0:0:0:0:
476,226,239277,1,2,0:0:0:0:
476,226,239491,6,0,P|424:228|370:234,1,90,6|2,0:0|0:0,0:0:0:0:
341,261,240134,2,0,P|296:265|251:266,1,90,2|2,0:0|0:0,0:0:0:0:
200,285,240777,2,0,B|241:206|241:206|247:114,1,180,6|0,0:0|0:0,0:0:0:0:
150,67,242062,2,0,L|87:136,1,90,8|2,0:0|0:0,0:0:0:0:
56,236,242920,6,0,P|46:284|60:346,2,90,6|0|8,0:0|0:0|0:0,0:0:0:0:
89,133,244205,2,0,L|102:87,1,45,2|12,0:0|0:0,0:0:0:0:
150,67,244634,2,0,L|244:77,1,90,0|2,0:0|0:0,0:0:0:0:
284,174,245491,2,0,L|379:167,1,90,8|4,0:0|0:3,0:0:0:0:
421,193,246134,1,2,0:3:0:0:
421,193,246348,6,0,L|434:93,1,90,6|0,0:0|0:0,0:0:0:0:
328,71,247205,2,0,P|284:69|236:77,1,90,8|2,0:0|0:0,0:0:0:0:
195,109,247848,2,0,P|181:150|180:199,1,90,12|8,0:0|0:0,0:0:0:0:
197,247,248491,1,8,0:0:0:0:
197,247,248705,2,0,P|251:247|307:274,1,90,8|8,0:0|0:0,0:0:0:0:
332,286,249348,2,0,L|398:293,1,45,2|0,0:0|0:0,0:0:0:0:
428,306,249777,6,0,B|461:338|461:338|519:372,2,90,6|2|8,0:0|0:0|0:0,0:0:0:0:
419,198,251062,1,2,0:0:0:0:
419,198,251277,1,2,0:0:0:0:
341,123,251705,1,8,0:0:0:0:
341,123,251920,1,2,0:0:0:0:
242,165,252348,2,0,L|168:149,2,67.5,8|8|8,0:0|0:0|0:0,0:0:0:0:
282,200,253205,6,0,L|269:312,1,90,6|2,0:0|0:0,0:0:0:0:
372,328,254062,2,0,P|394:355|424:377,2,67.5,8|8|8,0:0|0:0|0:0,0:0:0:0:
395,278,254920,2,0,P|409:210|398:143,1,135,2|2,0:0|0:0,0:0:0:0:
359,109,255777,2,0,L|276:109,2,67.5,8|8|8,0:0|0:0|0:0,0:0:0:0:
399,145,256634,6,0,P|408:212|395:278,1,135,6|2,0:0|0:0,0:0:0:0:
372,328,257491,2,0,P|321:320|272:321,1,90,8|2,0:0|0:0,0:0:0:0:
230,333,258134,2,0,P|185:332|140:325,1,90,2|8,0:0|0:0,0:0:0:0:
87,336,258777,1,2,0:0:0:0:
97,228,259205,2,0,B|127:216|127:216|156:225|156:225|180:211|180:211|213:199|245:204,1,135,8|8,0:0|0:0,0:0:0:0:
277,204,260062,6,0,L|331:216,1,45,6|8,0:0|0:0,0:0:0:0:
371,231,260491,2,0,B|397:186|397:186|409:142,1,90,2|8,0:0|0:0,0:0:0:0:
424,42,261348,1,2,0:3:0:0:
424,42,261562,2,0,L|320:69,1,90,6|0,0:0|0:0,0:0:0:0:
288,89,262205,1,8,0:0:0:0:
226,178,262634,2,0,L|226:242,2,45,8|4|4,0:0|0:3|0:3,0:0:0:0:
172,84,263491,6,0,L|107:99,1,45,6|8,0:0|0:0,0:0:0:0:
86,129,263920,2,0,B|85:167|85:167|78:185|78:185|77:236,1,90,2|8,0:0|0:0,0:0:0:0:
101,322,264777,1,2,0:0:0:0:
101,322,264991,2,0,B|133:322|133:322|151:330|151:330|189:330,1,90,2|8,0:0|0:0,0:0:0:0:
242,342,265634,2,0,P|290:335|334:333,1,90,2|8,0:0|0:0,0:0:0:0:
434,298,266491,2,0,P|436:271|432:239,1,45,2|2,0:0|0:0,0:0:0:0:
406,206,266920,6,0,P|363:218|297:224,1,90,6|2,0:0|0:0,0:0:0:0:
264,218,267562,2,0,P|269:173|282:130,1,90,2|2,0:0|0:0,0:0:0:0:
231,111,268205,2,0,P|144:115|88:182,1,180,6|0,0:0|0:0,0:0:0:0:
86,290,269491,2,0,B|119:288|142:308|142:308|173:297|215:310,1,135,8|2,0:0|0:0,0:0:0:0:
267,323,270348,6,0,B|265:277|265:277|249:236|249:236|255:194|255:194|246:134,1,180,4|8,0:0|0:0,0:0:0:0:
249,38,271634,1,2,0:0:0:0:
249,38,271848,2,0,B|321:38|321:38|348:64,1,90,6|8,0:0|0:0,0:0:0:0:
378,81,272491,2,0,L|431:87,1,45,2|2,0:0|0:0,0:0:0:0:
451,131,272920,2,0,P|438:201|438:277,1,135,8|2,0:0|0:0,0:0:0:0:
396,300,273777,6,0,P|334:295|266:323,1,135,6|2,0:0|0:0,0:0:0:0:
217,343,274634,2,0,L|117:349,1,90,8|2,0:0|0:0,0:0:0:0:
73,340,275277,2,0,L|88:224,1,90,6|8,0:0|0:0,0:0:0:0:
96,197,275920,1,2,0:0:0:0:
198,230,276348,2,0,L|267:226,2,60,8|8|2,0:0|0:0|0:0,0:0:0:0:
256,192,277420,12,0,284062,0:0:0:0:
