osu file format v14

[General]
AudioFilename: kuroneko.mp3
AudioLeadIn: 0
PreviewTime: 87777
Countdown: 0
SampleSet: Soft
StackLeniency: 0.9
Mode: 0
LetterboxInBreaks: 0
WidescreenStoryboard: 0

[Editor]
DistanceSpacing: 1.4
BeatDivisor: 8
GridSize: 4
TimelineZoom: 1

[Metadata]
Title:Kuroneko
TitleUnicode:黒猫
Artist:Hanatan
ArtistUnicode:花たん
Creator:Lavender
Version:Rakuen's Hard
Source:
Tags:Chers petits chats~親愛なる愛猫たちへ~ Akagami 赤髪 Raptor Nexus Utility Vocaloid GUMI zj0924 Rakuen Narcissu
BeatmapID:722017
BeatmapSetID:242220

[Difficulty]
HPDrainRate:4.5
CircleSize:4
OverallDifficulty:5.5
ApproachRate:6.5
SliderMultiplier:2.6
SliderTickRate:1

[Events]
//Background and Video events
0,0,"kuroneko.png",0,0
Video,0,"kuroneko.flv"
//Break Periods
2,194920,207659
//Storyboard Layer 0 (Background)
//Storyboard Layer 1 (Fail)
//Storyboard Layer 2 (Pass)
//Storyboard Layer 3 (Foreground)
//Storyboard Sound Samples

[TimingPoints]
2920,857.142857142858,4,2,1,25,1,0
28634,-111.111111111111,4,2,1,25,0,0
57777,-105.263157894737,4,2,1,25,0,0
87348,-105.263157894737,4,2,2,5,0,0
87777,-125,4,2,11,40,0,0
88420,-125,4,2,11,20,0,0
88634,-100,4,2,11,60,0,1
143491,-100,4,2,11,60,0,0
150348,-100,4,2,11,60,0,1
188062,-100,4,2,11,60,0,0
188170,-100,4,2,11,40,0,0
189777,-100,4,2,11,35,0,0
191491,-100,4,2,11,30,0,0
192777,-100,4,2,11,25,0,0
193848,-100,4,2,11,5,0,0
208634,-125,4,2,11,20,0,0
218920,-111.111111111111,4,2,11,30,0,0
219777,-111.111111111111,4,2,11,40,0,0
220420,-111.111111111111,4,2,11,50,0,0
221491,-125,4,2,11,40,0,0
222134,-125,4,2,11,20,0,0
222348,-100,4,2,11,60,0,1
277420,-100,4,2,11,60,0,0
278920,-100,4,2,11,45,0,0
280634,-100,4,2,11,40,0,0
282348,-100,4,2,11,35,0,0
284062,-100,4,2,11,30,0,0
285777,-100,4,2,11,25,0,0
287491,-100,4,2,11,20,0,0
289205,-100,4,2,11,15,0,0
290920,-100,4,2,11,10,0,0
291777,-100,4,2,11,5,0,0

[Colours]
Combo1 : 192,192,192
Combo2 : 128,255,255
Combo3 : 255,255,128
Combo4 : 128,128,255
Combo5 : 255,128,255

[HitObjects]
116,164,29920,5,0,0:0:0:0:
224,284,30348,2,0,L|368:272,1,116.999996429443
380,204,30991,1,0,0:0:0:0:
392,124,31205,2,0,L|275:133,1,116.999996429443
116,164,32062,2,0,P|104:104|140:32,1,116.999996429443
200,32,32705,1,0,0:0:0:0:
276,60,32920,2,0,P|288:120|252:192,1,116.999996429443
176,304,33777,6,0,P|117:299|59:305,1,116.999996429443
153,172,34634,2,0,P|211:176|269:170,1,116.999996429443
392,64,35491,1,0,0:0:0:0:
456,216,35920,1,0,0:0:0:0:
408,280,36134,1,0,0:0:0:0:
332,248,36348,2,0,P|302:247|273:251,1,58.4999982147217
200,216,36777,2,0,P|178:236|161:259,1,58.4999982147217
92,304,37205,6,0,L|52:164,1,116.999996429443
104,124,37848,1,0,0:0:0:0:
184,132,38062,2,0,P|248:116|304:92,1,116.999996429443
460,116,38920,1,0,0:0:0:0:
360,244,39348,2,0,L|376:316,1,58.4999982147217
300,340,39777,2,0,L|287:282,1,58.4999982147217
204,276,40205,2,0,L|216:333,1,58.4999982147217
136,340,40634,6,0,L|104:200,1,116.999996429443
176,80,41491,1,0,0:0:0:0:
20,132,41920,2,0,P|48:144|88:152,1,58.4999982147217
109,225,42348,2,0,L|261:189,1,116.999996429443
348,300,43205,1,0,0:0:0:0:
222,198,43634,1,0,0:0:0:0:
275,44,44062,6,0,P|333:36|391:43,1,116.999996429443
444,108,44705,1,0,0:0:0:0:
456,188,44920,2,0,P|398:195|340:188,1,116.999996429443
212,288,45777,1,0,0:0:0:0:
128,148,46205,2,0,L|64:156,1,58.4999982147217
56,236,46634,2,0,L|171:220,1,116.999996429443
332,176,47491,6,0,P|324:112|300:44,1,116.999996429443
144,76,48348,2,0,P|116:72|80:60,1,58.4999982147217
36,128,48777,2,0,P|92:148|172:156,2,116.999996429443
64,288,50062,1,0,0:0:0:0:
224,256,50491,1,0,0:0:0:0:
224,256,50920,6,0,L|364:272,1,116.999996429443
452,152,51777,2,0,L|335:138,2,116.999996429443
408,308,53062,1,0,0:0:0:0:
280,208,53491,1,0,0:0:0:0:
128,267,53920,2,0,P|133:239|142:211,1,58.4999982147217
160,132,54348,6,0,L|24:140,2,116.999996429443
284,24,55634,1,0,0:0:0:0:
440,72,56062,2,0,L|448:208,2,116.999996429443
356,68,57134,1,0,0:0:0:0:
280,100,57348,2,0,P|248:88|212:60,1,58.4999982147217
148,40,57777,6,0,P|88:60|32:96,1,123.499996702194
96,156,58420,2,0,P|116:216|152:272,1,123.499996702194
232,284,59062,2,0,P|251:259|265:232,1,61.7499983510972
344,268,59491,2,0,L|492:252,2,123.499996702194
296,196,60562,1,0,0:0:0:0:
348,128,60777,2,0,L|420:120,1,61.7499983510972
420,36,61205,6,0,L|297:49,1,123.499996702194
256,124,61848,1,0,0:0:0:0:
214,49,62062,2,0,L|92:36,1,123.499996702194
48,112,62705,2,0,L|170:125,1,123.499996702194
255,123,63348,2,0,P|259:154|257:185,1,61.7499983510972
200,252,63777,2,0,P|256:272|340:228,1,123.499996702194
460,156,64634,6,0,P|404:136|320:180,1,123.499996702194
264,188,65277,2,0,L|224:56,1,123.499996702194
148,36,65920,2,0,P|112:44|72:60,1,61.7499983510972
140,124,66348,2,0,L|111:244,2,123.499996702194
288,36,67634,1,0,0:0:0:0:
140,124,68062,6,0,P|196:149|245:186,1,123.499996702194
236,272,68705,1,0,0:0:0:0:
304,328,68920,2,0,P|361:306|422:297,1,123.499996702194
468,224,69562,1,0,0:0:0:0:
464,136,69777,2,0,B|420:148|420:148|344:129,1,123.499996702194
167,129,70634,2,0,B|92:148|92:148|48:136,1,123.499996702194
196,48,71491,6,0,P|244:92|244:172,1,123.499996702194
196,212,72134,1,0,0:0:0:0:
152,288,72348,2,0,L|296:296,1,123.499996702194
392,168,73205,2,0,L|268:161,1,123.499996702194
196,212,73848,1,0,0:0:0:0:
124,164,74062,2,0,L|131:40,1,123.499996702194
304,59,74920,6,0,P|365:51|425:60,1,123.499996702194
468,136,75562,1,0,0:0:0:0:
416,204,75777,2,0,P|407:264|415:325,1,123.499996702194
328,332,76420,1,0,0:0:0:0:
268,268,76634,2,0,P|276:207|268:146,1,123.499996702194
96,144,77491,2,0,P|144:182|201:205,1,123.499996702194
292,56,78348,6,0,P|234:78|185:116,1,123.499996702194
201,205,78991,1,0,0:0:0:0:
264,268,79205,2,0,P|325:276|381:300,1,123.499996702194
456,256,79848,2,0,L|492:108,1,123.499996702194
412,88,80491,2,0,L|396:152,1,61.7499983510972
316,176,80920,2,0,P|278:127|255:69,1,123.499996702194
140,196,81777,6,0,P|131:257|107:313,2,123.499996702194
36,60,83062,1,0,0:0:0:0:
108,112,83277,2,0,L|244:92,1,123.499996702194
296,148,83920,2,0,P|336:152|368:148,1,61.7499983510972
424,92,84348,1,0,0:0:0:0:
480,156,84562,1,0,0:0:0:0:
416,216,84777,1,0,0:0:0:0:
410,300,84991,1,0,0:0:0:0:
488,264,85205,5,0,0:0:0:0:
256,192,85420,12,0,87348,0:0:0:0:
132,252,87777,6,0,P|208:244|296:260,1,156,4|0,0:3|0:0,0:0:0:0:
376,276,88634,6,0,L|372:124,1,130,4|0,0:0|0:0,0:0:0:0:
296,96,89277,1,0,0:0:0:0:
212,132,89491,2,0,B|160:140|160:140|84:120,1,130,8|0,0:0|0:0,0:0:0:0:
40,200,90134,2,0,L|165:232,1,130
196,319,90777,2,0,P|222:301|244:277,1,65
328,312,91205,2,0,P|360:311|392:316,1,65,8|0,0:0|0:0,0:0:0:0:
491,219,91634,2,0,P|459:222|428:232,1,65,0|8,0:0|0:0,0:0:0:0:
364,168,92062,6,0,P|276:148|380:112,1,260,4|8,0:0|0:0,0:0:0:0:
491,219,93348,1,0,0:0:0:0:
432,288,93562,1,0,0:0:0:0:
348,256,93777,2,0,B|264:272|264:272|196:248,1,130
160,188,94420,1,0,0:0:0:0:
75,220,94634,2,0,P|48:278|46:342,1,130,8|0,0:0|0:0,0:0:0:0:
136,368,95277,1,2,0:0:0:0:
200,300,95491,6,0,L|336:312,1,130,4|0,0:0|0:0,0:0:0:0:
384,236,96134,1,0,0:0:0:0:
392,144,96348,2,0,L|262:132,1,130,8|0,0:0|0:0,0:0:0:0:
188,184,96991,1,0,0:0:0:0:
116,240,97205,1,0,0:0:0:0:
192,72,97634,1,0,0:0:0:0:
208,252,98062,1,8,0:0:0:0:
56,152,98491,2,0,P|92:148|148:160,1,65,0|8,0:0|0:0,0:0:0:0:
116,240,98920,6,0,L|80:380,1,130,4|0,0:0|0:0,0:0:0:0:
180,344,99562,1,0,0:0:0:0:
256,296,99777,2,0,P|320:303|383:319,1,130,8|4,0:0|0:0,0:0:0:0:
440,248,100420,1,8,0:0:0:0:
368,192,100634,2,0,P|303:201|238:202,1,130
256,296,101277,5,0,0:0:0:0:
256,296,101384,1,8,0:0:0:0:
256,296,101491,2,0,L|273:359,1,65,8|4,0:3|0:3,0:0:0:0:
160,312,101920,2,0,L|177:249,1,65,8|0,0:3|0:0,0:0:0:0:
124,172,102348,6,0,P|188:152|264:156,1,130,4|0,0:0|0:0,0:0:0:0:
324,208,102991,1,0,0:0:0:0:
352,296,103205,1,8,0:0:0:0:
452,144,103634,2,0,L|484:80,1,65
408,32,104062,2,0,L|378:90,1,65
288,100,104491,2,0,P|261:81|239:57,1,65
164,108,104920,2,0,P|127:161|104:222,1,130,8|0,0:0|0:0,0:0:0:0:
164,288,105562,1,8,0:0:0:0:
252,268,105777,6,0,B|292:252|352:268|352:268|335:244,1,130,4|0,0:0|0:0,0:0:0:0:
412,196,106420,1,0,0:0:0:0:
436,108,106634,2,0,L|348:104,2,65,8|0|4,0:0|0:0|0:0,0:0:0:0:
396,284,107491,2,0,L|308:280,1,65
300,196,107920,2,0,L|235:193,1,65
156,240,108348,2,0,P|145:177|184:116,1,130,8|0,0:0|0:0,0:0:0:0:
256,76,108991,1,2,0:0:0:0:
336,120,109205,6,0,L|488:112,1,130,4|0,0:0|0:0,0:0:0:0:
512,192,109848,1,0,0:0:0:0:
492,280,110062,2,0,L|362:286,1,130,8|0,0:0|0:0,0:0:0:0:
296,352,110705,2,0,L|180:293,1,130,4|0,0:0|0:0,0:0:0:0:
208,208,111348,2,0,P|240:198|269:183,1,65
208,116,111777,2,0,P|179:100|148:90,1,65,8|0,0:0|0:0,0:0:0:0:
128,180,112205,2,0,P|112:208|102:239,1,65
104,332,112634,6,0,B|200:312|200:312|172:295,1,130,4|0,0:0|0:0,0:0:0:0:
208,208,113277,1,0,0:0:0:0:
208,116,113491,2,0,B|256:104|308:116|308:116|288:88,1,130,10|0,0:0|0:0,0:0:0:0:
356,28,114134,2,0,B|412:108|412:108|419:76,1,130,12|0,0:0|0:0,0:0:0:0:
500,116,114777,6,0,L|480:204,1,65
481,201,115098,1,8,0:0:0:0:
475,222,115205,2,0,P|443:216|413:203,1,65,8|8,0:3|0:3,0:0:0:0:
324,192,115634,2,0,P|337:162|342:130,1,65,8|0,0:3|0:0,0:0:0:0:
372,44,116062,6,0,L|216:56,1,130,4|0,0:0|0:0,0:0:0:0:
176,116,116705,1,0,0:0:0:0:
112,180,116920,2,0,P|173:199|235:183,1,130,8|0,0:0|0:0,0:0:0:0:
300,248,117562,2,0,P|319:186|303:124,1,130
264,44,118205,2,0,L|328:37,1,65
452,114,118634,2,0,L|388:104,1,65,8|0,0:0|0:0,0:0:0:0:
319,202,119062,2,0,L|384:196,1,65
296,292,119491,6,0,P|254:385|216:290,1,260,4|8,0:0|0:0,0:0:0:0:
256,112,120777,1,0,0:0:0:0:
192,176,120991,1,0,0:0:0:0:
104,160,121205,2,0,L|72:24,1,130
164,24,121848,1,0,0:0:0:0:
252,44,122062,2,0,L|281:170,1,130,8|0,0:0|0:0,0:0:0:0:
256,260,122705,1,0,0:0:0:0:
180,312,122920,6,0,P|116:300|51:303,1,130,4|0,0:0|0:0,0:0:0:0:
12,224,123562,1,0,0:0:0:0:
40,136,123777,2,0,P|103:147|168:144,1,130,8|0,0:0|0:0,0:0:0:0:
240,88,124420,1,0,0:0:0:0:
308,148,124634,1,0,0:0:0:0:
208,300,125062,1,0,0:0:0:0:
368,216,125491,1,8,0:0:0:0:
184,212,125920,2,0,P|224:212|272:232,1,65,2|8,0:0|0:0,0:0:0:0:
207,300,126348,6,0,P|144:293|100:247,1,130,4|0,0:0|0:0,0:0:0:0:
184,212,126991,1,0,0:0:0:0:
268,176,127205,2,0,P|224:129|160:123,1,130,8|2,0:0|0:0,0:0:0:0:
75,160,127848,1,12,0:0:0:0:
4,112,128062,2,0,P|4:80|12:44,2,65
75,160,128705,5,0,0:0:0:0:
76,184,128812,1,8,0:0:0:0:
76,208,128920,2,0,L|11:208,1,65,8|4,0:3|0:3,0:0:0:0:
64,300,129348,2,0,L|129:300,1,65,4|0,0:3|0:0,0:0:0:0:
208,344,129777,6,0,P|224:281|208:219,1,130,4|0,0:0|0:0,0:0:0:0:
148,152,130420,1,0,0:0:0:0:
88,84,130634,2,0,P|150:100|212:84,1,130,8|0,0:0|0:0,0:0:0:0:
288,36,131277,1,0,0:0:0:0:
359,92,131491,2,0,P|392:87|424:91,1,65
392,176,131920,1,0,0:0:0:0:
392,176,132134,2,0,P|396:208|392:240,2,65,0|8|0,0:0|0:0|0:0,0:0:0:0:
308,208,132777,2,0,P|275:212|243:208,1,65
156,184,133205,6,0,L|164:36,1,130,4|0,0:0|0:0,0:0:0:0:
252,28,133848,2,0,L|248:100,1,65,0|8,0:0|0:0,0:0:0:0:
248,184,134277,1,0,0:0:0:0:
156,184,134491,2,0,P|92:171|28:183,1,130,4|0,0:0|0:0,0:0:0:0:
24,276,135134,1,0,0:0:0:0:
92,340,135348,2,0,P|155:352|219:340,1,130,0|8,0:0|0:0,0:0:0:0:
340,204,136205,2,0,L|424:212,1,65,0|2,0:0|0:0,0:0:0:0:
448,128,136634,6,0,P|385:112|327:82,1,130,4|0,0:0|0:0,0:0:0:0:
256,28,137277,1,0,0:0:0:0:
184,82,137491,2,0,P|126:112|63:128,1,130,8|0,0:0|0:0,0:0:0:0:
20,208,138134,1,12,0:0:0:0:
80,276,138348,2,0,P|84:308|80:340,1,65
164,240,138777,2,0,P|159:207|163:175,1,65
248,208,139205,1,8,0:0:0:0:
300,284,139420,1,8,0:3:0:0:
380,240,139634,1,4,0:3:0:0:
470,256,139849,1,4,0:3:0:0:
440,172,140062,6,0,L|468:104,2,65,4|0|0,0:0|0:0|0:0,0:0:0:0:
380,240,140705,1,0,0:0:0:0:
300,192,140920,2,0,L|148:192,1,130,8|0,0:0|0:0,0:0:0:0:
136,108,141562,2,0,L|266:108,1,130,12|8,0:0|0:0,0:0:0:0:
336,48,142205,1,0,0:0:0:0:
392,120,142420,5,0,0:0:0:0:
400,140,142527,1,0,0:0:0:0:
408,160,142634,2,0,P|440:155|470:144,1,65,8|8,0:0|0:0,0:0:0:0:
368,240,143062,2,0,P|338:227|306:221,1,65,4|0,0:3|0:0,0:0:0:0:
312,312,143491,5,4,0:0:0:0:
256,192,143705,12,4,146920,0:0:0:0:
36,168,147348,6,0,L|32:76,1,65
104,44,147777,1,8,0:0:0:0:
188,76,147991,1,2,0:0:0:0:
208,164,148205,1,0,0:0:0:0:
290,128,148419,1,8,0:0:0:0:
290,128,148848,2,0,P|323:127|369:138,2,65,2|2|2,0:0|0:0|0:0,0:0:0:0:
316,216,149491,5,4,0:3:0:0:
236,256,149705,1,0,0:0:0:0:
156,296,149920,2,0,L|148:360,1,65,4|0,0:3|0:0,0:0:0:0:
76,251,150348,6,0,P|96:191|77:130,1,130,4|0,0:0|0:0,0:0:0:0:
32,52,150991,1,0,0:0:0:0:
32,52,151205,2,0,L|184:48,1,130,8|0,0:0|0:0,0:0:0:0:
172,140,151848,2,0,P|232:144|312:100,1,130,4|0,0:0|0:0,0:0:0:0:
304,24,152491,2,0,P|334:34|361:52,1,65
452,60,152920,1,8,0:0:0:0:
444,152,153134,1,0,0:0:0:0:
436,244,153348,2,0,P|405:233|378:215,1,65,2|0,0:0|0:0,0:0:0:0:
336,136,153777,6,0,B|290:135|238:158|238:158|252:132,1,130,4|0,0:0|0:0,0:0:0:0:
272,44,154420,1,0,0:0:0:0:
184,72,154634,2,0,B|136:160|136:160|132:130,1,130,8|0,0:0|0:0,0:0:0:0:
40,116,155277,2,0,L|60:252,1,130,4|0,0:0|0:0,0:0:0:0:
132,303,155920,2,0,P|163:296|196:295,1,65,2|0,0:0|0:0,0:0:0:0:
244,220,156348,2,0,P|212:212|179:211,1,65,8|0,0:0|0:0,0:0:0:0:
132,132,156777,1,0,0:0:0:0:
280,28,157205,6,0,P|344:32|409:26,1,130,4|0,0:0|0:0,0:0:0:0:
472,92,157848,1,0,0:0:0:0:
448,180,158062,2,0,P|383:175|318:181,1,130,8|0,0:0|0:0,0:0:0:0:
260,248,158705,2,0,P|232:188|252:120,1,130,4|0,0:0|0:0,0:0:0:0:
220,40,159348,2,0,L|155:42,1,65
75,129,159777,2,0,L|140:132,1,65,8|0,0:0|0:0,0:0:0:0:
148,224,160205,2,0,P|135:254|132:286,1,65,2|0,0:0|0:0,0:0:0:0:
200,348,160634,6,0,L|356:328,1,130,4|0,0:0|0:0,0:0:0:0:
408,288,161277,1,0,0:0:0:0:
460,212,161491,2,0,L|331:194,1,130,8|0,0:0|0:0,0:0:0:0:
308,108,162134,1,4,0:0:0:0:
120,40,162562,1,0,0:0:0:0:
68,116,162777,1,4,0:3:0:0:
108,196,162991,1,4,0:3:0:0:
188,152,163205,2,0,L|268:160,1,65,10|0,0:0|0:0,0:0:0:0:
292,240,163634,2,0,L|227:250,1,65
220,272,163955,1,0,0:0:0:0:
208,292,164062,6,0,P|144:288|72:264,1,130,4|0,0:0|0:0,0:0:0:0:
16,204,164705,1,0,0:0:0:0:
84,144,164920,2,0,P|103:82|107:17,1,130,8|0,0:0|0:0,0:0:0:0:
196,44,165562,1,4,0:0:0:0:
260,112,165777,2,0,L|424:104,1,130
452,172,166420,1,0,0:0:0:0:
440,264,166634,2,0,L|310:270,1,130,8|0,0:0|0:0,0:0:0:0:
256,344,167277,1,0,0:0:0:0:
202,270,167491,6,0,L|72:264,1,130,4|0,0:0|0:0,0:0:0:0:
60,172,168134,1,0,0:0:0:0:
124,108,168348,1,8,0:0:0:0:
207,79,168562,2,0,P|168:30|105:21,2,130,0|4|0,0:0|0:0|0:0,0:0:0:0:
164,157,169634,2,0,P|140:135|123:108,1,65,2|0,0:0|0:0,0:0:0:0:
120,236,170062,2,0,P|111:267|114:299,1,65,8|0,0:0|0:0,0:0:0:0:
204,276,170491,2,0,P|231:259|253:235,1,65,2|0,0:0|0:0,0:0:0:0:
344,220,170920,6,0,L|300:80,1,130,4|0,0:0|0:0,0:0:0:0:
216,80,171562,1,0,0:0:0:0:
164,157,171777,2,0,P|102:177|38:170,1,130,8|0,0:0|0:0,0:0:0:0:
90,92,172420,2,0,P|151:72|216:80,1,130,12|0,0:0|0:0,0:0:0:0:
284,144,173062,1,0,0:0:0:0:
252,227,173277,2,0,P|223:242|198:263,1,65,0|8,0:0|0:0,0:0:0:0:
272,316,173705,2,0,P|302:325|335:328,1,65
404,272,174134,1,0,0:0:0:0:
364,188,174348,6,0,L|384:48,1,130,4|0,0:0|0:0,0:0:0:0:
296,28,174991,1,0,0:0:0:0:
236,98,175205,2,0,L|251:227,1,130,8|0,0:0|0:0,0:0:0:0:
319,284,175848,2,0,P|264:314|202:299,2,130,12|0|0,0:0|0:0|0:0,0:0:0:0:
348,196,176920,1,8,0:0:0:0:
424,144,177134,2,0,L|508:152,2,65,0|8|0,0:0|0:0|0:0,0:0:0:0:
388,60,177777,6,0,P|323:67|258:66,1,130,4|2,0:0|0:0,0:0:0:0:
240,156,178420,1,0,0:0:0:0:
188,228,178634,2,0,P|123:218|61:200,1,130,8|0,0:0|0:0,0:0:0:0:
116,128,179277,2,0,P|104:72|144:8,1,130,4|0,0:0|0:0,0:0:0:0:
192,84,179920,2,0,L|260:72,1,65,2|0,0:0|0:0,0:0:0:0:
284,160,180348,2,0,L|352:166,1,65,8|0,0:0|0:0,0:0:0:0:
420,108,180777,1,10,0:0:0:0:
484,172,180991,1,0,0:0:0:0:
472,264,181205,6,0,P|407:272|342:268,1,130,4|0,0:0|0:0,0:0:0:0:
256,240,181848,1,0,0:0:0:0:
169,268,182062,2,0,P|104:272|39:264,1,130,8|0,0:0|0:0,0:0:0:0:
4,180,182705,1,4,0:0:0:0:
176,116,183134,2,0,P|180:76|180:44,2,65
146,207,183777,2,0,L|168:267,1,65,8|0,0:0|0:0,0:0:0:0:
240,324,184205,2,0,L|262:263,1,65,0|8,0:0|0:0,0:0:0:0:
336,208,184634,6,0,P|400:200|464:208,1,130,4|0,0:0|0:0,0:0:0:0:
492,120,185277,1,0,0:0:0:0:
444,40,185491,2,0,P|379:47|315:39,1,130,8|0,0:0|0:0,0:0:0:0:
256,108,186134,2,0,L|256:264,1,130,4|0,0:0|0:0,0:0:0:0:
196,304,186777,1,2,0:0:0:0:
116,260,186991,1,0,0:0:0:0:
92,171,187205,2,0,P|106:142|124:116,1,65,8|8,0:0|0:0,0:0:0:0:
92,32,187634,2,0,P|122:21|154:15,1,65,4|0,0:3|0:0,0:0:0:0:
208,88,188062,5,4,0:0:0:0:
256,192,188277,12,0,193848,0:0:0:0:
44,192,208634,6,0,P|95:200|146:192,1,104,2|0,0:0|0:0,0:0:0:0:
220,268,209491,2,0,P|271:260|322:268,1,104,2|0,0:0|0:0,0:0:0:0:
404,332,210348,1,2,0:0:0:0:
472,252,210777,1,0,0:0:0:0:
472,252,210991,2,0,P|476:174|472:96,1,156,2|2,0:0|0:0,0:0:0:0:
388,36,212062,6,0,L|232:36,2,156,2|2|2,0:0|0:0|0:0,0:0:0:0:
196,284,214634,2,0,P|236:248|284:220,1,104,2|0,0:0|0:0,0:0:0:0:
316,124,215491,6,0,L|480:128,2,156,2|2|0,0:0|0:0|0:0,0:0:0:0:
316,124,216991,1,2,0:0:0:0:
200,228,217634,2,0,P|172:192|160:128,2,104,0|2|0,0:0|0:0|0:0,0:0:0:0:
296,272,218920,5,4,0:0:0:0:
296,272,219348,2,0,L|368:272,1,58.4999982147217,8|8,0:0|0:0,0:0:0:0:
376,192,219777,2,0,L|448:192,1,58.4999982147217,8|8,0:0|0:0,0:0:0:0:
480,124,220205,1,8,0:0:0:0:
440,52,220420,1,8,0:0:0:0:
440,52,221491,5,0,0:0:0:0:
440,52,221705,2,0,L|300:52,1,104,4|0,0:3|0:0,0:0:0:0:
320,144,222348,6,0,L|156:144,1,130,4|0,0:0|0:0,0:0:0:0:
124,80,222991,1,0,0:0:0:0:
48,128,223205,2,0,L|48:292,1,130,8|0,0:0|0:0,0:0:0:0:
136,332,223848,2,0,L|136:202,1,130
184,124,224491,2,0,P|215:115|247:111,1,65
345,228,224920,2,0,P|316:211|291:191,1,65,8|0,0:0|0:0,0:0:0:0:
335,112,225348,2,0,P|326:80|322:48,1,65
445,147,225777,6,0,P|400:195|345:228,1,130,4|0,0:0|0:0,0:0:0:0:
256,244,226420,1,0,0:0:0:0:
168,228,226634,2,0,P|112:195|67:147,1,130,8|0,0:0|0:0,0:0:0:0:
100,60,227277,1,0,0:0:0:0:
176,12,227491,2,0,P|192:74|189:139,1,130
168,228,228134,1,0,0:0:0:0:
132,312,228348,2,0,L|272:308,1,130,8|0,0:0|0:0,0:0:0:0:
344,352,228991,1,0,0:0:0:0:
412,292,229205,6,0,P|415:227|405:163,1,130,4|0,0:0|0:0,0:0:0:0:
344,96,229848,1,0,0:0:0:0:
396,20,230062,1,8,0:0:0:0:
220,60,230491,1,0,0:0:0:0:
356,180,230920,1,0,0:0:0:0:
256,332,231348,1,0,0:0:0:0:
268,152,231777,2,0,L|192:172,2,65,8|0|2,0:0|0:0|0:0,0:0:0:0:
288,240,232420,1,8,0:0:0:0:
356,179,232634,6,0,P|388:176|420:177,1,65,4|0,0:0|0:0,0:0:0:0:
392,264,233062,2,0,P|395:296|394:328,1,65
308,300,233491,2,0,L|140:296,1,130,8|2,0:0|0:0,0:0:0:0:
152,208,234134,1,12,0:0:0:0:
208,136,234348,2,0,P|236:120|262:101,2,65,0|8|0,0:0|0:0|0:0,0:0:0:0:
128,92,234991,5,0,0:0:0:0:
128,92,235098,1,8,0:0:0:0:
128,92,235205,1,8,0:0:0:0:
72,164,235420,1,0,0:0:0:0:
100,252,235634,2,0,L|172:236,1,65
204,320,236062,6,0,L|351:326,1,130,4|0,0:0|0:0,0:0:0:0:
404,268,236705,1,0,0:0:0:0:
396,176,236920,1,8,0:0:0:0:
248,68,237348,2,0,P|224:90|205:116,1,65
264,188,237777,2,0,P|263:220|267:252,1,65
200,316,238205,1,0,0:0:0:0:
112,288,238420,1,0,0:0:0:0:
112,288,238634,2,0,L|136:136,1,130,8|0,0:0|0:0,0:0:0:0:
68,96,239277,1,0,0:0:0:0:
132,32,239491,6,0,P|196:40|260:33,1,130,4|0,0:0|0:0,0:0:0:0:
344,68,240134,1,0,0:0:0:0:
400,140,240348,2,0,P|406:204|398:268,1,130,8|4,0:0|0:0,0:0:0:0:
228,332,241205,2,0,L|148:332,1,65
83,240,241634,2,0,L|148:240,1,65
228,196,242062,2,0,P|239:132|228:68,1,130,8|0,0:0|0:0,0:0:0:0:
140,48,242705,1,2,0:0:0:0:
83,112,242920,6,0,P|71:175|82:239,1,130,4|0,0:0|0:0,0:0:0:0:
156,292,243562,1,0,0:0:0:0:
236,244,243777,2,0,L|376:244,1,130,8|0,0:0|0:0,0:0:0:0:
432,180,244420,1,12,0:0:0:0:
463,95,244634,2,0,P|434:83|406:65,1,65
348,136,245062,2,0,P|317:148|286:154,1,65
292,64,245491,2,0,P|304:34|322:6,1,65,8|8,0:0|0:3,0:0:0:0:
212,104,245920,1,4,0:3:0:0:
132,64,246134,1,4,0:3:0:0:
56,116,246348,6,0,L|60:200,2,65,4|0|0,0:0|0:0|0:0,0:0:0:0:
148,168,246991,1,0,0:0:0:0:
148,168,247205,2,0,L|156:308,1,130,10|0,0:0|0:0,0:0:0:0:
236,336,247848,1,12,0:0:0:0:
308,280,248062,1,0,0:0:0:0:
384,232,248277,2,0,P|416:231|448:235,1,65,8|0,0:0|0:0,0:0:0:0:
444,144,248705,5,0,0:0:0:0:
428,124,248812,1,0,0:0:0:0:
416,104,248920,2,0,P|383:104|351:100,1,65,8|4,0:0|0:3,0:0:0:0:
300,176,249348,2,0,P|267:176|235:172,1,65,4|2,0:3|0:0,0:0:0:0:
188,92,249777,6,0,L|108:96,2,65,4|0|0,0:0|0:0|0:0,0:0:0:0:
235,172,250420,1,0,0:0:0:0:
188,248,250634,2,0,L|52:256,1,130,8|0,0:0|0:0,0:0:0:0:
64,164,251277,1,4,0:0:0:0:
123,94,251491,2,0,P|155:91|187:91,1,65
248,24,251920,2,0,P|280:29|311:37,1,65
348,120,252348,2,0,L|316:216,2,97.5,14|10|14,0:0|0:0|0:0,0:0:0:0:
432,84,253205,6,0,L|410:22,2,65,2|0|0,0:0|0:0|0:0,0:0:0:0:
496,148,253848,1,0,0:0:0:0:
445,223,254062,2,0,P|381:212|317:211,1,130,8|0,0:0|0:0,0:0:0:0:
268,136,254705,1,4,0:0:0:0:
216,60,254920,2,0,P|162:97|116:143,1,130
128,232,255562,1,0,0:0:0:0:
148,320,255777,2,0,L|48:312,2,97.5,14|10|14,0:0|0:0|0:0,0:0:0:0:
216,260,256634,6,0,L|345:250,1,130,4|0,0:0|0:0,0:0:0:0:
436,260,257277,1,0,0:0:0:0:
359,311,257491,2,0,P|343:249|350:185,1,130,8|0,0:0|0:0,0:0:0:0:
408,116,258134,2,0,P|345:132|281:125,1,130,0|8,0:0|0:0,0:0:0:0:
196,156,258777,2,0,P|191:123|194:91,1,65
124,36,259205,1,8,0:0:0:0:
72,112,259420,1,0,0:0:0:0:
44,196,259634,2,0,P|76:198|108:194,1,65,2|0,0:0|0:0,0:0:0:0:
136,280,260062,6,0,B|176:264|232:268|232:268|207:246,1,130,4|0,0:0|0:0,0:0:0:0:
196,156,260705,1,0,0:0:0:0:
131,91,260920,2,0,P|191:66|252:83,1,130,8|0,0:0|0:0,0:0:0:0:
288,168,261562,2,0,P|349:184|408:160,1,130,12|0,0:0|0:0,0:0:0:0:
344,96,262205,1,0,0:0:0:0:
252,83,262420,5,0,0:0:0:0:
252,83,262527,1,8,0:0:0:0:
252,83,262634,2,0,L|184:88,1,65,8|4,0:0|0:3,0:0:0:0:
148,172,263062,2,0,L|84:159,1,65,4|4,0:3|0:3,0:0:0:0:
176,260,263491,6,0,P|168:288|168:336,1,65,4|0,0:0|0:0,0:0:0:0:
256,304,263920,2,0,L|399:275,2,130,0|8|0,0:0|0:0|0:0,0:0:0:0:
176,260,264991,2,0,P|103:255|42:236,1,130
100,164,265634,2,0,P|136:160|176:148,1,65
232,92,266062,2,0,L|210:30,1,65,8|0,0:0|0:0,0:0:0:0:
316,48,266491,2,0,L|337:109,1,65,0|8,0:0|0:0,0:0:0:0:
308,195,266920,6,0,P|371:194|418:152,1,130,4|0,0:0|0:0,0:0:0:0:
249,126,267562,2,0,P|218:181|231:243,1,130
337,109,268205,2,0,P|304:54|244:35,1,130,4|0,0:0|0:0,0:0:0:0:
156,64,268848,1,0,0:0:0:0:
95,132,269062,2,0,P|63:133|31:128,1,65
136,216,269491,1,8,0:0:0:0:
92,296,269705,1,0,0:0:0:0:
152,364,269920,1,0,0:0:0:0:
196,284,270134,1,2,0:0:0:0:
136,216,270348,6,0,L|284:200,1,130,4|0,0:0|0:0,0:0:0:0:
332,264,270991,1,0,0:0:0:0:
385,125,271205,2,0,L|256:112,1,130,8|0,0:0|0:0,0:0:0:0:
194,179,271848,2,0,B|166:191|166:191|264:201,1,130,4|0,0:0|0:0,0:0:0:0:
332,264,272491,1,0,0:0:0:0:
276,336,272705,1,0,0:0:0:0:
192,300,272920,2,0,P|159:295|127:295,1,65,8|8,0:0|0:3,0:0:0:0:
72,224,273348,2,0,P|46:243|23:266,1,65,4|4,0:3|0:3,0:0:0:0:
152,180,273777,6,0,L|120:40,1,130,4|0,0:0|0:0,0:0:0:0:
212,40,274420,1,0,0:0:0:0:
276,104,274634,2,0,L|247:230,1,130,10|0,0:0|0:0,0:0:0:0:
340,232,275277,2,0,P|396:208|468:240,1,130,4|0,0:0|0:0,0:0:0:0:
400,300,275920,1,8,0:3:0:0:
320,344,276134,5,0,0:0:0:0:
320,344,276241,1,0,0:0:0:0:
320,344,276348,2,0,L|220:332,2,86.6666666666667,8|8|12,0:0|0:0|0:3,0:0:0:0:
256,140,277420,5,4,0:0:0:0:
256,192,277634,12,0,291777,0:0:0:0:
