osu file format v14

[General]
AudioFilename: kuroneko.mp3
AudioLeadIn: 0
PreviewTime: 87777
Countdown: 0
SampleSet: Soft
StackLeniency: 0.4
Mode: 0
LetterboxInBreaks: 0
WidescreenStoryboard: 0

[Editor]
DistanceSpacing: 2
BeatDivisor: 4
GridSize: 4
TimelineZoom: 1

[Metadata]
Title:Kuroneko
TitleUnicode:黒猫
Artist:Hanatan
ArtistUnicode:花たん
Creator:Lavender
Version:Negai
Source:
Tags:Chers petits chats~親愛なる愛猫たちへ~ Akagami 赤髪 Raptor Nexus Utility Vocaloid GUMI zj0924 Rakuen Narcissu
BeatmapID:559123
BeatmapSetID:242220

[Difficulty]
HPDrainRate:7
CircleSize:3.7
OverallDifficulty:7.5
ApproachRate:8.2
SliderMultiplier:1.4
SliderTickRate:1

[Events]
//Background and Video events
0,0,"kuroneko.png",0,0
Video,0,"kuroneko.flv"
//Break Periods
2,147119,148771
2,195119,207914
//Storyboard Layer 0 (Background)
//Storyboard Layer 1 (Fail)
//Storyboard Layer 2 (Pass)
//Storyboard Layer 3 (Foreground)
//Storyboard Sound Samples

[TimingPoints]
2920,857.142857142858,4,2,1,25,1,0
44062,-100,4,2,2,50,0,0
44491,-100,4,2,1,25,0,0
47491,-100,4,2,2,50,0,0
47919,-100,4,2,1,25,0,0
85634,-100,4,2,1,35,0,0
86062,-100,4,2,1,45,0,0
86491,-100,4,2,1,55,0,0
86919,-100,4,2,1,65,0,0
87348,-100,4,2,1,75,0,0
87777,-100,4,1,1,100,0,0
88634,-58.8235294117647,4,1,1,65,0,1
101062,-58.8235294117647,4,1,1,25,0,1
101169,-58.8235294117647,4,1,1,35,0,1
101277,-58.8235294117647,4,1,1,45,0,1
101384,-58.8235294117647,4,1,1,55,0,1
101491,-58.8235294117647,4,1,1,65,0,1
107062,-83.3333333333333,4,1,1,65,0,1
108348,-58.8235294117647,4,1,1,65,0,1
128491,-58.8235294117647,4,1,1,25,0,1
128598,-58.8235294117647,4,1,1,35,0,1
128705,-58.8235294117647,4,1,1,45,0,1
128812,-58.8235294117647,4,1,1,55,0,1
128919,-58.8235294117647,4,1,1,65,0,1
134491,-83.3333333333333,4,1,1,65,0,1
135777,-58.8235294117647,4,1,1,65,0,1
142527,-58.8235294117647,4,1,1,55,0,1
142634,-58.8235294117647,4,1,1,65,0,1
142848,-58.8235294117647,4,1,1,50,0,1
143062,-58.8235294117647,4,1,1,35,0,1
143491,-58.8235294117647,4,1,1,65,0,0
150348,-58.8235294117647,4,1,1,65,0,1
158384,-58.8235294117647,4,1,1,45,0,1
158491,-58.8235294117647,4,1,1,65,0,1
163205,-58.8235294117647,4,1,1,45,0,1
163419,-58.8235294117647,4,1,1,50,0,1
163634,-58.8235294117647,4,1,1,55,0,1
163848,-58.8235294117647,4,1,1,60,0,1
164062,-58.8235294117647,4,1,1,65,0,1
168027,-58.8235294117647,4,1,1,45,0,1
168134,-58.8235294117647,4,1,1,65,0,1
168669,-58.8235294117647,4,1,1,45,0,1
168777,-58.8235294117647,4,1,1,65,0,1
169634,-58.8235294117647,4,1,1,25,0,1
169741,-58.8235294117647,4,1,1,35,0,1
169848,-58.8235294117647,4,1,1,45,0,1
169955,-58.8235294117647,4,1,1,55,0,1
170062,-58.8235294117647,4,1,1,65,0,1
173169,-58.8235294117647,4,1,1,45,0,1
173277,-58.8235294117647,4,1,1,65,0,1
174562,-58.8235294117647,4,1,1,45,0,1
174777,-58.8235294117647,4,1,1,65,0,1
176491,-58.8235294117647,4,1,1,25,0,1
176705,-58.8235294117647,4,1,1,35,0,1
176919,-58.8235294117647,4,1,1,45,0,1
177027,-58.8235294117647,4,1,1,50,0,1
177134,-58.8235294117647,4,1,1,55,0,1
177241,-58.8235294117647,4,1,1,60,0,1
177348,-58.8235294117647,4,1,1,65,0,1
177562,-58.8235294117647,4,1,1,45,0,1
177669,-58.8235294117647,4,1,1,55,0,1
177777,-58.8235294117647,4,1,1,65,0,1
188062,-100,4,1,1,65,0,0
188919,-100,4,1,1,55,0,0
189777,-100,4,1,1,45,0,0
190634,-100,4,1,1,35,0,0
191491,-100,4,1,1,25,0,0
192348,-100,4,1,1,15,0,0
193205,-100,4,2,1,5,0,0
208634,-83.3333333333333,4,2,2,45,0,0
210348,-83.3333333333333,4,2,1,45,0,0
212062,-83.3333333333333,4,2,2,45,0,0
212491,-83.3333333333333,4,2,1,45,0,0
216348,-66.6666666666667,4,2,1,50,0,0
217205,-57.1428571428571,4,2,1,55,0,0
218062,-50,4,2,1,60,0,0
218919,-66.6666666666667,4,1,1,65,0,0
222348,-52.6315789473684,4,1,1,65,0,1
234777,-52.6315789473684,4,1,1,25,0,1
234884,-52.6315789473684,4,1,1,35,0,1
234991,-52.6315789473684,4,1,1,45,0,1
235098,-52.6315789473684,4,1,1,55,0,1
235205,-52.6315789473684,4,1,1,65,0,1
240777,-83.3333333333333,4,1,1,65,0,1
242062,-52.6315789473684,4,1,1,65,0,1
248277,-52.6315789473684,4,1,1,45,0,1
248812,-52.6315789473684,4,1,1,55,0,1
248919,-52.6315789473684,4,1,1,65,0,1
249134,-52.6315789473684,4,1,1,45,0,1
249348,-52.6315789473684,4,1,1,65,0,1
249777,-50,4,1,1,70,0,0
252348,-50,4,1,1,45,0,0
252669,-50,4,1,1,55,0,0
252991,-50,4,1,1,65,0,0
253205,-50,4,1,1,70,0,0
254062,-50,4,1,1,45,0,0
254384,-50,4,1,1,55,0,0
254705,-50,4,1,1,65,0,0
254919,-50,4,1,1,70,0,0
255777,-50,4,1,1,45,0,0
256098,-50,4,1,1,55,0,0
256420,-50,4,1,1,65,0,0
256634,-50,4,1,1,70,0,0
258562,-50,4,1,1,55,0,0
259205,-50,4,1,1,60,0,0
259848,-50,4,1,1,65,0,0
260062,-50,4,1,1,70,0,0
262205,-50,4,1,1,30,0,0
262312,-50,4,1,1,40,0,0
262419,-50,4,1,1,50,0,0
262527,-50,4,1,1,60,0,0
262634,-50,4,1,1,70,0,0
268205,-83.3333333333333,4,1,1,70,0,0
269491,-50,4,1,1,65,0,0
269705,-50,4,1,1,55,0,0
269919,-50,4,1,1,60,0,0
270134,-50,4,1,1,65,0,0
270348,-50,4,1,1,70,0,0
275919,-50,4,1,1,68,0,0
276134,-50,4,1,1,65,0,0
276348,-58.8235294117647,4,1,1,60,0,0
276634,-58.8235294117647,4,1,1,52,0,0
276919,-76.9230769230769,4,1,1,41,0,0
277205,-76.9230769230769,4,1,1,25,0,0
278062,-100,4,1,1,25,0,0
278919,-100,4,1,1,20,0,0
279777,-100,4,1,1,15,0,0
280634,-100,4,1,1,10,0,0
281491,-100,4,1,1,5,0,0

[Colours]
Combo1 : 98,98,98
Combo2 : 255,128,128
Combo3 : 149,149,255
Combo4 : 255,255,0
Combo5 : 0,255,255
Combo6 : 0,255,128
Combo7 : 255,117,255
Combo8 : 192,192,192

[HitObjects]
128,68,30348,102,0,L|112:112,1,35
208,108,30777,2,0,L|204:156,1,35
384,68,31205,2,0,L|400:116,1,35
304,108,31634,2,0,L|308:152,1,35
128,316,32062,6,0,L|108:272,1,35
208,276,32491,2,0,L|204:240,1,35
384,316,32919,2,0,L|404:272,1,35
304,276,33348,2,0,L|308:232,1,35
132,320,33777,102,0,L|176:340,1,35
172,240,34206,2,0,L|208:244,1,35
172,144,34634,2,0,L|212:140,1,35
132,64,35062,2,0,L|176:44,1,35
380,64,35491,6,0,L|336:44,1,35
340,144,35920,2,0,L|304:140,1,35
340,240,36348,2,0,L|304:244,1,35
380,320,36776,2,0,L|336:336,1,35
277,110,37205,102,0,L|268:144,1,35
174,170,37634,2,0,L|208:180,1,35
234,273,38062,2,0,L|248:228,1,35
337,213,38491,2,0,L|296:200,1,35
388,115,38919,6,0,L|348:140,1,35
179,59,39348,2,0,L|204:100,1,35
123,268,39777,2,0,L|160:244,1,35
328,323,40205,2,0,L|304:284,1,35
256,192,40634,102,0,P|256:152|268:112,1,70
428,48,41491,1,0,0:0:0:0:
384,280,41919,1,0,0:0:0:0:
313,333,42134,1,0,0:0:0:0:
114,249,42562,1,0,0:0:0:0:
198,50,42991,1,0,0:0:0:0:
397,134,43419,1,0,0:0:0:0:
60,340,44062,85,4,0:0:0:0:
136,192,44491,22,0,L|196:172,1,35
300,148,44919,1,0,0:0:0:0:
408,192,45134,1,0,0:0:0:0:
324,240,45348,1,0,0:0:0:0:
412,24,45562,2,0,P|384:8|336:0,1,70
248,16,46205,2,0,L|264:68,1,35
160,76,46634,2,0,L|192:119,1,35
100,168,47062,2,0,L|145:197,1,35
68,276,47491,21,4,0:0:0:0:
256,324,47919,86,0,L|304:292,1,35
404,224,48348,1,0,0:0:0:0:
384,324,48562,1,0,0:0:0:0:
256,112,48777,2,0,P|300:76|356:64,1,105
400,148,49634,2,0,L|356:180,1,35
435,248,50063,2,0,L|383:263,1,35
430,357,50491,2,0,L|376:354,1,35
256,348,50919,6,0,P|196:336|144:312,1,105,0|0,0:0|0:0,0:0:0:0:
40,348,51777,2,0,L|72:312,1,35
92,196,52205,2,0,L|108:244,1,35
200,172,52634,102,0,P|260:160|312:136,1,105,0|0,0:0|0:0,0:0:0:0:
416,172,53492,2,0,L|384:136,1,35
364,20,53920,2,0,L|348:68,1,35
220,68,54348,5,0,0:0:0:0:
140,96,54562,1,0,0:0:0:0:
152,12,54777,1,0,0:0:0:0:
202,149,54991,1,0,0:0:0:0:
220,68,55205,1,0,0:0:0:0:
225,153,55419,1,0,0:0:0:0:
300,40,55634,1,0,0:0:0:0:
248,157,55848,1,0,0:0:0:0:
380,12,56062,101,0,0:0:0:0:
451,60,56277,1,0,0:0:0:0:
320,169,56491,1,0,0:0:0:0:
369,98,56706,1,0,0:0:0:0:
448,254,56920,1,0,0:0:0:0:
404,179,57135,1,0,0:0:0:0:
320,317,57348,1,0,0:0:0:0:
319,317,57777,6,0,P|337:287|350:255,1,70
92,196,58634,2,0,P|104:163|124:134,1,70
168,28,59277,2,0,P|204:20|256:28,1,70
244,140,59919,2,0,L|270:116,1,35
317,221,60347,2,0,L|333:189,1,35
413,266,60776,2,0,L|417:231,1,35
416,360,61205,101,0,0:0:0:0:
256,292,61634,2,0,L|212:264,1,35
112,204,62062,1,0,0:0:0:0:
144,32,62277,1,0,0:0:0:0:
64,104,62491,1,0,0:0:0:0:
112,204,62705,2,0,P|112:264|124:324,1,105
400,180,63777,2,0,P|404:144|392:80,1,70
392,300,64634,6,0,P|356:308|320:308,1,70
120,84,65491,2,0,P|156:76|192:76,1,70
284,32,66134,2,0,P|320:38|365:66,1,70
310,164,66776,2,0,L|343:152,1,35
354,263,67205,2,0,L|380:240,1,35
416,346,67633,2,0,L|434:316,1,35
324,384,68062,101,0,0:0:0:0:
212,288,68491,1,0,0:0:0:0:
184,152,68919,2,0,L|188:112,1,35
91,78,69348,1,0,0:0:0:0:
286,97,69562,1,0,0:0:0:0:
20,328,70634,2,0,L|52:268,1,35
48,192,71062,2,0,L|113:172,1,35
76,52,71491,6,0,P|108:44|152:56,1,70
216,288,72348,2,0,P|248:296|292:284,1,70
447,83,73205,2,0,P|457:117|459:152,1,70
432,264,73848,1,0,0:0:0:0:
356,368,74062,2,0,P|328:344|308:304,1,70
96,320,74919,102,0,P|84:285|87:240,1,70
136,152,75562,1,0,0:0:0:0:
218,71,75777,2,0,P|252:82|280:103,1,70
472,259,76634,2,0,P|460:292|439:320,1,70
203,200,77491,2,0,P|214:166|235:139,1,70
144,352,78348,6,0,P|124:322|111:290,1,70
204,200,79205,1,0,0:0:0:0:
303,352,79634,1,0,0:0:0:0:
303,352,79848,2,0,P|323:322|336:290,1,70
350,192,80491,1,0,0:0:0:0:
170,160,80705,1,0,0:0:0:0:
335,79,80920,1,0,0:0:0:0:
249,242,81134,1,0,0:0:0:0:
223,60,81348,1,0,0:0:0:0:
451,348,81777,102,0,P|452:313|442:279,1,70
168,290,82634,2,0,P|159:257|158:222,1,70
88,146,83277,2,0,P|91:112|103:79,1,70
468,12,84134,1,0,0:0:0:0:
468,12,84562,1,0,0:0:0:0:
363,68,84777,1,0,0:0:0:0:
447,195,84991,1,0,0:0:0:0:
256,192,85205,12,2,87777,0:0:0:0:
44,268,88634,22,0,P|28:212|60:156,1,119.000002269745,6|2,0:0|0:0,0:0:0:0:
264,48,89491,2,0,L|384:76,1,119.000002269745,8|2,0:0|0:0,0:0:0:0:
458,260,90134,2,0,P|372:274|306:218,1,178.500003404617,2|2,0:0|0:0,0:0:0:0:
401,176,91205,1,8,0:0:0:0:
346,358,91634,1,2,0:0:0:0:
253,283,91848,1,0,0:0:0:0:
253,283,92062,6,0,L|137:253,1,119.000002269745,6|2,0:0|0:0,0:0:0:0:
192,51,92919,2,0,L|329:30,1,119.000002269745,8|0,0:0|0:0,0:0:0:0:
401,176,93562,2,0,P|462:115|455:29,1,178.500003404617,2|2,0:0|0:0,0:0:0:0:
372,84,94634,1,8,0:0:0:0:
427,324,95062,1,2,0:0:0:0:
502,231,95277,1,0,0:0:0:0:
415,336,95491,6,0,P|360:358|291:348,1,119.000002269745,6|2,0:0|0:0,0:0:0:0:
126,143,96348,2,0,P|181:121|250:131,1,119.000002269745,8|0,0:0|0:0,0:0:0:0:
73,60,96991,2,0,P|174:25|263:33,1,178.500003404617,2|2,0:0|0:0,0:0:0:0:
432,96,98062,1,8,0:0:0:0:
384,200,98491,1,2,0:0:0:0:
432,96,98705,1,0,0:0:0:0:
468,300,98919,6,0,P|432:320|412:324,1,59.5000011348725,6|8,0:0|0:0,0:0:0:0:
307,279,99348,1,2,0:0:0:0:
307,279,99455,1,2,0:0:0:0:
307,279,99562,1,2,0:0:0:0:
384,200,99777,1,8,0:0:0:0:
314,362,99991,1,4,0:3:0:0:
206,228,100205,1,2,0:3:0:0:
467,300,100419,6,0,P|508:257|517:199,1,119.000002269745,6|8,0:0|0:0,0:0:0:0:
432,100,101062,1,8,0:0:0:0:
408,118,101169,1,8,0:0:0:0:
391,142,101277,1,8,0:0:0:0:
383,171,101384,1,8,0:0:0:0:
382,200,101491,1,8,0:0:0:0:
206,228,101705,1,4,0:1:0:0:
341,302,101919,1,4,0:3:0:0:
246,128,102134,1,2,0:3:0:0:
113,212,102348,6,0,P|116:270|157:311,1,119.000002269745,6|2,0:0|0:0,0:0:0:0:
341,302,103205,2,0,L|461:266,1,119.000002269745,8|2,0:0|0:0,0:0:0:0:
440,104,103848,2,0,P|354:101|296:164,1,178.500003404617,2|2,0:0|0:0,0:0:0:0:
393,194,104919,1,8,0:0:0:0:
268,46,105348,2,0,L|197:53,1,59.5000011348725,2|0,0:0|0:0,0:0:0:0:
122,160,105777,38,0,L|193:153,1,59.5000011348725,6|8,0:0|0:0,0:0:0:0:
269,233,106205,1,2,0:0:0:0:
269,233,106312,1,2,0:0:0:0:
269,233,106419,1,2,0:0:0:0:
212,337,106634,1,8,0:0:0:0:
122,161,106848,1,2,0:0:0:0:
0,216,107062,86,0,P|36:300|128:336,1,167.999994873047,4|0,0:0|0:0,0:0:0:0:
212,337,108348,38,0,L|324:321,1,59.5000011348725,8|8,0:0|0:0,0:0:0:0:
328,225,108777,2,0,L|269:233,1,59.5000011348725,2|0,0:0|0:0,0:0:0:0:
391,299,109205,6,0,P|423:247|416:180,1,119.000002269745,6|0,0:0|0:0,0:0:0:0:
379,78,109848,1,0,0:0:0:0:
265,114,110062,2,0,L|133:90,1,119.000002269745,8|2,0:0|0:0,0:0:0:0:
85,301,110705,2,0,P|32:232|51:148,1,178.500003404617,2|2,0:0|0:0,0:0:0:0:
141,209,111777,1,8,0:0:0:0:
141,209,112205,1,2,0:0:0:0:
149,93,112419,1,2,0:0:0:0:
359,132,112634,6,0,P|356:161|348:190,1,59.5000011348725,6|8,0:0|0:0,0:0:0:0:
310,300,113062,1,8,0:0:0:0:
310,300,113169,1,8,0:0:0:0:
310,300,113277,1,2,0:0:0:0:
110,363,113491,2,0,P|110:334|115:304,1,59.5000011348725,8|0,0:0|0:0,0:0:0:0:
141,208,113919,1,0,0:0:0:0:
310,300,114134,6,0,P|369:275|394:221,1,119.000002269745,12|2,0:0|0:0,0:0:0:0:
369,101,114777,1,2,0:0:0:0:
303,207,114991,1,2,0:0:0:0:
303,207,115098,1,2,0:0:0:0:
303,207,115205,1,8,0:0:0:0:
393,228,115419,1,4,0:3:0:0:
424,319,115634,2,0,L|448:336,3,29.7500005674362,2|0|0|0,0:3|0:0|0:0|0:0,0:0:0:0:
424,319,116062,6,0,P|366:325|312:300,1,119.000002269745,6|2,0:0|0:0,0:0:0:0:
160,131,116920,2,0,L|189:15,1,119.000002269745,8|2,0:0|0:0,0:0:0:0:
59,150,117562,2,0,P|107:222|194:230,1,178.500003404617,2|2,0:0|0:0,0:0:0:0:
418,151,118634,2,0,L|432:90,1,59.5000011348725,8|0,0:0|0:0,0:0:0:0:
316,119,119062,2,0,L|301:179,1,59.5000011348725,2|0,0:0|0:0,0:0:0:0:
222,302,119491,38,0,L|95:321,1,119.000002269745,6|2,0:0|0:0,0:0:0:0:
316,119,120348,2,0,P|315:177|285:228,1,119.000002269745,8|0,0:0|0:0,0:0:0:0:
199,145,120991,1,2,0:0:0:0:
431,93,121205,2,0,L|438:158,1,59.5000011348725,2|8,0:0|0:0,0:0:0:0:
446,271,121634,1,2,0:0:0:0:
446,271,121741,1,2,0:0:0:0:
446,271,121848,1,2,0:0:0:0:
274,280,122062,1,8,0:0:0:0:
359,196,122277,1,8,0:0:0:0:
373,361,122491,2,0,L|313:367,1,59.5000011348725,4|0,0:3|0:3,0:0:0:0:
208,376,122919,38,0,P|167:333|158:275,1,119.000002269745,6|2,0:0|0:0,0:0:0:0:
312,96,123777,2,0,L|452:48,1,119.000002269745,8|2,0:0|0:0,0:0:0:0:
184,144,124634,1,2,0:0:0:0:
89,71,124848,1,8,0:0:0:0:
69,188,125062,2,0,L|77:228,2,29.7500005674362,2|2|2,0:0|0:0|0:0,0:0:0:0:
318,182,125491,2,0,L|304:124,1,59.5000011348725,8|0,0:0|0:0,0:0:0:0:
209,239,125919,2,0,L|225:307,1,59.5000011348725,2|0,0:0|0:0,0:0:0:0:
244,384,126348,5,6,0:0:0:0:
315,288,126562,1,8,0:0:0:0:
421,320,126777,1,2,0:0:0:0:
421,320,126884,1,2,0:0:0:0:
421,320,126991,1,2,0:0:0:0:
346,191,127205,1,8,0:0:0:0:
169,309,127419,1,8,0:3:0:0:
250,170,127634,1,8,0:3:0:0:
420,321,127848,6,0,P|462:279|476:222,1,119.000002269745,4|8,0:0|0:0,0:0:0:0:
340,67,128491,1,8,0:0:0:0:
313,51,128598,1,8,0:0:0:0:
285,40,128705,1,8,0:0:0:0:
256,40,128813,1,8,0:0:0:0:
227,48,128920,1,8,0:0:0:0:
158,202,129134,1,4,0:1:0:0:
126,113,129348,1,4,0:3:0:0:
250,170,129562,1,2,0:3:0:0:
112,287,129777,38,0,P|71:245|62:187,1,119.000002269745,4|2,0:0|0:0,0:0:0:0:
227,47,130634,2,0,L|342:103,1,119.000002269745,8|2,0:0|0:0,0:0:0:0:
127,113,131277,2,0,L|323:209,1,178.500003404617,2|2,0:0|0:0,0:0:0:0:
467,347,132348,2,0,P|492:294|484:236,1,119.000002269745,8|2,0:0|0:0,0:0:0:0:
394,280,132991,1,2,0:0:0:0:
286,330,133205,6,0,P|254:326|218:314,1,59.5000011348725,6|8,0:0|0:0,0:0:0:0:
114,280,133634,2,0,L|82:324,2,29.7500005674362,2|2|2,0:0|0:0|0:0,0:0:0:0:
222,98,134062,1,8,0:0:0:0:
123,159,134277,1,2,0:0:0:0:
349,227,134491,70,0,P|409:173|408:91,1,167.999994873047,6|0,0:0|0:0,0:0:0:0:
261,131,135777,54,0,L|321:136,1,59.5000011348725,8|8,0:0|0:0,0:0:0:0:
237,220,136205,2,0,L|178:214,1,59.5000011348725,2|0,0:0|0:0,0:0:0:0:
78,242,136634,38,0,P|79:184|114:137,1,119.000002269745,6|0,0:0|0:0,0:0:0:0:
207,64,137277,1,2,0:0:0:0:
322,91,137491,2,0,L|299:146,1,59.5000011348725,8|0,0:0|0:0,0:0:0:0:
254,232,137919,1,2,0:0:0:0:
463,55,138134,2,0,L|418:165,1,119.000002269745,12|0,0:0|0:0,0:0:0:0:
390,310,138777,2,0,L|382:250,1,59.5000011348725,2|2,0:0|0:0,0:0:0:0:
254,232,139205,2,0,L|261:291,1,59.5000011348725,8|4,0:0|0:1,0:0:0:0:
151,365,139634,2,0,L|143:305,1,59.5000011348725,4|2,0:3|0:1,0:0:0:0:
156,202,140062,37,6,0:0:0:0:
302,62,140277,1,0,3:0:0:0:
132,105,140491,1,0,3:0:0:0:
326,161,140705,1,2,3:0:0:0:
204,34,140920,1,8,3:0:0:0:
254,232,141134,1,0,3:0:0:0:
132,105,141348,1,2,3:0:0:0:
83,274,141562,6,0,P|134:305|192:299,1,119.000002269745
254,232,142205,1,8,0:0:0:0:
308,145,142419,1,8,0:0:0:0:
308,145,142527,1,8,0:0:0:0:
308,145,142634,1,8,0:0:0:0:
180,168,142848,1,8,0:0:0:0:
345,312,143062,1,2,0:0:0:0:
256,192,143491,12,4,146919,0:0:0:0:
161,161,149491,6,0,L|243:134,1,59.5000011348725,2|2,0:0|0:0,0:0:0:0:
319,208,149919,2,0,L|237:235,1,59.5000011348725,2|2,0:0|0:0,0:0:0:0:
149,263,150348,38,0,P|89:242|58:191,1,119.000002269745,6|2,0:0|0:0,2:0:0:0:
268,13,151205,2,0,L|255:144,1,119.000002269745,8|2,0:0|0:0,0:0:0:0:
276,249,151848,2,0,P|303:300|355:328,1,119.000002269745,2|0,0:0|0:0,0:0:0:0:
386,212,152491,1,2,0:0:0:0:
178,94,152920,1,8,0:0:0:0:
93,178,153134,1,2,0:0:0:0:
211,186,153348,1,2,0:0:0:0:
161,293,153562,1,0,0:0:0:0:
282,351,153777,38,0,P|339:341|383:301,1,119.000002269745,6|2,0:0|0:0,0:0:0:0:
335,67,154634,2,0,L|305:181,1,119.000002269745,8|2,0:0|0:0,0:0:0:0:
100,236,155277,2,0,P|151:262|209:250,1,119.000002269745,2|8,0:0|0:0,0:0:0:0:
304,182,155920,2,0,L|333:184,2,29.7500005674362,2|8|2,0:0|0:0|0:0,0:0:0:0:
389,267,156348,2,0,L|379:333,1,59.5000011348725,8|2,0:0|0:0,0:0:0:0:
209,250,156777,2,0,L|218:183,1,59.5000011348725,2|0,0:0|0:0,0:0:0:0:
301,78,157205,5,6,0:0:0:0:
388,33,157419,2,0,P|397:91|371:143,1,119.000002269745,8|2,0:0|0:0,0:0:0:0:
222,151,158062,1,2,0:0:0:0:
301,78,158277,1,2,0:0:0:0:
301,78,158384,1,8,0:0:0:0:
301,78,158491,1,8,0:0:0:0:
302,238,158705,6,0,L|183:245,1,119.000002269745,2|8,0:0|0:0,0:0:0:0:
86,290,159348,2,0,L|75:349,1,59.5000011348725
183,245,159777,2,0,L|194:186,1,59.5000011348725,8|0,0:0|0:0,0:0:0:0:
303,325,160205,2,0,L|291:383,1,59.5000011348725,2|0,0:0|0:0,0:0:0:0:
446,257,160634,38,0,P|489:216|498:158,1,119.000002269745,6|8,0:0|0:0,0:0:0:0:
421,76,161277,1,2,0:0:0:0:
329,151,161491,1,8,0:0:0:0:
369,13,161705,1,2,0:0:0:0:
369,13,161812,1,2,0:0:0:0:
369,13,161919,1,2,0:0:0:0:
506,89,162134,2,0,P|453:114|395:106,1,119.000002269745,6|8,0:0|0:0,0:0:0:0:
295,40,162777,2,0,L|295:9,2,29.7500005674362,2|8|2,0:0|0:0|0:0,0:0:0:0:
181,73,163205,37,8,0:0:0:0:
156,78,163312,1,0,0:0:0:0:
133,88,163419,1,2,0:0:0:0:
111,101,163526,1,0,0:0:0:0:
91,117,163633,1,2,0:0:0:0:
74,136,163740,1,0,0:0:0:0:
62,159,163847,1,2,0:0:0:0:
53,182,163955,1,0,0:0:0:0:
47,203,164062,38,0,P|60:230|80:253,1,59.5000011348725,6|8,0:0|0:0,0:0:0:0:
203,297,164491,2,0,L|209:329,2,29.7500005674362,2|2|2,0:0|0:0|0:0,0:0:0:0:
281,147,164919,1,8,0:0:0:0:
178,188,165134,1,2,0:0:0:0:
346,247,165348,1,2,0:0:0:0:
346,247,165455,1,8,0:0:0:0:
346,247,165562,6,0,P|390:208|402:151,1,119.000002269745,0|8,0:0|0:0,0:0:0:0:
390,29,166205,1,2,0:0:0:0:
391,29,166312,1,8,0:0:0:0:
391,29,166419,1,2,0:0:0:0:
275,58,166634,2,0,L|252:113,1,59.5000011348725,8|2,0:0|0:0,0:0:0:0:
133,122,167062,1,2,0:0:0:0:
137,147,167169,1,0,0:0:0:0:
146,171,167276,1,2,0:0:0:0:
158,193,167384,1,0,0:0:0:0:
168,209,167491,6,0,P|197:217|227:216,1,59.5000011348725,6|8,0:0|0:0,0:0:0:0:
331,274,167919,2,0,L|337:306,2,29.7500005674362,2|8|2,0:0|0:0|0:0,0:0:0:0:
342,155,168348,1,8,0:0:0:0:
460,165,168562,2,0,L|485:185,2,29.7500005674362,2|8|2,0:0|0:0|0:0,0:0:0:0:
384,51,168991,38,0,P|379:109|342:154,1,119.000002269745,6|8,0:0|0:0,0:0:0:0:
279,76,169634,1,8,0:0:0:0:
254,80,169741,1,8,0:0:0:0:
230,89,169848,1,8,0:0:0:0:
208,101,169956,1,8,0:0:0:0:
191,116,170062,2,0,L|163:176,1,59.5000011348725,8|2,0:0|0:0,0:0:0:0:
43,224,170491,2,0,L|71:164,1,59.5000011348725,2|0,0:0|0:0,0:0:0:0:
81,311,170919,6,0,P|135:333|193:320,1,119.000002269745,6|0,0:0|0:0,0:0:0:0:
293,257,171562,1,2,0:0:0:0:
385,315,171777,1,8,0:0:0:0:
331,151,171991,1,2,0:0:0:0:
213,240,172205,1,2,0:0:0:0:
396,225,172419,6,0,P|425:174|418:115,1,119.000002269745,12|2,0:0|0:0,0:0:0:0:
323,44,173062,2,0,L|325:15,2,29.7500005674362,2|8|2,0:0|0:0|0:0,0:0:0:0:
236,125,173491,1,0,0:0:0:0:
152,40,173705,1,8,0:0:0:0:
152,40,173812,1,8,0:0:0:0:
132,62,173920,1,2,0:0:0:0:
84,176,174134,1,8,0:0:0:0:
84,176,174241,1,8,0:0:0:0:
92,204,174348,38,0,P|106:235|140:272,1,59.5000011348725,6|0,0:0|0:0,0:0:0:0:
227,309,174777,1,2,0:0:0:0:
369,162,174991,1,2,0:0:0:0:
346,311,175205,1,8,0:0:0:0:
277,208,175419,1,2,0:0:0:0:
439,234,175634,1,2,0:0:0:0:
228,309,175848,38,0,P|181:274|163:218,1,119.000002269745,6|8,0:0|0:0,0:0:0:0:
226,108,176491,2,0,L|291:95,1,59.5000011348725
368,4,176920,1,8,0:0:0:0:
384,24,177027,1,8,0:0:0:0:
396,47,177134,1,8,0:0:0:0:
405,71,177241,1,8,0:0:0:0:
409,93,177348,2,0,L|416:160,1,59.5000011348725,2|8,0:0|0:0,0:0:0:0:
418,176,177669,1,8,0:0:0:0:
420,200,177777,37,6,0:0:0:0:
366,298,177991,2,0,P|322:259|310:202,1,119.000002269745,8|2,0:0|0:0,0:0:0:0:
420,200,178634,1,8,0:0:0:0:
204,176,178848,1,4,0:1:0:0:
368,109,179062,1,4,0:3:0:0:
236,282,179277,6,0,P|177:286|127:256,1,119.000002269745,6|8,0:0|0:0,0:0:0:0:
204,176,179919,2,0,L|283:155,1,59.5000011348725,2|0,0:0|0:0,0:0:0:0:
169,70,180348,2,0,L|90:91,1,59.5000011348725,8|4,0:0|0:3,0:0:0:0:
237,283,180777,2,0,L|316:262,1,59.5000011348725,2|0,0:0|0:0,0:0:0:0:
488,296,181205,6,0,L|472:238,1,59.5000011348725,6|8,0:0|0:0,0:0:0:0:
480,84,181848,1,2,0:0:0:0:
412,16,182062,2,0,P|354:8|303:38,1,119.000002269745,8|2,0:0|0:0,0:0:0:0:
283,231,182705,2,0,P|341:239|392:209,1,119.000002269745,2|2,0:0|0:0,0:0:0:0:
320,132,183348,1,8,0:0:0:0:
358,335,183562,1,2,0:0:0:0:
358,335,183669,1,2,0:0:0:0:
358,335,183777,2,0,L|276:350,1,59.5000011348725,8|4,0:0|0:1,0:0:0:0:
151,309,184205,2,0,L|233:294,1,59.5000011348725,4|0,0:3|0:0,0:0:0:0:
81,384,184634,53,4,0:0:0:0:
24,300,184848,2,0,P|16:242|46:191,1,119.000002269745,8|2,0:0|0:0,0:0:0:0:
152,152,185491,2,0,P|160:210|131:261,1,119.000002269745,8|2,0:0|0:0,0:0:0:0:
78,83,186134,2,0,P|129:54|187:59,1,119.000002269745,2|8,0:0|0:0,0:0:0:0:
334,190,186777,1,2,0:0:0:0:
359,186,186884,1,0,0:0:0:0:
383,177,186991,1,2,0:0:0:0:
405,165,187099,1,0,0:0:0:0:
424,153,187205,1,8,0:0:0:0:
375,13,187419,1,8,0:0:0:0:
270,115,187634,1,2,0:3:0:0:
475,240,188062,5,4,0:0:0:0:
256,192,188277,12,0,194919,0:0:0:0:
106,300,208634,5,4,0:0:0:0:
114,292,210348,53,0,0:0:0:0:
122,286,211205,1,0,0:0:0:0:
130,278,212062,69,4,0:0:0:0:
216,129,212491,22,0,L|197:83,1,41.9999987182618
296,129,212920,2,0,L|315:83,1,41.9999987182618
256,36,213348,1,0,0:0:0:0:
256,36,213991,5,0,0:0:0:0:
290,101,214205,1,0,0:0:0:0:
216,140,214419,1,0,0:0:0:0:
310,182,214634,1,0,0:0:0:0:
184,244,214848,1,0,0:0:0:0:
343,298,215062,1,0,0:0:0:0:
150,367,215277,1,0,0:0:0:0:
343,298,215491,102,0,P|385:305|425:295,1,83.9999974365235
184,243,216348,6,0,P|131:241|81:226,1,105.000004005432
309,180,217205,102,0,P|369:175|422:145,1,122.500001168251
214,139,218062,6,0,P|146:130|88:92,1,140
256,36,218919,21,8,0:0:0:0:
283,276,219348,5,8,0:0:0:0:
183,139,219562,5,8,0:0:0:0:
345,192,219777,5,8,0:0:0:0:
183,244,219991,5,8,0:0:0:0:
283,107,220205,37,8,0:0:0:0:
283,276,220420,37,8,0:0:0:0:
193,224,221491,5,0,0:0:0:0:
193,224,221705,70,0,B|143:200|109:227|109:227|63:208,1,131.25000500679,2|0,0:0|0:0,0:0:0:0:
32,200,222348,22,0,P|27:138|97:74,1,132.999996448517,6|2,0:0|0:0,0:0:0:0:
461,126,223205,2,0,L|447:258,1,132.999996448517,8|2,0:0|0:0,0:0:0:0:
216,356,223848,2,0,P|151:353|104:307,1,132.999996448517,2|8,0:0|0:0,0:0:0:0:
197,250,224491,1,2,0:0:0:0:
350,142,224919,1,8,0:0:0:0:
271,246,225348,1,2,0:0:0:0:
238,90,225562,1,0,0:0:0:0:
440,40,225777,6,0,L|460:116,1,66.4999982242585,6|8,0:0|0:0,0:0:0:0:
407,227,226205,2,0,L|420:269,2,33.2499991121292,2|2|2,0:0|0:0|0:0,0:0:0:0:
254,167,226634,1,8,0:0:0:0:
382,132,226848,1,4,0:1:0:0:
266,293,227062,1,4,0:3:0:0:
106,189,227277,6,0,P|101:123|138:70,1,132.999996448517,2|8,0:0|0:0,0:0:0:0:
282,34,227919,2,0,L|289:1,2,33.2499991121292,2|2|2,0:0|0:0|0:0,0:0:0:0:
382,131,228348,1,8,0:0:0:0:
310,278,228562,1,4,0:3:0:0:
346,204,228777,1,2,0:0:0:0:
192,232,228991,1,0,0:0:0:0:
255,353,229205,38,0,P|317:370|375:340,1,132.999996448517,6|0,0:0|0:0,0:0:0:0:
449,216,229848,1,2,0:0:0:0:
411,88,230062,2,0,P|348:70|290:100,1,132.999996448517,8|0,0:0|0:0,0:0:0:0:
360,160,230705,1,2,0:0:0:0:
215,37,230919,38,0,P|200:66|194:99,1,66.4999982242585,2|8,0:0|0:0,0:0:0:0:
206,302,231348,2,0,P|221:273|227:240,1,66.4999982242585,2|0,0:0|0:0,0:0:0:0:
148,181,231777,2,0,L|71:186,1,66.4999982242585,8|0,0:0|0:0,0:0:0:0:
280,156,232205,2,0,L|346:150,1,66.4999982242585,2|0,0:0|0:0,0:0:0:0:
432,281,232634,6,0,L|415:216,1,66.4999982242585,6|8,0:0|0:0,0:0:0:0:
280,156,233062,1,2,0:0:0:0:
280,156,233169,1,2,0:0:0:0:
280,156,233277,1,2,0:0:0:0:
409,126,233491,1,8,0:0:0:0:
261,243,233705,1,4,0:3:0:0:
298,69,233919,1,2,0:3:0:0:
434,202,234134,6,0,P|481:159|483:94,1,132.999996448517,6|8,0:0|0:0,0:0:0:0:
277,47,234777,1,8,0:0:0:0:
248,64,234884,1,8,0:0:0:0:
229,90,234991,1,8,0:0:0:0:
220,122,235098,1,8,0:0:0:0:
224,155,235205,1,8,0:0:0:0:
296,334,235420,1,2,0:0:0:0:
342,150,235634,1,4,0:3:0:0:
194,270,235848,1,0,0:0:0:0:
387,259,236062,37,4,0:0:0:0:
194,270,236705,1,0,0:0:0:0:
101,268,236919,2,0,P|53:224|49:160,1,132.999996448517,8|2,0:0|0:0,0:0:0:0:
236,184,237562,2,0,P|284:228|289:293,1,132.999996448517,2|2,0:0|0:0,0:0:0:0:
150,175,238205,2,0,L|122:89,1,66.4999982242585,2|0,0:0|0:0,0:0:0:0:
233,31,238634,2,0,L|261:117,1,66.4999982242585,8|0,0:0|0:0,0:0:0:0:
394,184,239062,2,0,L|366:98,1,66.4999982242585,2|0,0:0|0:0,0:0:0:0:
492,267,239491,38,0,L|416:287,1,66.4999982242585,6|8,0:0|0:0,0:0:0:0:
256,192,239919,1,2,0:0:0:0:
256,192,240027,1,2,0:0:0:0:
256,192,240134,1,2,0:0:0:0:
379,142,240348,1,8,0:0:0:0:
292,297,240562,1,2,0:0:0:0:
122,190,240777,38,0,P|143:111|212:67,1,167.999994873047,6|0,0:0|0:0,0:0:0:0:
212,67,242062,86,0,L|276:81,1,66.4999982242585,8|2,0:0|0:0,0:0:0:0:
362,200,242491,2,0,L|297:185,1,66.4999982242585,2|0,0:0|0:0,0:0:0:0:
440,324,242919,6,0,L|375:309,1,66.4999982242585,6|8,0:0|0:0,0:0:0:0:
188,275,243562,1,0,0:0:0:0:
96,307,243777,2,0,P|92:242|135:193,1,132.999996448517,8|2,0:0|0:0,0:0:0:0:
104,83,244419,2,0,P|165:34|245:23,1,132.999996448517,12|2,0:0|0:0,0:0:0:0:
382,46,245062,2,0,P|379:80|367:110,1,66.4999982242585,2|2,0:0|0:0,0:0:0:0:
386,237,245491,2,0,P|358:217|337:192,1,66.4999982242585,8|8,0:0|0:0,0:0:0:0:
213,143,245920,2,0,P|243:128|275:123,1,66.4999982242585,4|0,0:3|0:0,0:0:0:0:
178,239,246348,37,6,0:0:0:0:
113,159,246562,1,8,0:0:0:0:
213,143,246777,1,0,0:0:0:0:
79,254,246991,5,2,0:0:0:0:
152,64,247205,1,8,0:0:0:0:
277,220,247420,1,2,0:0:0:0:
15,121,247634,1,2,0:0:0:0:
323,105,247848,6,0,P|320:170|277:219,1,132.999996448517,12|8,0:0|0:0,2:0:0:0:
276,219,248384,1,8,0:0:0:0:
276,219,248491,1,8,0:0:0:0:
105,151,248705,1,8,0:0:0:0:
105,151,248812,1,8,0:0:0:0:
105,151,248919,1,8,0:0:0:0:
224,104,249134,1,2,0:3:0:0:
155,293,249348,1,4,0:3:0:0:
142,318,249777,38,0,L|123:238,1,70,6|8,0:0|0:0,0:0:0:0:
362,231,250419,1,0,0:0:0:0:
425,315,250634,2,0,P|465:258|458:190,1,140,8|2,0:0|0:0,0:0:0:0:
254,33,251277,38,0,L|116:60,1,140,2|8,0:0|0:0,0:0:0:0:
43,179,251919,2,0,L|9:168,2,35,2|2|2,0:0|0:0|0:0,0:0:0:0:
141,277,252348,2,0,P|189:254|225:216,2,105,8|8|8,0:0|0:0|0:0,0:0:0:0:
410,235,253205,6,0,L|393:303,1,70,6|8,0:0|0:0,0:0:0:0:
256,346,253634,2,0,L|248:399,2,35,2|2|2,0:0|0:0|0:0,0:0:0:0:
142,277,254062,2,0,P|134:225|140:173,2,105,8|8|8,0:0|0:0|0:0,0:0:0:0:
252,190,254919,5,0,0:0:0:0:
357,97,255134,2,0,L|439:112,1,70,8|2,0:0|0:0,0:0:0:0:
457,126,255455,1,2,0:0:0:0:
457,126,255563,1,2,0:0:0:0:
369,225,255777,2,0,P|374:279|392:328,2,105,8|8|8,0:0|0:0|0:0,0:0:0:0:
234,357,256634,37,6,0:0:0:0:
148,322,256848,2,0,P|191:270|259:265,1,140,8|2,0:0|0:0,0:0:0:0:
331,144,257491,2,0,L|260:265,1,140,8|2,0:0|0:0,0:0:0:0:
384,62,258134,2,0,P|426:114|419:182,1,140,2|8,0:0|0:0,0:0:0:0:
330,248,258777,2,0,L|319:298,1,35,2|8,0:0|0:0,0:0:0:0:
332,144,259205,1,8,0:0:0:0:
221,252,259419,2,0,L|210:302,1,35,2|8,0:0|0:0,0:0:0:0:
112,256,259848,2,0,L|101:306,1,35,8|8,0:0|0:0,0:0:0:0:
93,356,260062,37,6,0:0:0:0:
129,164,260277,1,8,0:0:0:0:
222,251,260491,1,2,0:0:0:0:
222,251,260598,1,2,0:0:0:0:
222,251,260705,1,2,0:0:0:0:
217,120,260919,1,8,0:0:0:0:
112,256,261134,1,4,0:3:0:0:
290,183,261348,1,0,0:0:0:0:
143,58,261562,38,0,P|70:73|27:134,1,140,6|0,0:0|0:0,0:0:0:0:
40,224,262205,1,8,0:0:0:0:
57,253,262312,1,8,0:0:0:0:
83,272,262419,1,8,0:0:0:0:
115,281,262526,1,8,0:0:0:0:
148,277,262634,1,8,0:0:0:0:
305,122,262848,1,2,0:1:0:0:
324,272,263062,1,4,0:3:0:0:
213,162,263277,1,2,0:3:0:0:
400,63,263491,6,0,L|409:142,1,70,6|8,0:0|0:0,0:0:0:0:
324,272,264134,1,2,0:0:0:0:
420,230,264348,2,0,P|424:299|385:355,1,140,8|2,0:0|0:0,0:0:0:0:
202,343,264991,2,0,L|324:273,1,140,2|8,0:0|0:0,0:0:0:0:
202,343,265634,1,2,0:0:0:0:
202,343,265741,1,2,0:0:0:0:
202,343,265848,1,2,0:0:0:0:
94,239,266062,2,8,L|77:170,1,70,8|0,0:0|0:0,0:0:0:0:
187,51,266491,2,0,L|203:119,1,70,2|0,0:0|0:0,0:0:0:0:
302,217,266920,5,6,0:0:0:0:
407,99,267134,1,8,0:0:0:0:
479,237,267348,2,0,L|499:276,2,35,2|2|2,0:0|0:0|0:0,0:0:0:0:
314,132,267777,1,8,0:0:0:0:
489,154,267991,1,2,0:0:0:0:
288,306,268205,6,0,P|203:323|131:276,1,167.999994873047,6|0,0:0|0:0,0:0:0:0:
187,51,269491,54,0,L|270:69,1,70,8|2,0:0|0:1,0:0:0:0:
353,221,269920,2,0,L|284:205,1,70,4|2,0:3|0:3,0:0:0:0:
159,355,270348,5,4,0:0:0:0:
71,294,270562,2,0,P|124:252|193:253,1,140,8|2,0:0|0:0,0:0:0:0:
330,154,271205,2,0,L|280:299,1,140,8|2,0:0|0:0,0:0:0:0:
511,107,271848,2,0,P|455:66|387:72,1,140,6|8,0:0|0:0,0:0:0:0:
430,166,272491,1,2,0:0:0:0:
242,76,272705,1,2,0:0:0:0:
242,76,272812,1,2,0:0:0:0:
242,76,272920,2,0,L|214:140,1,70,8|4,0:0|0:1,0:0:0:0:
39,207,273348,2,0,L|66:142,1,70,4|0,0:3|0:0,0:0:0:0:
54,302,273777,5,6,0:0:0:0:
337,240,273991,1,8,0:0:0:0:
122,136,274205,1,2,0:0:0:0:
122,136,274312,1,2,0:0:0:0:
122,136,274419,1,2,0:0:0:0:
219,360,274634,1,8,0:0:0:0:
386,160,274848,1,2,0:0:0:0:
181,31,275062,1,2,0:0:0:0:
39,207,275277,6,0,P|99:246|172:233,1,140,6|8,0:0|0:0,0:0:0:0:
313,109,275919,1,2,0:0:0:0:
121,136,276134,1,2,0:0:0:0:
291,228,276348,38,0,L|272:316,1,79.3333348464966,8|8,0:0|0:0,0:0:0:0:
156,296,276919,6,0,L|168:360,1,60.6666638895672,2|0,0:0|0:0,0:0:0:0:
256,192,277419,12,0,284062,0:0:0:0:
