osu file format v14

[General]
AudioFilename: kokoronashi.mp3
AudioLeadIn: 0
PreviewTime: 80263
Countdown: 0
SampleSet: Soft
StackLeniency: 0.7
Mode: 0
LetterboxInBreaks: 0
WidescreenStoryboard: 0

[Editor]
DistanceSpacing: 2
BeatDivisor: 4
GridSize: 4
TimelineZoom: 1

[Metadata]
Title:Kokoronashi
TitleUnicode:心做し
Artist:Hanatan
ArtistUnicode:花たん
Creator:SnowflakeStreet
Version:Insane
Source:
Tags:Hanatan Kokoronashi Ruish SnowflakeStreet jump
BeatmapID:649310
BeatmapSetID:287429

[Difficulty]
HPDrainRate:6
CircleSize:4
OverallDifficulty:8
ApproachRate:9
SliderMultiplier:1.4
SliderTickRate:1

[Events]
//Background and Video events
0,0,"Kokoronashi.png",0,0
//Break Periods
2,104187,114268
2,175896,196858
//Storyboard Layer 0 (Background)
//Storyboard Layer 1 (Fail)
//Storyboard Layer 2 (Pass)
//Storyboard Layer 3 (Foreground)
//Storyboard Sound Samples

[TimingPoints]
24430,356.760613628255,4,2,0,80,1,0
80441,-100,4,1,0,95,0,1
104344,-100,4,3,0,85,0,0
141447,-100,4,2,0,85,0,0
197458,-100,4,1,0,95,0,1
221361,-100,4,2,0,80,0,0

[HitObjects]
112,112,24429,5,4,0:0:0:0:
392,112,24786,1,0,0:0:0:0:
160,264,25143,1,0,0:0:0:0:
440,260,25500,1,0,0:0:0:0:
332,172,25678,1,0,0:0:0:0:
332,172,25767,1,0,0:0:0:0:
332,172,25857,1,0,0:0:0:0:
132,172,26035,1,0,0:0:0:0:
324,88,26213,1,0,0:0:0:0:
148,308,26570,2,8,P|92:268|100:192,1,140
340,68,27284,5,0,0:0:0:0:
60,76,27640,1,0,0:0:0:0:
316,188,27997,1,0,0:0:0:0:
44,256,28354,1,0,0:0:0:0:
180,296,28532,1,0,0:0:0:0:
180,296,28621,1,0,0:0:0:0:
180,296,28711,1,0,0:0:0:0:
316,260,28889,1,0,0:0:0:0:
420,168,29067,2,8,P|416:92|344:64,1,140
84,64,29781,1,8,0:0:0:0:
196,144,29959,1,8,0:0:0:0:
312,64,30138,5,4,0:0:0:0:
60,184,30494,1,0,0:0:0:0:
340,180,30851,1,0,0:0:0:0:
88,304,31208,1,0,0:0:0:0:
228,308,31386,1,0,0:0:0:0:
228,308,31476,1,0,0:0:0:0:
228,308,31565,1,0,0:0:0:0:
164,184,31743,1,0,0:0:0:0:
304,184,31921,1,0,0:0:0:0:
60,48,32278,2,8,P|36:104|76:192,1,140
324,104,32992,5,0,0:0:0:0:
52,172,33349,1,0,0:0:0:0:
112,300,33527,1,0,0:0:0:0:
204,192,33705,1,0,0:0:0:0:
312,104,33884,1,0,0:0:0:0:
448,68,34062,1,0,0:0:0:0:
448,208,34240,1,0,0:0:0:0:
448,208,34330,1,0,0:0:0:0:
448,208,34419,1,0,0:0:0:0:
344,304,34597,1,0,0:0:0:0:
212,264,34776,2,8,P|156:232|152:216,1,70
92,104,35132,1,8,0:0:0:0:
372,104,35489,1,8,0:0:0:0:
256,184,35667,1,8,0:0:0:0:
256,44,35846,5,4,0:0:0:0:
448,248,36203,1,0,0:0:0:0:
192,136,36559,1,0,0:0:0:0:
380,344,36916,1,0,0:0:0:0:
244,308,37095,1,0,0:0:0:0:
244,308,37184,1,0,0:0:0:0:
244,308,37273,1,0,0:0:0:0:
124,236,37451,1,0,0:0:0:0:
28,136,37630,2,8,P|36:80|96:24,1,140
376,44,38343,1,8,0:0:0:0:
112,132,38700,5,0,0:0:0:0:
392,148,39057,1,0,0:0:0:0:
124,228,39413,1,0,0:0:0:0:
396,248,39770,1,0,0:0:0:0:
260,280,39949,1,0,0:0:0:0:
260,280,40038,1,0,0:0:0:0:
260,280,40127,1,0,0:0:0:0:
124,244,40305,1,0,0:0:0:0:
256,196,40484,2,8,P|336:176|392:136,1,140
112,76,41197,1,8,0:0:0:0:
244,24,41376,1,8,0:0:0:0:
376,72,41554,5,4,0:0:0:0:
120,180,41911,1,0,0:0:0:0:
400,160,42268,1,0,0:0:0:0:
144,272,42624,1,0,0:0:0:0:
284,272,42803,1,0,0:0:0:0:
284,272,42892,1,0,0:0:0:0:
284,272,42981,1,0,0:0:0:0:
416,232,43159,1,0,0:0:0:0:
284,184,43338,2,8,P|200:152|144:100,1,140
436,56,44051,1,8,0:0:0:0:
156,56,44408,5,0,0:0:0:0:
68,320,44765,1,0,0:0:0:0:
208,308,44943,1,0,0:0:0:0:
100,220,45122,1,0,0:0:0:0:
240,208,45300,1,0,0:0:0:0:
132,120,45478,1,0,0:0:0:0:
272,104,45657,1,0,0:0:0:0:
272,104,45746,1,0,0:0:0:0:
272,104,45835,1,0,0:0:0:0:
160,20,46014,1,0,0:0:0:0:
300,16,46192,2,8,P|384:40|432:84,1,140
312,332,46905,1,8,0:0:0:0:
172,332,47084,1,8,0:0:0:0:
68,236,47262,5,4,0:0:0:0:
344,196,47619,2,0,P|272:164|208:152,1,140
72,140,48154,1,0,0:0:0:0:
204,88,48332,1,0,0:0:0:0:
336,136,48511,1,0,0:0:0:0:
336,136,48600,1,0,0:0:0:0:
336,136,48689,1,0,0:0:0:0:
464,196,48868,1,0,0:0:0:0:
336,252,49046,2,8,P|252:256|188:228,1,140
448,104,49760,5,0,0:0:0:0:
312,72,49938,1,0,0:0:0:0:
172,76,50116,2,0,P|112:120|132:176,1,140
236,264,50651,2,0,P|304:212|284:160,1,140
172,96,51187,1,0,0:0:0:0:
64,188,51365,2,0,P|124:244|180:208,1,140
272,128,51900,1,0,0:0:0:0:
476,320,52257,1,0,0:0:0:0:
336,316,52435,1,0,0:0:0:0:
208,256,52614,1,0,0:0:0:0:
452,120,52970,6,0,P|356:100|292:92,1,140,4|0,0:0|0:0,0:0:0:0:
176,92,53505,1,0,0:0:0:0:
68,180,53684,2,0,P|36:232|36:248,1,70
132,340,54041,1,0,0:0:0:0:
248,260,54219,1,0,0:0:0:0:
248,260,54308,1,0,0:0:0:0:
248,260,54397,1,0,0:0:0:0:
292,128,54576,1,0,0:0:0:0:
164,188,54754,2,8,P|172:124|216:64,1,140
496,52,55468,5,0,0:0:0:0:
408,164,55646,1,0,0:0:0:0:
308,260,55824,2,0,P|208:288|184:256,1,140
180,132,56360,2,0,P|260:88|312:132,1,140
364,228,56895,1,0,0:0:0:0:
232,272,57073,2,0,P|164:256|136:192,1,140
76,68,57608,1,0,0:0:0:0:
356,80,57965,1,0,0:0:0:0:
240,160,58143,1,0,0:0:0:0:
364,228,58322,1,0,0:0:0:0:
96,168,58679,5,0,0:0:0:0:
336,24,59035,2,0,P|396:40|412:56,1,70
352,184,59392,2,0,L|268:144,1,70,2|0,0:0|0:0,0:0:0:0:
188,252,59749,2,0,P|236:296|256:296,1,70
376,272,60106,2,0,P|420:248|432:220,1,70,2|0,0:0|0:0,0:0:0:0:
320,124,60462,2,0,L|256:176,1,70
128,200,60819,2,0,P|88:172|80:152,1,70,2|0,0:0|0:0,0:0:0:0:
172,48,61176,2,0,P|204:60|228:88,1,70
212,228,61533,6,0,P|304:264|372:244,1,140
420,140,62068,1,0,0:0:0:0:
140,108,62425,1,0,0:0:0:0:
76,232,62603,1,0,0:0:0:0:
188,324,62781,1,0,0:0:0:0:
188,324,62870,1,0,0:0:0:0:
188,324,62960,1,0,0:0:0:0:
292,232,63138,1,0,0:0:0:0:
388,128,63316,2,8,P|304:84|248:88,1,140
120,100,63852,1,8,0:0:0:0:
216,200,64030,1,8,0:0:0:0:
452,48,64387,5,4,0:0:0:0:
172,80,64743,2,0,P|252:116|288:156,1,140
36,232,65457,1,0,0:0:0:0:
308,308,65814,2,0,P|392:208|392:184,1,140
148,68,66527,1,0,0:0:0:0:
416,156,66884,1,0,0:0:0:0:
136,164,67241,5,0,0:0:0:0:
404,244,67598,1,0,0:0:0:0:
304,148,67776,1,0,0:0:0:0:
288,288,67954,1,0,0:0:0:0:
140,48,68311,1,0,0:0:0:0:
280,44,68489,1,0,0:0:0:0:
280,44,68579,1,0,0:0:0:0:
280,44,68668,1,0,0:0:0:0:
420,44,68846,1,0,0:0:0:0:
496,160,69025,2,8,P|432:224|376:248,1,140
124,152,69738,1,8,0:0:0:0:
228,244,69916,1,8,0:0:0:0:
360,288,70095,5,4,0:0:0:0:
476,24,70452,2,0,P|380:48|344:84,1,140
124,236,71165,2,0,P|172:224|200:204,1,70
188,72,71522,1,0,0:0:0:0:
328,68,71700,1,0,0:0:0:0:
436,148,71879,1,0,0:0:0:0:
164,220,72235,1,0,0:0:0:0:
444,236,72592,1,0,0:0:0:0:
184,136,72949,6,0,P|112:112|60:64,1,140
344,52,73662,1,0,0:0:0:0:
216,300,74019,1,0,0:0:0:0:
340,236,74198,1,0,0:0:0:0:
340,236,74287,1,0,0:0:0:0:
340,236,74376,1,0,0:0:0:0:
436,136,74554,1,0,0:0:0:0:
308,80,74733,2,8,P|224:124|200:172,1,140
452,292,75446,1,8,0:0:0:0:
220,132,75803,5,0,0:0:0:0:
20,328,76160,2,0,P|116:340|184:324,1,140
388,172,76873,1,0,0:0:0:0:
108,164,77230,1,0,0:0:0:0:
176,44,77408,1,0,0:0:0:0:
244,164,77587,1,0,0:0:0:0:
488,28,77944,1,0,0:0:0:0:
480,308,78300,2,0,P|360:324|324:320,1,140,4|0,0:0|0:0,0:0:0:0:
92,196,79014,2,0,P|140:132|204:100,1,140
468,56,79727,1,0,0:0:0:0:
88,100,80441,5,0,0:0:0:0:
464,296,80798,1,0,0:0:0:0:
320,40,80976,1,0,0:0:0:0:
128,288,81154,2,0,B|156:256|156:256|172:280|172:280|200:240|200:240|232:264,1,140,0|4,0:0|0:0,0:0:0:0:
232,80,81868,1,0,0:0:0:0:
324,348,82225,1,0,0:0:0:0:
436,80,82403,1,0,0:0:0:0:
156,112,82581,2,0,B|164:152|164:152|204:148|204:148|212:176|212:176|240:168|240:168,1,140
84,268,83295,2,0,P|44:188|64:136,1,140
320,44,84009,1,0,0:0:0:0:
0,112,84365,5,0,0:0:0:0:
164,300,84544,1,0,0:0:0:0:
176,64,84722,1,0,0:0:0:0:
348,244,84900,1,0,0:0:0:0:
108,256,85079,1,0,0:0:0:0:
296,68,85257,1,0,0:0:0:0:
392,328,85436,2,0,B|424:300|424:300|392:284|392:284|444:268|444:268|428:248,1,140
188,68,86149,5,0,0:0:0:0:
372,280,86506,1,0,0:0:0:0:
304,60,86684,1,0,0:0:0:0:
96,308,86863,2,0,B|124:280|124:280|144:304|144:304|176:264|176:264|216:280,1,140,0|4,0:0|0:0,0:0:0:0:
88,48,87576,1,0,0:0:0:0:
200,280,87755,1,0,0:0:0:0:
288,40,87933,1,0,0:0:0:0:
412,284,88111,1,0,0:0:0:0:
472,44,88290,2,0,B|448:64|448:64|424:48|424:48|408:84|408:84|368:68,1,140
456,336,89003,6,0,P|476:296|468:244,1,70
328,76,89360,1,0,0:0:0:0:
92,296,89538,1,0,0:0:0:0:
128,40,89717,1,0,0:0:0:0:
476,264,90073,1,0,0:0:0:0:
80,140,90430,1,0,0:0:0:0:
472,56,90787,1,0,0:0:0:0:
212,200,90965,1,0,0:0:0:0:
460,344,91144,2,0,B|464:296|464:296|424:304|424:304|452:272|432:260,1,140
96,324,91857,5,0,0:0:0:0:
436,44,92214,1,0,0:0:0:0:
144,136,92392,1,0,0:0:0:0:
384,292,92571,2,0,B|384:256|384:256|356:248|356:248|364:216|364:216|328:192,1,140,0|4,0:0|0:0,0:0:0:0:
48,340,93284,1,0,0:0:0:0:
432,280,93641,1,0,0:0:0:0:
304,68,93819,1,0,0:0:0:0:
232,336,93998,2,0,B|188:312|188:312|200:288|200:288|172:264|172:264|196:248,1,140
394,129,94711,1,0,0:0:0:0:
72,308,95068,1,0,0:0:0:0:
438,350,95425,1,0,0:0:0:0:
332,21,95782,5,0,0:0:0:0:
32,208,96138,1,0,0:0:0:0:
295,298,96317,1,0,0:0:0:0:
168,68,96495,1,0,0:0:0:0:
446,120,96674,1,0,0:0:0:0:
192,320,96852,2,0,B|224:288|224:288|212:264|212:264|260:248|260:248|252:216,1,140
76,142,97565,5,0,0:0:0:0:
311,314,97744,1,0,0:0:0:0:
257,61,97922,1,0,0:0:0:0:
133,275,98101,1,0,0:0:0:0:
380,156,98279,2,0,B|368:112|368:112|336:140|336:140|336:100|336:100|308:112,1,140,0|4,0:0|0:0,0:0:0:0:
480,288,98992,1,0,0:0:0:0:
182,279,99171,1,0,0:0:0:0:
146,37,99349,1,0,0:0:0:0:
47,278,99528,1,0,0:0:0:0:
248,128,99706,2,0,B|280:104|280:104|312:136|312:136|344:108|344:108|372:136,1,140
64,117,100420,5,0,0:0:0:0:
432,321,100776,1,0,0:0:0:0:
360,72,100955,1,0,0:0:0:0:
165,263,101133,1,0,0:0:0:0:
489,232,101490,1,0,0:0:0:0:
127,110,101847,1,0,0:0:0:0:
347,362,102203,1,0,0:0:0:0:
424,113,102382,1,0,0:0:0:0:
170,197,102560,1,0,0:0:0:0:
484,37,102917,1,0,0:0:0:0:
142,243,103274,1,0,0:0:0:0:
500,220,103630,2,0,P|468:171|453:160,1,70
222,94,103987,1,0,0:0:0:0:
427,126,114868,5,0,0:0:0:0:
427,126,114958,1,0,0:0:0:0:
427,126,115047,1,0,0:0:0:0:
306,53,115225,1,0,0:0:0:0:
166,55,115403,1,0,0:0:0:0:
64,312,115760,1,4,0:0:0:0:
344,308,116117,1,0,0:0:0:0:
436,204,116295,1,0,0:0:0:0:
348,96,116474,1,0,0:0:0:0:
256,204,116652,1,0,0:0:0:0:
156,300,116830,1,0,0:0:0:0:
16,56,117187,6,0,P|80:56|108:68,1,70
160,176,117544,1,0,0:0:0:0:
248,284,117722,1,0,0:0:0:0:
344,180,117901,2,0,B|264:164|232:172|192:188,1,140
80,120,118436,1,0,0:0:0:0:
204,52,118614,6,0,P|264:48|360:64,1,140
440,156,119149,2,0,P|444:204|424:232,1,70
312,292,119506,1,0,0:0:0:0:
228,180,119685,1,0,0:0:0:0:
140,288,119863,1,0,0:0:0:0:
140,288,119952,1,0,0:0:0:0:
140,288,120041,1,0,0:0:0:0:
280,292,120220,1,0,0:0:0:0:
368,180,120398,2,0,P|336:152|308:144,1,70
176,108,120755,1,0,0:0:0:0:
88,216,120933,1,0,0:0:0:0:
204,296,121112,1,0,0:0:0:0:
344,292,121290,1,0,0:0:0:0:
412,168,121468,5,0,0:0:0:0:
164,36,121825,1,0,0:0:0:0:
304,36,122004,1,0,0:0:0:0:
440,72,122182,1,0,0:0:0:0:
344,168,122360,1,0,0:0:0:0:
448,260,122539,1,0,0:0:0:0:
168,272,122895,6,0,P|112:280|84:268,1,70
56,144,123252,1,0,0:0:0:0:
184,88,123431,1,0,0:0:0:0:
284,184,123609,2,0,B|236:240|236:240|308:288,1,140
436,200,124144,1,0,0:0:0:0:
488,72,124322,6,0,P|428:68|344:84,1,140
216,124,124858,2,0,P|168:148|156:180,1,70
104,288,125214,1,0,0:0:0:0:
232,340,125393,1,0,0:0:0:0:
364,292,125571,1,0,0:0:0:0:
364,292,125660,1,0,0:0:0:0:
364,292,125750,1,0,0:0:0:0:
484,220,125928,2,0,P|488:168|472:148,1,70
352,92,126285,1,0,0:0:0:0:
216,128,126463,1,12,0:0:0:0:
52,256,126731,1,12,0:0:0:0:
252,320,126998,1,12,0:0:0:0:
252,180,127177,5,4,0:0:0:0:
0,56,127533,1,0,0:0:0:0:
76,172,127712,1,0,0:0:0:0:
152,56,127890,1,0,0:0:0:0:
232,172,128068,1,0,0:0:0:0:
312,56,128247,1,0,0:0:0:0:
452,52,128425,2,0,P|480:76|484:112,1,70
444,240,128782,1,0,0:0:0:0:
364,356,128960,1,0,0:0:0:0:
284,240,129139,1,0,0:0:0:0:
168,160,129317,2,0,P|176:112|216:92,1,70
332,100,129674,2,0,P|352:148|344:176,1,70
256,272,130031,5,0,0:0:0:0:
384,212,130209,1,0,0:0:0:0:
468,100,130387,2,0,P|444:76|412:56,1,70
272,44,130744,1,0,0:0:0:0:
156,124,130923,1,0,0:0:0:0:
268,208,131101,1,0,0:0:0:0:
128,208,131279,1,0,0:0:0:0:
244,284,131458,1,0,0:0:0:0:
332,176,131636,1,0,0:0:0:0:
216,100,131814,1,0,0:0:0:0:
128,208,131993,1,0,0:0:0:0:
268,212,132171,1,0,0:0:0:0:
392,152,132350,1,0,0:0:0:0:
264,100,132528,2,0,P|208:92|192:88,1,70
60,56,132885,1,4,0:0:0:0:
156,320,133241,6,0,L|236:308,1,70
352,252,133598,2,0,P|400:216|408:200,1,70
460,80,133955,2,0,P|408:80|376:96,1,70
268,152,134312,2,0,P|228:192|240:216,1,70
256,336,134669,1,0,0:0:0:0:
396,316,134847,1,0,0:0:0:0:
440,184,135025,2,0,P|424:132|408:128,1,70
276,128,135382,1,0,0:0:0:0:
188,236,135560,1,0,0:0:0:0:
176,96,135739,1,0,0:0:0:0:
20,328,136096,5,0,0:0:0:0:
160,324,136274,1,0,0:0:0:0:
300,324,136452,2,0,P|348:312|364:296,1,70
444,184,136809,1,0,0:0:0:0:
308,220,136987,1,0,0:0:0:0:
368,96,137166,1,0,0:0:0:0:
244,164,137344,1,0,0:0:0:0:
124,92,137523,1,0,0:0:0:0:
248,344,137879,2,0,P|336:344|376:296,1,140
432,184,138415,1,0,0:0:0:0:
432,184,138504,1,0,0:0:0:0:
432,184,138593,1,0,0:0:0:0:
256,192,138950,12,0,140020,0:0:0:0:
412,132,140555,5,0,0:0:0:0:
412,132,140644,1,0,0:0:0:0:
412,132,140733,1,0,0:0:0:0:
160,84,141447,6,0,P|144:124|152:156,1,70,4|0,0:0|0:0,0:0:0:0:
288,136,141804,2,0,P|296:172|268:208,1,70
140,208,142161,2,0,P|128:244|152:272,1,70
276,320,142517,1,0,0:0:0:0:
384,232,142696,1,0,0:0:0:0:
260,164,142874,2,0,L|196:136,1,70
68,76,143231,1,0,0:0:0:0:
348,76,143588,1,0,0:0:0:0:
124,248,143944,1,0,0:0:0:0:
388,344,144301,5,0,0:0:0:0:
436,68,144658,1,0,0:0:0:0:
156,48,145015,1,0,0:0:0:0:
316,280,145371,1,0,0:0:0:0:
48,196,145728,1,0,0:0:0:0:
140,88,145906,1,0,0:0:0:0:
216,204,146085,1,0,0:0:0:0:
472,88,146442,1,0,0:0:0:0:
192,64,146798,1,0,0:0:0:0:
292,164,146977,1,0,0:0:0:0:
292,164,147066,1,0,0:0:0:0:
292,164,147155,1,4,0:0:0:0:
40,288,147512,5,0,0:0:0:0:
128,180,147690,1,0,0:0:0:0:
208,296,147869,1,0,0:0:0:0:
288,180,148047,1,0,0:0:0:0:
368,292,148225,1,0,0:0:0:0:
448,180,148404,1,0,0:0:0:0:
364,68,148582,5,0,0:0:0:0:
240,136,148761,1,0,0:0:0:0:
380,140,148939,1,0,0:0:0:0:
256,204,149117,1,0,0:0:0:0:
396,208,149296,1,0,0:0:0:0:
276,276,149474,1,0,0:0:0:0:
416,268,149652,1,0,0:0:0:0:
288,336,149831,1,0,0:0:0:0:
428,340,150009,2,0,P|464:296|460:276,1,70
324,268,150366,1,0,0:0:0:0:
416,164,150544,1,0,0:0:0:0:
280,192,150723,2,0,P|284:144|312:124,1,70
404,40,151080,1,0,0:0:0:0:
272,80,151258,1,0,0:0:0:0:
400,136,151436,5,0,0:0:0:0:
268,180,151615,1,0,0:0:0:0:
252,320,151793,1,0,0:0:0:0:
140,252,151971,1,0,0:0:0:0:
140,252,152061,1,0,0:0:0:0:
140,252,152150,1,0,0:0:0:0:
48,144,152328,1,0,0:0:0:0:
176,84,152507,1,0,0:0:0:0:
272,184,152685,1,0,0:0:0:0:
380,276,152863,6,0,P|432:256|440:240,1,70,6|0,0:0|0:0,0:0:0:0:
428,104,153220,2,0,P|376:124|340:148,1,70
292,252,153577,2,0,P|256:272|200:264,1,70,2|0,0:0|0:0,0:0:0:0:
92,236,153934,2,0,P|120:184|144:176,1,70
272,184,154290,2,0,P|312:152|324:132,1,70,2|0,0:0|0:0,0:0:0:0:
216,44,154647,2,0,P|248:24|288:24,1,70
420,32,155004,2,0,P|408:68|384:96,1,70,2|0,0:0|0:0,0:0:0:0:
248,108,155361,2,0,P|208:156|212:180,1,70
328,232,155717,6,0,P|304:272|276:280,1,70,2|0,0:0|0:0,0:0:0:0:
168,200,156074,2,0,P|120:236|120:256,1,70
60,368,156431,2,0,P|116:348|136:320,1,70,2|0,0:0|0:0,0:0:0:0:
164,208,156788,2,0,P|152:152|140:136,1,70
36,56,157144,2,0,P|80:40|108:40,1,70,2|0,0:0|0:0,0:0:0:0:
224,112,157501,2,0,P|260:96|284:72,1,70
420,52,157858,1,8,0:0:0:0:
464,184,158036,1,8,0:0:0:0:
324,184,158215,1,8,0:0:0:0:
212,268,158393,1,0,0:0:0:0:
212,268,158482,1,0,0:0:0:0:
212,268,158571,1,4,0:0:0:0:
20,64,158928,5,0,0:0:0:0:
300,72,159285,1,0,0:0:0:0:
208,176,159463,1,0,0:0:0:0:
344,200,159642,1,0,0:0:0:0:
424,84,159820,1,0,0:0:0:0:
424,224,159999,2,0,P|412:264|392:300,1,70
260,316,160355,1,0,0:0:0:0:
12,192,160712,1,0,0:0:0:0:
276,96,161069,1,0,0:0:0:0:
100,316,161426,5,0,0:0:0:0:
240,316,161604,1,0,0:0:0:0:
116,252,161782,1,0,0:0:0:0:
244,200,161961,1,0,0:0:0:0:
372,252,162139,1,0,0:0:0:0:
448,136,162317,1,0,0:0:0:0:
324,68,162496,1,0,0:0:0:0:
184,68,162674,1,0,0:0:0:0:
248,192,162853,2,0,P|312:192|332:180,1,70
424,100,163209,1,0,0:0:0:0:
152,160,163388,1,0,0:0:0:0:
152,160,163477,1,0,0:0:0:0:
152,160,163566,1,0,0:0:0:0:
272,228,163745,1,0,0:0:0:0:
400,280,163923,1,0,0:0:0:0:
396,140,164101,1,0,0:0:0:0:
260,100,164280,6,8,P|188:104|120:136,1,140,12|8,0:0|0:0,0:0:0:0:
324,328,164993,2,0,P|384:296|440:244,1,140
360,132,165528,1,0,0:0:0:0:
232,184,165707,1,0,0:0:0:0:
360,244,165885,1,0,0:0:0:0:
488,188,166063,1,0,0:0:0:0:
212,136,166420,1,0,0:0:0:0:
480,64,166777,1,0,0:0:0:0:
200,56,167134,6,0,P|128:88|88:136,1,140
312,308,167847,1,0,0:0:0:0:
56,196,168204,1,0,0:0:0:0:
188,148,168382,1,0,0:0:0:0:
188,148,168472,1,0,0:0:0:0:
188,148,168561,1,0,0:0:0:0:
328,124,168739,1,0,0:0:0:0:
468,116,168918,2,8,P|428:168|352:208,1,140
108,88,169631,1,8,0:0:0:0:
96,228,169809,1,8,0:0:0:0:
228,280,169988,6,0,P|308:288|384:280,1,140,4|0,0:0|0:0,0:0:0:0:
200,56,170701,1,0,0:0:0:0:
68,304,171058,2,0,P|112:316|160:320,1,70
272,292,171415,1,0,0:0:0:0:
388,216,171593,1,0,0:0:0:0:
272,140,171772,1,0,0:0:0:0:
4,56,172128,1,0,0:0:0:0:
256,192,172485,12,0,174268,0:0:0:0:
272,120,174804,5,0,0:0:0:0:
272,120,174893,1,0,0:0:0:0:
272,120,174982,1,0,0:0:0:0:
388,200,175161,1,0,0:0:0:0:
260,260,175339,1,0,0:0:0:0:
132,200,175518,1,0,0:0:0:0:
272,200,175696,1,4,0:0:0:0:
60,100,197458,5,0,0:0:0:0:
424,108,197815,1,0,0:0:0:0:
260,320,197994,1,0,0:0:0:0:
168,88,198172,2,0,B|208:84|208:84|212:120|212:120|264:112|264:112|264:136,1,140,0|4,0:0|0:0,0:0:0:0:
316,316,198885,1,0,0:0:0:0:
24,320,199242,1,0,0:0:0:0:
116,80,199421,1,0,0:0:0:0:
304,236,199599,2,0,B|324:204|324:204|360:224|360:224|372:192|372:192|392:168,1,140
136,64,200312,1,0,0:0:0:0:
392,324,200669,1,0,0:0:0:0:
116,132,201026,1,0,0:0:0:0:
468,132,201383,5,0,0:0:0:0:
156,68,201561,1,0,0:0:0:0:
380,248,201740,1,0,0:0:0:0:
84,204,201918,1,0,0:0:0:0:
284,360,202096,1,0,0:0:0:0:
352,96,202275,1,0,0:0:0:0:
108,224,202453,2,0,B|152:236|152:236|152:200|152:200|200:216|200:216|196:184,1,140
72,136,203167,5,0,0:0:0:0:
380,320,203523,1,0,0:0:0:0:
264,112,203702,1,0,0:0:0:0:
132,300,203880,2,0,B|180:308|180:308|180:268|180:268|216:280|216:280|240:256,1,140,0|4,0:0|0:0,0:0:0:0:
92,96,204594,1,0,0:0:0:0:
232,300,204772,1,0,0:0:0:0:
480,200,204950,1,0,0:0:0:0:
332,28,205129,1,0,0:0:0:0:
320,288,205307,2,0,B|276:300|276:300|280:264|280:264|240:284|240:284|232:252,1,140
396,232,206021,1,0,0:0:0:0:
44,316,206377,1,0,0:0:0:0:
168,92,206556,1,0,0:0:0:0:
320,276,206734,1,0,0:0:0:0:
508,48,207091,1,0,0:0:0:0:
148,96,207448,1,0,0:0:0:0:
444,320,207804,1,0,0:0:0:0:
356,96,207983,1,0,0:0:0:0:
132,160,208161,1,0,0:0:0:0:
512,280,208518,1,0,0:0:0:0:
104,228,208875,5,0,0:0:0:0:
412,40,209231,1,0,0:0:0:0:
376,312,209410,1,0,0:0:0:0:
152,180,209588,2,0,B|180:204|180:204|192:168|192:168|224:196|224:196|240:160,1,140,0|4,0:0|0:0,0:0:0:0:
116,60,210302,1,0,0:0:0:0:
412,348,210659,1,0,0:0:0:0:
184,264,210837,1,0,0:0:0:0:
392,120,211015,2,0,B|356:96|356:96|328:128|328:128|312:108|312:108|288:136,1,140
452,236,211729,1,0,0:0:0:0:
60,88,212086,1,0,0:0:0:0:
408,344,212442,1,0,0:0:0:0:
48,176,212799,1,0,0:0:0:0:
480,60,213156,5,0,0:0:0:0:
236,272,213334,1,0,0:0:0:0:
296,28,213513,1,0,0:0:0:0:
80,212,213691,1,0,0:0:0:0:
384,112,213869,2,0,B|356:84|356:84|344:116|344:116|312:76|312:76|300:104,1,140
364,48,214583,5,0,0:0:0:0:
320,324,214761,1,0,0:0:0:0:
168,88,214940,1,0,0:0:0:0:
120,344,215118,1,0,0:0:0:0:
332,192,215296,2,0,B|320:152|320:152|292:184|292:184|276:136|276:136|248:148,1,140,0|4,0:0|0:0,0:0:0:0:
420,284,216010,1,0,0:0:0:0:
320,64,216188,1,0,0:0:0:0:
152,252,216367,1,0,0:0:0:0:
72,32,216545,1,0,0:0:0:0:
288,192,216723,2,0,B|280:236|280:236|228:232|228:232|232:268|232:268|204:268,1,140
448,84,217437,6,0,L|360:84,1,70
192,300,217794,1,0,0:0:0:0:
108,40,217972,1,0,0:0:0:0:
380,168,218151,1,0,0:0:0:0:
24,152,218507,1,0,0:0:0:0:
424,304,218864,1,0,0:0:0:0:
144,56,219221,1,0,0:0:0:0:
96,324,219399,1,0,0:0:0:0:
348,204,219578,1,0,0:0:0:0:
96,132,220291,5,0,0:0:0:0:
376,140,220648,2,0,L|456:188,1,70
336,272,221005,1,0,0:0:0:0:
56,260,221361,5,4,0:0:0:0:
324,176,221718,1,0,0:0:0:0:
44,156,222075,1,0,0:0:0:0:
316,92,222432,1,0,0:0:0:0:
228,200,222610,1,0,0:0:0:0:
228,200,222699,1,0,0:0:0:0:
228,200,222788,1,0,0:0:0:0:
368,200,222967,1,0,0:0:0:0:
356,340,223145,2,8,P|312:332|220:276,1,140
36,84,223859,1,8,0:0:0:0:
316,88,224215,5,0,0:0:0:0:
72,228,224572,1,0,0:0:0:0:
344,164,224929,1,0,0:0:0:0:
104,304,225286,1,0,0:0:0:0:
244,296,225464,1,0,0:0:0:0:
244,296,225553,1,0,0:0:0:0:
244,296,225642,1,0,0:0:0:0:
384,296,225821,1,0,0:0:0:0:
508,228,225999,2,8,P|504:168|436:108,1,140
172,100,226713,1,8,0:0:0:0:
72,196,226891,1,8,0:0:0:0:
172,292,227070,6,0,P|248:280|324:236,1,140,4|0,0:0|0:0,0:0:0:0:
488,40,227783,1,0,0:0:0:0:
208,60,228140,1,0,0:0:0:0:
324,140,228318,1,0,0:0:0:0:
324,140,228407,1,0,0:0:0:0:
324,140,228497,1,0,0:0:0:0:
464,136,228675,1,0,0:0:0:0:
436,272,228853,2,8,P|344:268|288:256,1,140
56,116,229567,1,8,0:0:0:0:
336,88,229924,5,0,0:0:0:0:
120,268,230280,1,0,0:0:0:0:
260,268,230459,1,0,0:0:0:0:
388,212,230637,1,0,0:0:0:0:
288,116,230816,1,0,0:0:0:0:
284,256,230994,1,0,0:0:0:0:
156,196,231172,1,0,0:0:0:0:
156,196,231261,1,0,0:0:0:0:
156,196,231351,1,0,0:0:0:0:
40,116,231529,1,0,0:0:0:0:
176,80,231707,2,8,P|264:72|344:80,1,140
140,296,232421,1,8,0:0:0:0:
280,292,232599,1,8,0:0:0:0:
384,196,232778,5,4,0:0:0:0:
108,148,233134,1,0,0:0:0:0:
384,100,233491,1,0,0:0:0:0:
140,236,233848,1,0,0:0:0:0:
268,176,234026,1,0,0:0:0:0:
268,176,234116,1,0,0:0:0:0:
268,176,234205,1,0,0:0:0:0:
148,104,234383,1,0,0:0:0:0:
44,196,234562,2,8,P|88:280|148:276,1,140
396,220,235275,1,8,0:0:0:0:
136,120,235632,5,0,0:0:0:0:
416,96,235989,1,0,0:0:0:0:
216,292,236345,1,0,0:0:0:0:
492,248,236702,1,0,0:0:0:0:
380,164,236880,1,0,0:0:0:0:
380,164,236970,1,0,0:0:0:0:
380,164,237059,1,0,0:0:0:0:
248,116,237237,1,0,0:0:0:0:
112,144,237416,2,8,P|200:204|236:208,1,140
460,44,238129,1,8,0:0:0:0:
408,172,238307,1,8,0:0:0:0:
276,120,238486,5,4,0:0:0:0:
56,292,238843,1,0,0:0:0:0:
336,276,239199,1,0,0:0:0:0:
92,136,239556,1,0,0:0:0:0:
220,192,239735,1,0,0:0:0:0:
220,192,239824,1,0,0:0:0:0:
220,192,239913,1,0,0:0:0:0:
344,128,240091,1,0,0:0:0:0:
212,76,240270,2,8,P|300:56|360:52,1,140
452,316,240983,1,8,0:0:0:0:
180,256,241340,5,0,0:0:0:0:
440,152,241697,1,0,0:0:0:0:
336,56,241875,1,0,0:0:0:0:
284,184,242053,1,0,0:0:0:0:
188,84,242232,1,0,0:0:0:0:
132,212,242410,1,0,0:0:0:0:
244,296,242589,1,0,0:0:0:0:
244,296,242678,1,0,0:0:0:0:
244,296,242767,1,0,0:0:0:0:
384,296,242945,1,0,0:0:0:0:
452,172,243124,2,8,P|344:148|300:152,1,140
176,164,243659,1,8,0:0:0:0:
296,92,243837,1,8,0:0:0:0:
352,272,244194,1,4,0:0:0:0:
