osu file format v14

[General]
AudioFilename: .mp3
AudioLeadIn: 0
PreviewTime: 21920
Countdown: 1
SampleSet: Soft
StackLeniency: 0.7
Mode: 0
LetterboxInBreaks: 1
WidescreenStoryboard: 0

[Editor]
Bookmarks: 143151,152997,157612
DistanceSpacing: 1.3
BeatDivisor: 4
GridSize: 4
TimelineZoom: 2.2

[Metadata]
Title:Kogitsune no Ran
TitleUnicode:弧ギツネの乱
Artist:Hanatan
ArtistUnicode:花たん
Creator:Awaken
Version:Marasy
Source:
Tags:vocaloid marasy
BeatmapID:631579
BeatmapSetID:278875

[Difficulty]
HPDrainRate:7
CircleSize:4
OverallDifficulty:8
ApproachRate:9.4
SliderMultiplier:1.7
SliderTickRate:1

[Events]
//Background and Video events
0,0,"516f9b02429b0.jpg",0,0
//Break Periods
2,86581,151841
2,172735,186918
2,215043,227380
//Storyboard Layer 0 (Background)
//Storyboard Layer 1 (Fail)
//Storyboard Layer 2 (Pass)
//Storyboard Layer 3 (Foreground)
//Storyboard Sound Samples

[TimingPoints]
755,300,4,2,1,40,1,0
755,-133.333333333333,4,2,1,40,0,0
17555,-100,4,2,1,40,0,0
21305,307.692307692308,4,2,1,40,1,0
27151,-133.333333333333,4,2,1,40,0,0
27458,-83.3333333333333,4,2,1,40,0,0
28074,-100,4,2,1,40,0,0
33458,-83.3333333333333,4,2,1,40,0,0
34689,-133.333333333333,4,2,1,40,0,0
36074,-100,4,2,1,40,0,0
54381,-83.3333333333333,4,2,1,40,0,0
54843,-200,4,2,1,40,0,0
55305,-83.3333333333333,4,2,1,40,0,0
55612,-133.333333333333,4,2,1,40,0,0
56535,-200,4,2,1,40,0,0
57766,-133.333333333333,4,2,1,40,0,0
58074,-83.3333333333333,4,2,1,40,0,0
58689,-100,4,2,1,40,0,0
62997,-83.3333333333333,4,2,1,40,0,0
63766,-100,4,2,1,40,0,0
64381,-100,4,2,1,80,0,1
80381,-50,4,2,1,80,0,1
80843,-100,4,2,1,80,0,1
81612,-100,4,2,1,40,0,0
116074,-100,4,2,1,40,0,1
133305,-100,4,2,1,40,0,0
141612,-200,4,2,1,40,0,0
152381,-100,4,2,1,40,0,0
152689,-200,4,2,1,40,0,0
155458,-100,4,2,1,40,0,0
160074,-80,4,2,1,40,0,0
161766,-100,4,2,1,40,0,0
162535,-50,4,2,1,40,0,0
168535,-100,4,2,1,40,0,0
184997,-83.3333333333333,4,2,1,40,0,1
204074,-100,4,2,1,40,0,1
204381,-133.333333333333,4,2,1,40,0,1
205920,-100,4,2,1,80,0,1
207151,-100,4,2,1,40,0,0

[Colours]
Combo1 : 77,208,208
Combo2 : 165,254,179
Combo3 : 255,255,164
Combo4 : 154,220,252
Combo5 : 255,162,255
Combo6 : 244,33,28

[HitObjects]
188,234,755,6,0,P|137:223|101:161,1,127.500004863739
186,149,1205,1,0,0:0:0:0:
186,149,1280,1,0,0:0:0:0:
186,149,1355,2,0,L|252:158,1,63.7500024318696
276,238,1655,2,0,L|345:227,1,63.7500024318696
406,171,1955,5,0,0:0:0:0:
271,331,2255,2,0,B|234:312|234:312|188:338|128:306,1,127.500004863739
70,350,2705,1,0,0:0:0:0:
70,350,2780,1,0,0:0:0:0:
70,350,2855,1,0,0:0:0:0:
131,235,3005,1,0,0:0:0:0:
21,289,3155,6,0,B|8:253|8:253|27:156,1,127.500004863739
134,143,3605,1,0,0:0:0:0:
134,143,3680,1,0,0:0:0:0:
134,143,3755,2,0,L|124:69,1,63.7500024318696
229,216,4055,2,0,L|241:147,1,63.7500024318696
131,235,4355,5,0,0:0:0:0:
131,235,4955,37,0,0:0:0:0:
213,311,5105,1,0,0:0:0:0:
228,306,5180,1,0,0:0:0:0:
243,301,5255,1,0,0:0:0:0:
218,134,5405,1,0,0:0:0:0:
334,302,5555,5,0,0:0:0:0:
131,328,6005,5,0,0:0:0:0:
296,209,6155,1,0,0:0:0:0:
296,209,6230,1,0,0:0:0:0:
296,209,6305,1,0,0:0:0:0:
131,152,6455,5,0,0:0:0:0:
386,227,6605,1,0,0:0:0:0:
386,227,6680,1,0,0:0:0:0:
386,227,6755,1,0,0:0:0:0:
268,58,6905,37,0,0:0:0:0:
230,293,7055,1,0,0:0:0:0:
230,293,7130,1,0,0:0:0:0:
230,293,7205,1,0,0:0:0:0:
268,58,7355,1,0,0:0:0:0:
495,313,7655,1,0,0:0:0:0:
34,296,7955,6,0,P|22:250|65:174,1,127.500004863739
256,257,8405,2,0,L|259:292,1,31.8750012159348
344,319,8555,2,0,L|341:365,3,31.8750012159348
400,226,8855,2,0,L|396:185,1,31.8750012159348
319,133,9005,1,0,0:0:0:0:
484,108,9155,6,0,B|495:156|495:156|481:242,1,127.500004863739
241,166,9605,1,0,0:0:0:0:
204,82,9755,1,0,0:0:0:0:
169,216,9905,1,0,0:0:0:0:
73,161,10055,2,0,P|61:198|61:227,1,63.7500024318696
241,166,10355,6,0,L|231:26,1,127.500004863739
150,140,10805,1,0,0:0:0:0:
243,251,10955,1,0,0:0:0:0:
243,251,11030,1,0,0:0:0:0:
110,325,11180,1,0,0:0:0:0:
110,325,11255,1,0,0:0:0:0:
169,216,11405,37,0,0:0:0:0:
211,364,11555,1,0,0:0:0:0:
31,361,11705,1,0,0:0:0:0:
27,345,11780,1,0,0:0:0:0:
25,329,11855,1,0,0:0:0:0:
27,313,11930,1,0,0:0:0:0:
32,298,12005,1,0,0:0:0:0:
56,125,12155,2,0,L|64:168,1,31.8750012159348
79,231,12305,5,0,0:0:0:0:
109,52,12455,1,0,0:0:0:0:
169,216,12605,2,0,L|165:267,1,31.8750012159348
261,156,12755,6,0,B|273:113|273:113|257:21,1,127.500004863739
258,31,13205,1,0,0:0:0:0:
258,31,13955,6,0,B|273:113|273:113|261:156,1,127.500004863739
406,240,14405,1,0,0:0:0:0:
345,337,14555,1,0,0:0:0:0:
405,156,14705,37,0,0:0:0:0:
360,328,14855,1,0,0:0:0:0:
361,84,15005,5,0,0:0:0:0:
377,317,15155,2,0,B|411:324|411:324|439:312|439:312|466:328|506:315,1,127.500004863739
485,236,15605,2,0,P|499:207|501:175,1,63.7500024318696
281,131,15905,2,0,P|282:163|296:192,1,63.7500024318696
448,79,16205,2,0,L|455:15,1,63.7500024318696
194,106,16505,6,0,L|189:154,1,31.8750012159348
179,219,16655,1,0,0:0:0:0:
83,124,16805,2,0,L|89:172,1,31.8750012159348
79,244,16955,1,0,0:0:0:0:
410,75,21305,5,0,0:0:0:0:
406,95,21381,1,0,0:0:0:0:
402,115,21458,1,0,0:0:0:0:
398,135,21535,1,0,0:0:0:0:
394,155,21612,1,0,0:0:0:0:
390,176,21689,1,0,0:0:0:0:
386,197,21766,1,0,0:0:0:0:
383,218,21843,1,0,0:0:0:0:
380,239,21920,38,0,L|391:289,3,42.5
282,295,22228,2,0,L|282:343,3,42.5
186,256,22535,6,0,B|187:215|187:215|204:165,1,85
91,303,22843,2,0,B|115:344|115:344|159:364,1,85
427,276,23151,2,0,P|350:249|282:294,1,170
329,160,23612,1,0,0:0:0:0:
329,160,23689,1,0,0:0:0:0:
329,160,23766,2,0,L|267:148,1,42.5
361,329,23920,2,0,L|365:385,1,42.5
438,137,24074,1,0,0:0:0:0:
506,310,24228,1,0,0:0:0:0:
430,124,24381,54,0,L|440:25,1,85
164,295,24689,2,0,P|183:332|218:357,1,85
244,124,24997,2,0,B|206:111|206:111|169:118|168:118|168:118|123:95|67:123,1,170
323,226,25458,1,0,0:0:0:0:
124,191,25612,1,0,0:0:0:0:
308,348,25766,1,0,0:0:0:0:
308,348,25843,1,0,0:0:0:0:
308,348,25920,1,0,0:0:0:0:
212,199,26074,1,0,0:0:0:0:
38,338,26228,5,0,0:0:0:0:
122,109,26381,1,0,0:0:0:0:
256,279,26535,1,0,0:0:0:0:
121,310,26689,1,0,0:0:0:0:
121,310,26766,1,0,0:0:0:0:
121,310,26843,2,0,L|116:249,1,42.5
273,105,26997,2,0,L|277:154,1,42.5
423,175,27151,6,0,L|429:72,1,95.6250036478044
381,24,27458,6,0,B|407:66|468:58|468:58|510:93,1,152.999995330811
504,168,27766,1,0,0:0:0:0:
504,168,27920,1,0,0:0:0:0:
191,231,28074,5,0,0:0:0:0:
351,99,28228,1,0,0:0:0:0:
301,330,28381,2,0,L|296:275,1,42.5
394,219,28535,2,0,L|391:262,1,42.5
251,163,28689,37,0,0:0:0:0:
416,359,28843,1,0,0:0:0:0:
423,367,29151,5,0,0:0:0:0:
212,309,29305,1,0,0:0:0:0:
480,226,29458,1,0,0:0:0:0:
306,230,29612,2,0,L|311:283,1,42.5
460,151,29766,2,0,L|464:109,1,42.5
327,98,29920,5,0,0:0:0:0:
336,345,30074,1,0,0:0:0:0:
338,88,30381,5,0,0:0:0:0:
255,366,30535,1,0,0:0:0:0:
347,80,30843,37,0,0:0:0:0:
166,349,30997,1,0,0:0:0:0:
353,73,31305,69,0,0:0:0:0:
107,290,31458,1,0,0:0:0:0:
504,324,31766,5,0,0:0:0:0:
164,188,31920,1,0,0:0:0:0:
156,176,32228,37,0,0:0:0:0:
483,113,32381,1,0,0:0:0:0:
495,106,32689,37,0,0:0:0:0:
303,360,32843,1,0,0:0:0:0:
293,373,33151,5,0,0:0:0:0:
324,172,33305,1,0,0:0:0:0:
292,280,33458,6,0,B|343:284|367:317|367:317|351:234,1,152.999995330811
241,217,33766,2,0,P|213:278|256:349,1,152.999995330811
331,350,34074,6,0,B|366:352|366:352|401:340|401:340|445:354|488:328,1,152.999995330811
373,269,34381,2,0,P|423:255|460:162,1,152.999995330811
375,180,34689,38,0,B|387:141|357:102|357:102|354:24|354:24|332:84|272:87,1,255.000009727478
162,165,35458,1,0,0:0:0:0:
283,213,35612,1,0,0:0:0:0:
283,213,35689,1,0,0:0:0:0:
283,213,35766,1,0,0:0:0:0:
168,147,35920,1,0,0:0:0:0:
111,277,36074,6,0,P|68:280|17:267,1,85
201,353,36381,2,0,P|256:345|297:357,1,85
426,285,36689,2,0,L|441:191,1,85
424,160,36920,1,0,0:0:0:0:
411,119,36997,1,0,0:0:0:0:
398,78,37074,1,0,0:0:0:0:
386,37,37151,6,0,P|344:73|226:75,1,170
127,198,37612,1,0,0:0:0:0:
345,310,37766,1,0,0:0:0:0:
244,172,37920,5,0,0:0:0:0:
220,376,38074,1,0,0:0:0:0:
427,328,38228,1,0,0:0:0:0:
263,292,38381,1,0,0:0:0:0:
397,244,38535,37,0,0:0:0:0:
244,172,38689,1,0,0:0:0:0:
451,172,38843,1,0,0:0:0:0:
318,96,38997,1,0,0:0:0:0:
505,110,39151,2,0,L|498:26,1,85
244,172,39458,1,0,0:0:0:0:
398,244,39612,5,0,0:0:0:0:
398,244,39689,1,0,0:0:0:0:
398,244,39766,2,0,B|365:229|323:229|323:229|283:278|216:259,2,170
332,377,40535,1,0,0:0:0:0:
175,318,40689,1,0,0:0:0:0:
244,172,40843,5,0,0:0:0:0:
244,172,40920,1,0,0:0:0:0:
244,172,40997,1,0,0:0:0:0:
332,377,41151,1,0,0:0:0:0:
92,362,41305,1,0,0:0:0:0:
360,291,41458,1,0,0:0:0:0:
92,362,41612,6,0,L|83:269,1,85
442,258,41920,2,0,P|447:306|425:351,1,85
253,70,42228,2,0,B|296:50|337:53|337:53|374:78|436:77,2,170
319,248,42997,1,0,0:0:0:0:
342,147,43151,1,0,0:0:0:0:
179,128,43305,69,0,0:0:0:0:
179,128,43381,1,0,0:0:0:0:
179,128,43458,1,0,0:0:0:0:
242,291,43612,1,0,0:0:0:0:
402,207,43766,1,0,0:0:0:0:
174,41,43920,5,0,0:0:0:0:
470,260,44228,1,0,0:0:0:0:
98,91,44535,38,0,B|80:143|116:187|116:187|106:257,1,170
27,207,44997,1,0,0:0:0:0:
179,128,45151,1,0,0:0:0:0:
236,301,45305,1,0,0:0:0:0:
142,208,45458,1,0,0:0:0:0:
307,81,45612,1,0,0:0:0:0:
226,209,45766,6,0,L|215:32,1,170
408,157,46228,1,0,0:0:0:0:
322,308,46381,1,0,0:0:0:0:
307,81,46535,1,0,0:0:0:0:
400,249,46689,1,0,0:0:0:0:
226,210,46843,1,0,0:0:0:0:
405,334,46997,6,0,P|468:304|470:205,1,170
221,117,47458,1,0,0:0:0:0:
171,312,47612,1,0,0:0:0:0:
310,221,47766,1,0,0:0:0:0:
346,384,47920,1,0,0:0:0:0:
121,377,48074,1,0,0:0:0:0:
254,291,48228,1,0,0:0:0:0:
108,187,48381,5,0,0:0:0:0:
222,377,48535,1,0,0:0:0:0:
346,295,48689,1,0,0:0:0:0:
181,227,48843,1,0,0:0:0:0:
421,340,48997,1,0,0:0:0:0:
254,291,49151,1,0,0:0:0:0:
254,291,49228,1,0,0:0:0:0:
254,291,49305,1,0,0:0:0:0:
489,270,49458,1,0,0:0:0:0:
310,369,49612,38,0,P|267:317|306:223,2,170
449,182,50381,1,0,0:0:0:0:
321,68,50535,1,0,0:0:0:0:
463,102,50689,1,0,0:0:0:0:
463,102,50766,1,0,0:0:0:0:
463,102,50843,1,0,0:0:0:0:
326,260,50997,1,0,0:0:0:0:
354,158,51151,1,0,0:0:0:0:
431,325,51305,1,0,0:0:0:0:
226,270,51458,5,0,0:0:0:0:
407,249,51612,1,0,0:0:0:0:
321,68,51766,1,0,0:0:0:0:
294,345,51920,1,0,0:0:0:0:
294,345,51997,1,0,0:0:0:0:
294,345,52074,2,0,P|244:369|206:368,1,85
18,269,52381,2,0,P|56:272|101:298,1,85
238,167,52689,2,0,P|159:167|92:93,1,170
207,49,53151,1,0,0:0:0:0:
338,169,53305,5,0,0:0:0:0:
159,258,53458,1,0,0:0:0:0:
159,258,53535,1,0,0:0:0:0:
159,258,53612,1,0,0:0:0:0:
238,167,53766,1,0,0:0:0:0:
194,351,53920,5,0,0:0:0:0:
28,296,54074,1,0,0:0:0:0:
287,234,54228,1,0,0:0:0:0:
64,366,54381,6,0,B|57:309|57:309|72:269|72:269|39:216|74:145,1,203.999993774414
394,329,54843,6,0,L|386:378,1,42.5
447,253,55151,2,0,L|456:274,1,21.25
437,240,55305,6,0,P|398:207|422:116,1,152.999995330811
466,174,55612,54,0,B|416:201|416:201|371:163|315:183|315:183|275:227|300:265|300:265|314:295|298:346,1,318.750012159348
415,107,56535,6,0,B|419:77|419:77|392:47|410:2,1,106.25
480,32,56997,5,0,0:0:0:0:
494,130,57151,1,0,0:0:0:0:
429,203,57305,1,0,0:0:0:0:
338,186,57458,1,0,0:0:0:0:
265,251,57612,5,0,0:0:0:0:
234,335,57766,2,0,B|270:341|270:341|295:337|295:337|327:347,1,95.6250036478044
157,371,58074,38,0,B|154:315|154:315|173:274|173:274|167:228|167:228|180:162,2,203.999993774414
157,371,58766,1,0,0:0:0:0:
157,371,58843,1,0,0:0:0:0:
82,184,58997,1,0,0:0:0:0:
331,26,59151,1,0,0:0:0:0:
337,68,59228,1,0,0:0:0:0:
343,110,59305,1,0,0:0:0:0:
348,151,59381,1,0,0:0:0:0:
354,193,59458,6,0,L|340:287,1,85
182,105,59766,2,0,P|168:56|178:11,1,85
143,271,60074,2,0,B|104:281|104:281|53:277,1,85
431,166,60381,5,0,0:0:0:0:
182,106,60535,1,0,0:0:0:0:
182,106,60612,1,0,0:0:0:0:
182,106,60689,1,0,0:0:0:0:
373,309,60843,5,0,0:0:0:0:
256,161,60997,1,0,0:0:0:0:
244,384,61151,1,0,0:0:0:0:
299,272,61305,2,0,L|301:214,1,42.5
505,204,61458,2,0,L|503:246,1,42.5
363,118,61612,2,0,L|365:60,1,42.5
455,328,61766,2,0,L|453:370,1,42.5
209,301,61920,5,0,0:0:0:0:
209,301,62997,6,0,P|156:307|86:240,1,152.999995330811
176,218,63305,2,0,L|331:232,1,152.999995330811
310,138,63612,2,0,L|372:160,1,50.9999984436036
436,186,63766,5,0,0:0:0:0:
437,229,63842,1,0,0:0:0:0:
424,269,63919,1,0,0:0:0:0:
399,303,63996,1,0,0:0:0:0:
365,328,64073,1,0,0:0:0:0:
324,341,64150,1,0,0:0:0:0:
282,340,64227,1,0,0:0:0:0:
242,326,64304,1,0,0:0:0:0:
209,301,64381,6,0,B|166:296|166:296|115:301,1,85
302,95,64689,2,0,B|345:100|345:100|396:95,1,85
47,244,64997,2,0,P|21:201|36:123,1,127.5
32,127,65305,1,0,0:0:0:0:
182,219,65458,1,0,0:0:0:0:
182,219,65535,1,0,0:0:0:0:
182,219,65612,1,0,0:0:0:0:
11,325,65766,1,0,0:0:0:0:
262,241,65920,5,0,0:0:0:0:
107,174,66074,1,0,0:0:0:0:
324,305,66228,2,0,P|349:258|325:180,1,127.5
299,124,66535,2,0,P|298:74|313:36,1,85
444,277,66843,6,0,L|451:369,1,85
199,299,67151,2,0,P|180:256|185:210,1,85
503,37,67458,54,0,B|493:173,1,127.5
490,200,67766,1,0,0:0:0:0:
283,43,67920,1,0,0:0:0:0:
490,200,68074,1,0,0:0:0:0:
220,152,68228,5,0,0:0:0:0:
220,152,68305,1,0,0:0:0:0:
220,152,68381,2,0,L|221:208,1,42.5
286,330,68535,2,0,L|292:288,1,42.5
176,374,68689,2,0,P|121:375|89:357,1,85
389,265,68997,2,0,P|423:288|448:332,1,85
159,211,69305,70,0,P|132:166|166:92,1,127.5
222,68,69612,2,0,L|314:84,1,85
159,290,69920,6,0,P|107:299|50:245,1,113.333333333333
41,197,70228,1,0,0:0:0:0:
240,316,70381,1,0,0:0:0:0:
0,322,70535,5,0,0:0:0:0:
262,235,70689,1,0,0:0:0:0:
262,235,70766,1,0,0:0:0:0:
262,235,70843,2,0,L|262:175,1,42.5
159,290,70997,2,0,L|163:337,1,42.5
195,143,71151,1,0,0:0:0:0:
320,292,71305,37,0,0:0:0:0:
327,288,71381,1,0,0:0:0:0:
334,284,71458,1,0,0:0:0:0:
341,280,71535,1,0,0:0:0:0:
348,276,71612,1,0,0:0:0:0:
355,272,71689,1,0,0:0:0:0:
362,269,71766,2,0,L|356:331,1,42.5
447,170,71920,5,0,0:0:0:0:
447,170,71997,1,0,0:0:0:0:
447,170,72074,2,0,L|456:223,1,42.5
318,68,72228,5,0,0:0:0:0:
318,68,72305,1,0,0:0:0:0:
318,68,72381,2,0,L|310:124,1,42.5
117,207,72535,2,0,L|112:152,1,42.5
233,300,72689,2,0,L|230:358,1,42.5
33,367,72843,2,0,L|24:308,1,42.5
225,196,72997,5,0,0:0:0:0:
255,225,73073,1,0,0:0:0:0:
294,242,73150,1,0,0:0:0:0:
336,246,73227,1,0,0:0:0:0:
377,236,73304,1,0,0:0:0:0:
413,214,73381,1,0,0:0:0:0:
439,181,73458,1,0,0:0:0:0:
453,141,73535,1,0,0:0:0:0:
431,90,73612,5,0,0:0:0:0:
411,141,73689,1,0,0:0:0:0:
414,196,73766,1,0,0:0:0:0:
433,247,73843,1,0,0:0:0:0:
468,289,73920,1,0,0:0:0:0:
450,341,73997,1,0,0:0:0:0:
400,365,74074,1,0,0:0:0:0:
344,368,74151,1,0,0:0:0:0:
292,348,74228,6,0,B|245:337|245:337|154:353,1,127.5
85,369,74535,2,0,L|0:359,1,85
152,92,74843,2,0,P|211:94|251:31,1,127.5
306,116,75151,2,0,P|288:153|291:202,1,85
309,270,75381,1,0,0:0:0:0:
309,270,75458,1,0,0:0:0:0:
495,176,75612,1,0,0:0:0:0:
313,31,75766,1,0,0:0:0:0:
393,200,75920,37,0,0:0:0:0:
393,200,75997,1,0,0:0:0:0:
393,200,76074,2,0,L|397:145,1,42.5
471,273,76228,2,0,L|469:327,1,42.5
373,365,76381,2,0,P|335:352|279:357,1,85
79,283,76689,6,0,P|138:297|206:266,1,127.5
231,210,76997,2,0,P|218:258|223:298,1,85
276,355,77228,1,0,0:0:0:0:
276,355,77305,2,0,B|324:348|324:348|415:366,1,127.5
471,272,77612,2,0,L|428:276,1,42.5
326,137,77766,1,0,0:0:0:0:
494,193,77920,6,0,B|501:158|501:158|482:56,1,127.5
398,63,78228,2,0,L|416:147,1,85
361,218,78458,1,0,0:0:0:0:
361,218,78535,2,0,L|351:284,1,42.5
224,145,78689,2,0,L|218:90,1,42.5
99,244,78843,2,0,L|104:287,1,42.5
0,171,78997,5,0,0:0:0:0:
8,151,79074,1,0,0:0:0:0:
16,131,79151,2,0,B|68:125|68:125|101:129|101:129|156:121,1,127.5
224,145,79458,2,0,P|223:104|201:68,1,85
235,278,79766,2,0,B|283:304|283:304|374:297,1,127.5
381,372,80074,2,0,L|289:377,1,85
212,355,80305,1,0,0:0:0:0:
212,355,80381,6,0,L|393:373,1,170
404,372,80843,6,0,L|457:363,1,42.5
299,174,80997,1,0,0:0:0:0:
278,168,81074,1,0,0:0:0:0:
257,162,81151,1,0,0:0:0:0:
236,156,81228,1,0,0:0:0:0:
215,151,81305,5,0,0:0:0:0:
268,139,81381,1,0,0:0:0:0:
322,128,81458,1,0,0:0:0:0:
376,117,81535,1,0,0:0:0:0:
429,102,81612,6,0,L|489:87,1,42.5
467,267,81766,2,0,L|378:251,1,85
466,183,82074,6,0,L|526:168,1,42.5
335,324,82228,2,0,L|246:308,1,85
315,48,82535,6,0,L|375:33,1,42.5
187,244,82689,2,0,L|98:228,1,85
192,38,82997,38,0,L|252:23,1,42.5
98,320,83151,2,0,L|9:304,1,85
372,195,83458,2,0,L|377:249,1,42.5
249,186,83612,2,0,L|254:97,1,85
455,259,83920,2,0,L|460:313,1,42.5
182,329,84074,2,0,L|187:240,1,85
486,133,84381,2,0,L|491:187,1,42.5
133,180,84535,2,0,L|138:91,1,85
419,342,84843,6,0,P|358:346|320:327,1,85
263,309,85074,1,0,0:0:0:0:
263,309,85151,6,0,L|123:329,1,127.5
332,259,85458,6,0,L|204:242,1,127.5
413,257,85766,38,0,L|296:175,1,127.5
492,296,86074,6,0,L|443:178,1,127.5
495,375,86381,5,0,0:0:0:0:
144,30,152381,6,0,L|139:59,7,21.25
61,48,152689,6,0,L|67:123,1,63.75
60,142,152997,5,0,0:0:0:0:
100,128,153074,1,0,0:0:0:0:
142,126,153151,1,0,0:0:0:0:
183,134,153228,1,0,0:0:0:0:
217,158,153305,1,0,0:0:0:0:
252,179,153381,1,0,0:0:0:0:
293,188,153458,1,0,0:0:0:0:
335,185,153535,1,0,0:0:0:0:
365,154,153612,5,0,0:0:0:0:
379,114,153689,1,0,0:0:0:0:
370,72,153766,1,0,0:0:0:0:
343,38,153843,1,0,0:0:0:0:
302,26,153920,1,0,0:0:0:0:
260,32,153997,1,0,0:0:0:0:
222,52,154074,1,0,0:0:0:0:
200,88,154151,1,0,0:0:0:0:
183,134,154228,53,0,0:0:0:0:
0,374,154843,6,0,B|115:342|63:395|172:377,1,170
345,230,155612,38,0,L|281:219,1,42.5
246,102,155766,2,0,L|288:96,1,42.5
422,254,155920,6,0,P|374:304|312:301,1,127.5
247,345,156228,6,0,P|310:341|359:378,1,127.5
247,345,156535,6,0,B|211:359|211:359|179:353|179:353|146:357|146:357|107:346|107:346|53:358|53:358|-3:341,1,255
124,216,157151,1,0,0:0:0:0:
124,216,157228,1,0,0:0:0:0:
124,216,157305,2,0,L|129:274,1,42.5
19,191,157458,2,0,L|21:135,1,42.5
0,342,157612,38,0,B|53:358|53:358|107:346|107:346|146:357|146:357|179:353|179:353|211:359|211:359|247:345,1,255
375,381,158228,2,0,B|365:296|365:296|379:256,1,127.5
297,243,158535,2,0,B|311:203|311:203|301:118,1,127.5
379,75,158843,6,0,L|387:131,2,56.6666666666667
288,206,159151,2,0,L|293:262,2,56.6666666666667
415,297,159458,2,0,L|405:369,2,56.6666666666667
321,354,159766,38,0,B|284:364|256:348|256:348|223:362|187:357,1,127.5
204,275,160074,6,0,P|142:253|141:156,1,159.375
199,201,160381,6,0,L|276:198,1,53.125
512,363,160535,2,0,L|458:365,1,53.125
290,303,160689,2,0,L|367:300,1,53.125
396,192,160843,6,0,P|420:234|460:164,1,159.375
420,266,161151,38,0,P|488:241|468:172,1,159.375
507,280,161458,6,0,P|492:185|395:192,1,212.5
314,312,161843,1,0,0:0:0:0:
314,312,161920,2,0,L|322:361,1,42.5
228,198,162074,2,0,L|218:243,1,42.5
74,380,162228,2,0,L|68:325,1,42.5
12,140,162381,2,0,L|2:185,1,42.5
155,57,162535,5,0,0:0:0:0:
149,50,162612,1,0,0:0:0:0:
144,43,162689,1,0,0:0:0:0:
139,36,162766,1,0,0:0:0:0:
134,29,162843,6,0,P|126:76|141:130,1,85
81,199,162997,2,0,P|108:237|157:265,1,85
153,347,163151,2,0,P|200:355|254:340,1,85
460,197,163305,2,0,P|413:182|360:181,1,85
398,357,163458,6,0,L|492:342,1,85
286,201,163612,2,0,L|202:214,1,85
299,287,163766,2,0,L|393:272,1,85
212,126,163920,2,0,L|128:139,1,85
363,36,164074,5,0,0:0:0:0:
316,369,164228,1,0,0:0:0:0:
363,36,164381,1,0,0:0:0:0:
316,369,164535,1,0,0:0:0:0:
207,203,164689,1,0,0:0:0:0:
460,279,164843,1,0,0:0:0:0:
266,27,164997,1,0,0:0:0:0:
159,274,165151,6,0,P|209:287|159:131,1,340
207,203,165535,1,0,0:0:0:0:
207,203,165612,1,0,0:0:0:0:
456,91,165766,1,0,0:0:0:0:
207,203,165920,6,0,L|298:225,1,85
473,366,166074,2,0,L|390:346,1,85
374,71,166228,2,0,L|465:93,1,85
233,317,166381,6,0,P|167:362|136:191,1,340
159,274,166766,1,0,0:0:0:0:
159,274,166843,1,0,0:0:0:0:
432,184,166997,2,0,L|341:168,1,85
39,41,167151,6,0,P|105:92|67:-6,1,255
60,115,167458,2,0,L|151:100,3,85
20,193,167766,5,0,0:0:0:0:
30,234,167843,1,0,0:0:0:0:
57,266,167920,1,0,0:0:0:0:
94,285,167997,1,0,0:0:0:0:
136,291,168074,1,0,0:0:0:0:
178,288,168151,1,0,0:0:0:0:
217,273,168228,1,0,0:0:0:0:
253,251,168305,1,0,0:0:0:0:
275,215,168381,1,0,0:0:0:0:
285,173,168458,1,0,0:0:0:0:
272,132,168535,1,0,0:0:0:0:
245,98,168612,1,0,0:0:0:0:
210,73,168689,5,0,0:0:0:0:
176,103,168765,1,0,0:0:0:0:
152,143,168842,1,0,0:0:0:0:
142,187,168919,1,0,0:0:0:0:
145,233,168996,1,0,0:0:0:0:
161,276,169073,1,0,0:0:0:0:
190,312,169150,1,0,0:0:0:0:
228,338,169227,1,0,0:0:0:0:
272,351,169304,1,0,0:0:0:0:
318,351,169381,1,0,0:0:0:0:
361,337,169458,1,0,0:0:0:0:
399,311,169535,1,0,0:0:0:0:
427,274,169612,5,0,0:0:0:0:
385,245,169689,1,0,0:0:0:0:
334,238,169766,1,0,0:0:0:0:
283,245,169843,1,0,0:0:0:0:
237,268,169920,1,0,0:0:0:0:
186,275,169997,1,0,0:0:0:0:
135,268,170074,1,0,0:0:0:0:
92,238,170151,1,0,0:0:0:0:
67,193,170228,6,0,L|61:104,1,85
178,69,170458,1,0,0:0:0:0:
178,69,170535,2,0,L|174:173,1,85
282,205,170766,1,0,0:0:0:0:
282,205,170843,2,0,L|276:151,1,42.5
198,269,170997,2,0,L|199:326,1,42.5
304,374,171151,2,0,L|295:315,1,42.5
204,324,171305,6,0,P|260:328|331:241,1,170
323,174,171689,1,0,0:0:0:0:
323,174,171766,1,0,0:0:0:0:
93,233,171920,1,0,0:0:0:0:
409,249,172074,2,0,L|350:241,1,42.5
323,174,172228,6,0,L|337:354,1,170
247,193,187458,6,0,B|194:188|194:188|149:214|90:198,1,152.999995330811
33,150,187766,2,0,P|12:200|41:260,1,101.999996887207
343,192,188074,1,0,0:0:0:0:
162,348,188228,1,0,0:0:0:0:
126,335,188305,1,0,0:0:0:0:
88,321,188381,1,0,0:0:0:0:
291,283,188535,6,0,B|330:270|330:270|370:278|370:278|406:253|457:267,1,152.999995330811
420,341,188843,2,0,L|426:188,1,152.999995330811
288,75,189151,2,0,L|293:131,1,50.9999984436036
448,112,189305,1,0,0:0:0:0:
213,24,189458,1,0,0:0:0:0:
426,189,189612,1,0,0:0:0:0:
146,173,189766,1,0,0:0:0:0:
146,173,189843,1,0,0:0:0:0:
146,173,189920,6,0,P|128:242|180:308,1,152.999995330811
123,359,190228,2,0,P|175:348|230:366,1,101.999996887207
416,283,190535,1,0,0:0:0:0:
210,227,190689,2,0,L|273:220,1,50.9999984436036
330,273,190843,1,0,0:0:0:0:
197,342,190997,6,0,B|152:347|152:347|126:335|126:335|86:353|28:325,1,152.999995330811
91,256,191305,2,0,P|46:244|102:189,1,152.999995330811
210,227,191612,1,0,0:0:0:0:
210,227,191689,1,0,0:0:0:0:
210,227,191766,2,0,L|220:172,1,50.9999984436036
141,48,191920,2,0,L|144:99,1,50.9999984436036
304,97,192074,5,0,0:0:0:0:
141,48,192228,1,0,0:0:0:0:
294,187,192381,2,0,L|356:182,1,50.9999984436036
424,102,192535,2,0,L|481:117,1,50.9999984436036
484,269,192689,1,0,0:0:0:0:
331,330,192843,1,0,0:0:0:0:
290,322,192920,1,0,0:0:0:0:
249,314,192997,1,0,0:0:0:0:
161,153,193151,6,0,L|110:161,1,50.9999984436036
94,340,193305,1,0,0:0:0:0:
207,243,193458,2,0,B|249:223|300:246|300:246|351:228|366:150,1,203.999993774414
363,153,193843,1,0,0:0:0:0:
362,142,193920,1,0,0:0:0:0:
360,131,193997,1,0,0:0:0:0:
356,121,194074,1,0,0:0:0:0:
352,111,194151,1,0,0:0:0:0:
347,101,194228,5,0,0:0:0:0:
325,147,194305,1,0,0:0:0:0:
324,197,194381,1,0,0:0:0:0:
344,243,194458,1,0,0:0:0:0:
349,293,194535,5,0,0:0:0:0:
326,338,194612,1,0,0:0:0:0:
280,361,194689,1,0,0:0:0:0:
228,359,194766,1,0,0:0:0:0:
179,340,194843,6,0,B|138:320|85:336|85:336|31:297,1,152.999995330811
114,241,195151,2,0,B|92:197|92:197|90:132,1,101.999996887207
250,26,195458,2,0,L|235:189,1,152.999995330811
254,255,195766,1,0,0:0:0:0:
165,108,195920,2,0,L|162:57,1,50.9999984436036
83,83,196074,5,0,0:0:0:0:
191,199,196228,1,0,0:0:0:0:
17,295,196381,1,0,0:0:0:0:
174,339,196535,2,0,L|182:287,1,50.9999984436036
79,165,196689,6,0,B|91:213|91:213|84:247|84:247|105:276|94:323,1,152.999995330811
308,317,196997,6,0,P|249:338|177:277,1,152.999995330811
254,255,197305,5,0,0:0:0:0:
453,265,197458,2,0,L|461:327,1,50.9999984436036
373,384,197612,1,0,0:0:0:0:
340,208,197766,2,0,L|343:153,1,50.9999984436036
486,36,197920,6,0,B|477:96|477:96|486:131|486:131|478:191,1,152.999995330811
453,265,198228,1,0,0:0:0:0:
283,83,198381,1,0,0:0:0:0:
321,96,198458,1,0,0:0:0:0:
359,108,198535,1,0,0:0:0:0:
375,304,198689,2,0,L|316:302,1,50.9999984436036
231,174,198843,2,0,L|177:182,1,50.9999984436036
117,332,198997,2,0,L|60:327,1,50.9999984436036
60,116,199151,5,0,0:0:0:0:
168,263,199305,1,0,0:0:0:0:
0,367,199458,1,0,0:0:0:0:
255,265,199612,1,0,0:0:0:0:
46,128,199766,6,0,B|40:172|40:172|54:205|54:205|35:243|66:288,1,152.999995330811
117,332,200074,2,0,P|169:346|224:329,1,101.999996887207
440,188,200381,6,0,L|420:350,1,152.999995330811
421,339,200689,1,0,0:0:0:0:
294,193,200843,1,0,0:0:0:0:
294,193,200920,1,0,0:0:0:0:
294,193,200997,1,0,0:0:0:0:
511,88,201151,5,0,0:0:0:0:
505,73,201458,5,0,0:0:0:0:
359,138,201612,1,0,0:0:0:0:
315,112,201688,1,0,0:0:0:0:
265,114,201765,1,0,0:0:0:0:
223,142,201842,1,0,0:0:0:0:
207,191,201920,5,0,0:0:0:0:
228,237,201997,1,0,0:0:0:0:
233,287,202074,1,0,0:0:0:0:
210,333,202151,1,0,0:0:0:0:
169,363,202228,6,0,L|107:366,1,50.9999984436036
317,301,202381,2,0,L|424:322,1,101.999996887207
137,280,202689,6,0,L|75:283,1,50.9999984436036
352,226,202842,2,0,L|459:247,1,101.999996887207
116,193,203151,6,0,L|65:195,1,50.9999984436036
388,152,203304,2,0,L|488:171,1,101.999996887207
228,238,203612,2,0,L|216:175,1,50.9999984436036
361,372,203766,2,0,P|310:382|260:357,1,101.999996887207
299,35,204074,6,0,L|297:170,1,127.5
194,111,204381,6,0,L|214:208,1,95.6250036478044
116,193,204689,1,0,0:0:0:0:
409,333,205612,2,0,L|417:383,3,31.8750012159348
486,330,205920,5,0,0:0:0:0:
489,307,205997,1,0,0:0:0:0:
491,285,206074,1,0,0:0:0:0:
493,263,206151,1,0,0:0:0:0:
496,241,206228,1,0,0:0:0:0:
498,220,206305,1,0,0:0:0:0:
501,199,206381,1,0,0:0:0:0:
503,177,206458,1,0,0:0:0:0:
504,155,206535,5,0,0:0:0:0:
454,122,206612,1,0,0:0:0:0:
395,115,206689,1,0,0:0:0:0:
338,129,206766,1,0,0:0:0:0:
293,167,206843,1,0,0:0:0:0:
234,174,206920,1,0,0:0:0:0:
175,161,206997,1,0,0:0:0:0:
133,118,207074,1,0,0:0:0:0:
110,62,207151,6,0,L|107:29,2,21.25
256,192,207266,12,0,214535,0:0:0:0:
144,139,214689,5,0,0:0:0:0:
144,139,214766,1,0,0:0:0:0:
144,139,214843,1,0,0:0:0:0:
324,315,227920,6,0,B|285:293|285:293|244:317|179:288,1,127.5
104,174,228228,2,0,B|143:196|143:196|184:172|249:201,1,127.5
208,382,228535,6,0,B|195:338|195:338|150:326|124:260,1,127.5
231,116,228843,2,0,B|243:159|243:159|288:171|314:237,1,127.5
221,249,229151,1,0,0:0:0:0:
